osu file format v14

[General]
AudioFilename: audio.mp3
AudioLeadIn: 0
PreviewTime: 52623
Countdown: 0
SampleSet: Soft
StackLeniency: 0.7
Mode: 0
LetterboxInBreaks: 0
WidescreenStoryboard: 1

[Editor]
Bookmarks: 4456,10873,32206,35956,42873,50873,52206,53539,75040,80206,85540,90873,101540,112206,122873,130873,132206,133539,155039,162873,165539,175706
DistanceSpacing: 1.1
BeatDivisor: 4
GridSize: 8
TimelineZoom: 3.339999

[Metadata]
Title:Future Pop
TitleUnicode:Future Pop
Artist:Perfume
ArtistUnicode:Perfume
Creator:Mixagji
Version:Hard
Source:
Tags:japanese pop jpop j-pop electronic future bass
BeatmapID:3378050
BeatmapSetID:1500361

[Difficulty]
HPDrainRate:5
CircleSize:4
OverallDifficulty:6.5
ApproachRate:7.7
SliderMultiplier:1.5
SliderTickRate:1

[Events]
//Background and Video events
0,0,"perfume-electroworld_02.jpg",0,0
//Break Periods
2,85823,90131
//Storyboard Layer 0 (Background)
//Storyboard Layer 1 (Fail)
//Storyboard Layer 2 (Pass)
//Storyboard Layer 3 (Foreground)
//Storyboard Layer 4 (Overlay)
//Storyboard Sound Samples

[TimingPoints]
290,333.333333333333,4,2,3,50,1,0
290,-222.222222222223,4,2,3,50,0,0
32289,-153.846153846154,4,2,1,50,0,0
42623,-153.846153846154,4,2,1,70,0,0
42956,-222.222222222221,4,2,1,55,0,0
45623,-153.846153846153,4,2,1,60,0,0
48289,-125,4,2,1,70,0,0
53623,-100,4,2,1,75,0,1
58289,-100,4,2,3,75,0,1
58956,-100,4,2,1,75,0,1
63956,-100,4,2,1,65,0,0
64289,-100,4,2,1,75,0,1
68789,-100,4,2,3,75,0,1
69623,-100,4,2,1,75,0,1
74956,-153.846153846153,4,2,1,60,0,0
80289,-153.846153846153,4,2,1,65,0,0
82956,-153.846153846153,4,1,2,50,0,0
83956,-153.846153846153,4,2,1,25,0,0
90956,-222.222222222223,4,2,3,50,0,0
112289,-153.846153846154,4,2,1,50,0,0
122956,-133.333333333333,4,2,1,55,0,0
125623,-133.333333333333,4,2,1,60,0,0
128289,-125,4,2,1,70,0,0
133289,-153.846153846154,4,2,1,50,0,0
133623,-100,4,2,1,75,0,1
138289,-100,4,2,3,75,0,1
138956,-100,4,2,1,75,0,1
143956,-100,4,2,1,75,0,0
144289,-100,4,2,1,75,0,1
148789,-100,4,2,3,75,0,1
149623,-100,4,2,1,75,0,1
154956,-153.846153846153,4,2,1,60,0,0
162956,-153.846153846153,4,1,2,50,0,0
163956,-153.846153846153,4,2,1,25,0,0

[Colours]
Combo1 : 255,128,64
Combo2 : 128,255,255
Combo3 : 255,255,128
Combo4 : 128,255,0

[HitObjects]
80,101,290,6,0,P|114:111|150:100,1,67.4999979400635,0|0,0:0|0:0,0:0:0:0:
213,55,789,2,0,P|245:47|277:57,1,67.4999979400635,0|0,0:0|0:0,0:0:0:0:
361,52,1289,2,0,L|362:123,1,67.4999979400635,0|0,0:0|0:0,0:0:0:0:
438,154,1789,2,0,L|437:86,1,67.4999979400635,0|0,0:0|0:0,0:0:0:0:
363,202,2289,5,2,0:0:0:0:
334,281,2456,1,2,0:0:0:0:
381,344,2623,2,0,P|405:341|413:330,1,33.7499989700318,0|0,0:0|0:0,0:0:0:0:
273,224,2956,6,0,L|196:231,1,67.4999979400635,0|0,0:0|0:0,0:0:0:0:
133,186,3456,2,0,L|56:193,1,67.4999979400635,0|0,0:0|0:0,0:0:0:0:
34,272,3956,2,0,P|30:308|43:339,1,67.4999979400635,0|0,0:0|0:0,0:0:0:0:
124,330,4456,2,0,P|128:294|115:263,1,67.4999979400635
24,122,4956,5,2,0:0:0:0:
76,59,5123,2,0,P|91:71|98:87,1,33.7499989700318,0|0,0:0|0:0,0:0:0:0:
110,163,5456,1,2,0:0:0:0:
179,55,5623,6,0,P|187:87|179:120,1,67.4999979400635,0|0,0:0|0:0,0:0:0:0:
227,185,6123,2,0,P|220:218|188:240,1,67.4999979400635,0|0,0:0|0:0,0:0:0:0:
323,229,6623,2,0,P|315:196|323:164,1,67.4999979400635,0|0,0:0|0:0,0:0:0:0:
275,99,7123,2,0,P|282:66|314:44,1,67.4999979400635,0|0,0:0|0:0,0:0:0:0:
465,52,7623,5,2,0:0:0:0:
429,124,7789,1,2,0:0:0:0:
350,104,7956,1,0,0:0:0:0:
385,31,8123,1,2,0:0:0:0:
429,124,8289,6,0,L|417:200,1,67.4999979400635,0|0,0:0|0:0,0:0:0:0:
350,234,8789,2,0,P|374:263|406:267,1,67.4999979400635,0|0,0:0|0:0,0:0:0:0:
483,264,9289,2,0,L|471:340,1,67.4999979400635,0|0,0:0|0:0,0:0:0:0:
401,369,9789,2,0,P|343:368|309:345,1,101.249996910095,0|2,0:0|0:0,0:0:0:0:
234,377,10456,1,0,0:0:0:0:
185,312,10623,2,0,P|180:286|181:277,1,33.7499989700318,2|0,0:0|0:0,0:0:0:0:
71,187,10956,6,0,L|183:192,1,101.249996910095,4|0,0:0|0:0,0:0:0:0:
240,147,11623,2,0,L|318:143,1,67.4999979400635,0|2,0:0|0:0,0:0:0:0:
376,80,12123,2,0,B|424:124|388:205|388:205|373:172,1,168.749994850159,0|0,0:0|0:0,0:0:0:0:
464,40,13289,5,0,0:0:0:0:
498,198,13623,2,0,P|479:244|426:271,1,101.249996910095,2|0,0:0|0:0,0:0:0:0:
355,272,14289,2,0,L|319:252,2,33.7499989700318,0|0|0,0:0|0:0|0:0,0:0:0:0:
400,339,14789,2,0,B|351:367|302:332|302:332|292:347|278:353,1,134.999995880127,2|0,0:0|0:0,0:0:0:0:
225,291,15623,2,0,P|210:299|203:318,1,33.7499989700318,2|0,0:0|0:0,0:0:0:0:
122,318,15956,2,0,P|121:335|126:351,1,33.7499989700318,2|0,0:0|0:0,0:0:0:0:
156,234,16289,6,0,P|112:220|55:224,1,101.249996910095,0|0,0:0|0:0,0:0:0:0:
14,154,16956,2,0,P|9:117|20:88,1,67.4999979400635,2|0,0:0|0:0,0:0:0:0:
29,8,17456,2,0,L|165:35,1,134.999995880127,2|0,0:0|0:0,0:0:0:0:
226,83,18289,6,0,P|239:65|243:49,1,33.7499989700318,0|0,0:0|0:0,0:0:0:0:
323,48,18623,2,0,P|323:28|318:14,1,33.7499989700318,0|0,0:0|0:0,0:0:0:0:
297,124,18956,2,0,P|348:128|389:98,1,101.249996910095,2|0,0:0|0:0,0:0:0:0:
436,35,19623,1,2,0:0:0:0:
469,108,19789,2,0,P|473:132|471:145,1,33.7499989700318,2|0,0:0|0:0,0:0:0:0:
495,219,20123,2,0,L|358:213,1,134.999995880127,2|0,0:0|0:0,0:0:0:0:
245,272,20956,2,0,P|267:269|282:255,1,33.7499989700318,2|2,0:0|0:0,0:0:0:0:
276,181,21289,1,0,0:0:0:0:
197,201,21456,1,2,0:0:0:0:
160,128,21623,6,0,P|113:108|61:112,1,101.249996910095,2|0,0:0|0:0,0:0:0:0:
19,178,22289,2,0,P|5:207|29:232,1,67.4999979400635,2|2,0:0|0:0,0:0:0:0:
110,208,22789,2,0,B|135:277|75:270|98:337,1,134.999995880127,2|0,0:0|0:0,0:0:0:0:
17,357,23623,5,2,0:0:0:0:
184,306,23956,1,2,0:0:0:0:
210,132,24289,2,0,P|185:92|133:75,1,101.249996910095,2|0,0:0|0:0,0:0:0:0:
62,26,24956,2,0,P|42:32|31:46,1,33.7499989700318,2|2,0:0|0:0,0:0:0:0:
27,129,25289,1,0,0:0:0:0:
137,75,25456,2,0,P|198:67|271:92,1,134.999995880127,2|0,0:0|0:0,0:0:0:0:
366,40,26289,2,0,P|347:41|332:53,1,33.7499989700318,0|2,0:0|0:0,0:0:0:0:
392,116,26623,2,0,P|411:115|426:103,1,33.7499989700318,0|0,0:0|0:0,0:0:0:0:
443,21,26956,6,0,P|354:17|309:110,1,202.499993820191,2|0,0:0|0:0,0:0:0:0:
264,184,28123,2,0,P|291:218|349:220,1,101.249996910095,0|0,0:0|0:0,0:0:0:0:
135,294,28956,6,0,P|148:310|167:315,1,33.7499989700318,2|0,0:0|0:0,0:0:0:0:
231,365,29289,2,0,P|250:369|267:360,1,33.7499989700318,2|0,0:0|0:0,0:0:0:0:
340,322,29623,6,0,P|371:304|408:308,1,67.4999979400635,0|0,0:0|0:0,0:0:0:0:
458,238,30123,2,0,P|477:263|486:297,1,67.4999979400635,0|0,0:0|0:0,0:0:0:0:
376,216,30623,2,0,B|352:239|310:237,1,67.4999979400635,0|0,0:0|0:0,0:0:0:0:
231,205,31123,2,0,L|215:127,1,67.4999979400635,0|0,0:0|0:0,0:0:0:0:
238,23,31623,2,0,L|276:21,1,33.7499989700318,8|0,0:0|0:0,0:0:0:0:
166,73,31956,2,0,L|120:77,1,33.7499989700318,0|0,0:0|0:0,0:0:0:0:
53,84,32289,6,0,P|43:42|96:26,1,97.4999955368044,4|0,0:3|0:0,0:0:0:0:
152,64,32789,1,0,0:0:0:0:
131,148,32956,6,0,P|102:160|83:159,1,48.7499977684022,8|0,0:0|0:0,0:0:0:0:
61,238,33289,2,0,P|33:239|11:229,1,48.7499977684022,0|0,0:0|0:0,0:0:0:0:
44,330,33623,2,0,P|51:353|75:367,1,48.7499977684022,0|0,0:0|0:0,0:0:0:0:
133,311,33956,2,0,P|158:317|181:308,1,48.7499977684022,0|0,0:0|0:0,0:0:0:0:
162,227,34289,2,0,P|207:208|230:162,1,97.4999955368044,8|0,0:0|0:0,0:0:0:0:
181,45,34789,1,0,0:0:0:0:
264,44,34956,6,0,B|283:37|283:37|332:52|332:52|364:40,1,97.4999955368044,4|0,0:1|0:0,0:0:0:0:
289,121,35456,1,0,0:0:0:0:
372,121,35623,2,0,P|399:113|415:97,1,48.7499977684022,8|0,0:0|0:0,0:0:0:0:
470,159,35956,2,0,P|485:138|491:112,1,48.7499977684022,0|0,0:0|0:0,0:0:0:0:
404,212,36289,2,0,P|392:262|412:305,1,97.4999955368044,0|8,0:0|0:0,0:0:0:0:
485,331,36789,1,0,0:0:0:0:
354,357,36956,5,8,0:0:0:0:
282,314,37123,2,0,P|266:296|262:271,1,48.7499977684022,0|0,0:0|0:0,0:0:0:0:
269,189,37456,1,0,0:0:0:0:
327,88,37623,6,0,L|228:95,1,97.4999955368044,4|0,0:1|0:0,0:0:0:0:
146,100,38123,1,0,0:0:0:0:
31,50,38289,6,0,L|73:20,1,48.7499977684022,8|0,0:1|0:0,0:0:0:0:
98,110,38623,2,0,L|146:100,1,48.7499977684022,0|0,0:0|0:0,0:0:0:0:
124,190,38956,2,0,L|174:209,1,48.7499977684022,0|0,0:0|0:0,0:0:0:0:
31,183,39289,1,0,0:0:0:0:
31,183,39456,1,0,0:0:0:0:
31,183,39623,2,0,L|40:286,1,97.4999955368044,8|0,0:0|0:0,0:0:0:0:
49,362,40123,1,0,0:0:0:0:
120,320,40289,6,0,L|127:373,1,48.7499977684022,4|0,1:0|0:0,0:0:0:0:
180,256,40623,1,0,0:0:0:0:
180,256,40789,1,0,0:0:0:0:
234,186,40956,2,0,L|227:133,1,48.7499977684022,8|0,1:2|0:0,0:0:0:0:
307,249,41289,2,0,B|349:237|369:280|411:259,1,97.4999955368044,0|2,0:0|0:0,0:0:0:0:
469,215,41789,5,0,0:0:0:0:
398,170,41956,2,0,P|364:168|341:180,1,48.7499977684022,4|0,0:3|0:0,0:0:0:0:
320,324,42289,1,8,0:1:0:0:
192,60,42623,1,8,0:3:0:0:
33,204,42956,6,0,L|71:198,1,33.7499989700318,0|2,3:0|3:0,0:0:0:0:
146,225,43289,2,0,L|184:219,1,33.7499989700318,0|2,3:0|3:0,0:0:0:0:
256,255,43623,1,8,0:1:0:0:
64,320,43956,1,8,0:1:0:0:
0,127,44289,1,8,0:1:0:0:
193,62,44623,1,8,0:1:0:0:
224,159,44956,1,8,0:1:0:0:
128,190,45289,1,0,0:0:0:0:
97,91,45623,6,0,P|116:85|126:108,1,48.7499977684022,0|2,3:0|3:0,0:0:0:0:
224,159,45956,2,0,P|233:183|218:212,1,48.7499977684022,0|2,3:0|3:0,0:0:0:0:
164,280,46289,1,8,0:0:0:0:
378,328,46623,1,8,0:1:0:0:
419,114,46956,1,8,0:1:0:0:
206,65,47289,1,8,0:1:0:0:
164,280,47623,1,8,0:1:0:0:
378,328,47956,1,8,0:1:0:0:
391,255,48123,1,8,0:0:0:0:
477,232,48289,6,0,L|463:298,1,60,2|0,0:0|0:0,0:0:0:0:
378,328,48623,2,0,P|349:326|321:310,1,60,0|0,1:0|0:0,0:0:0:0:
266,222,48956,2,0,P|236:222|210:238,1,60,2|0,0:0|0:0,0:0:0:0:
115,225,49289,2,0,L|128:285,1,60,0|0,1:0|0:0,0:0:0:0:
198,360,49623,6,0,P|219:338|226:306,1,60,2|0,0:0|0:0,0:0:0:0:
266,222,49956,2,0,P|258:191|239:171,1,60,0|0,1:0|0:0,0:0:0:0:
159,115,50289,2,0,L|101:139,1,60,2|0,0:0|0:0,0:0:0:0:
34,70,50623,2,0,L|92:46,1,60,0|0,1:0|0:0,0:0:0:0:
174,18,50956,5,0,1:0:0:0:
240,79,51123,1,0,0:0:0:0:
318,36,51289,1,0,1:0:0:0:
359,115,51456,1,0,0:0:0:0:
436,68,51623,6,0,L|463:82,3,30,0|2|2|2,1:0|0:0|0:0|0:0,0:0:0:0:
475,125,51956,2,0,L|462:151,3,30,0|2|2|2,1:0|0:0|0:0|0:0,0:0:0:0:
418,164,52289,1,4,0:0:0:0:
257,198,52623,6,0,P|279:212|317:214,1,60,2|0,0:1|0:0,0:0:0:0:
398,265,52956,2,0,L|455:241,2,60,0|2|4,3:0|0:0|1:3,0:0:0:0:
398,265,53623,6,0,P|365:289|340:324,1,75,4|0,0:1|0:0,0:0:0:0:
268,347,53956,1,0,1:0:0:0:
217,260,54123,2,0,P|185:233|145:223,1,75,0|0,0:0|0:0,0:0:0:0:
71,234,54456,1,2,0:0:0:0:
25,302,54623,2,0,P|51:331|86:308,1,75,0|0,1:0|0:0,0:0:0:0:
153,223,54956,6,0,P|136:180|130:142,1,75,2|0,0:0|0:0,0:0:0:0:
37,130,55289,2,0,P|47:90|61:57,1,75,0|0,1:0|0:0,0:0:0:0:
131,16,55623,1,0,0:0:0:0:
210,34,55789,1,2,0:0:0:0:
239,111,55956,1,0,1:0:0:0:
451,42,56289,6,0,P|380:16|314:47,1,150,4|0,0:0|1:0,0:0:0:0:
327,127,56789,2,0,P|398:153|464:122,1,150,4|2,0:3|0:0,0:0:0:0:
494,199,57289,1,4,1:3:0:0:
349,342,57623,6,0,L|430:335,1,75,2|0,0:0|0:0,0:0:0:0:
405,254,57956,2,0,L|324:261,1,75,0|0,1:0|0:0,0:0:0:0:
277,196,58289,1,2,0:3:0:0:
240,270,58456,1,2,0:0:0:0:
269,347,58623,2,0,L|190:343,1,75,2|2,1:0|0:0,0:0:0:0:
43,359,58956,6,0,B|31:325|37:286|65:268|98:266|124:278,1,150,4|0,0:1|1:0,0:0:0:0:
174,213,59456,1,0,0:0:0:0:
98,179,59623,2,0,P|60:182|24:197,1,75,0|2,0:0|0:0,0:0:0:0:
4,116,59956,1,0,1:0:0:0:
167,30,60289,6,0,B|131:17|131:17|96:35,1,75,2|0,0:0|0:0,0:0:0:0:
140,105,60623,2,0,B|176:118|176:118|211:100,1,75,0|0,1:0|0:0,0:0:0:0:
281,148,60956,1,0,0:0:0:0:
306,69,61123,1,2,0:0:0:0:
250,9,61289,1,0,1:0:0:0:
376,161,61623,6,0,P|415:164|455:152,1,75,4|0,0:0|0:0,0:0:0:0:
481,78,61956,1,0,1:0:0:0:
416,25,62123,2,0,B|371:43|341:32|344:21|310:16|264:44,1,150,4|2,0:3|0:0,0:0:0:0:
213,100,62623,2,0,B|194:110|174:93|174:93|158:117|158:117|117:98|79:117,1,150,4|2,1:3|0:0,0:0:0:0:
30,50,63123,1,0,0:0:0:0:
81,115,63289,2,0,P|90:151|79:192,1,75,0|0,1:0|1:0,0:0:0:0:
25,277,63623,6,0,P|41:306|70:284,1,75,0|0,3:0|3:0,0:0:0:0:
157,239,63956,2,0,P|215:223|268:235,1,112.5,2|0,0:3|0:0,0:0:0:0:
274,231,64289,6,0,P|278:273|286:316,1,75,4|0,0:1|0:0,0:0:0:0:
249,379,64623,1,0,1:0:0:0:
369,369,64789,2,0,P|365:329|358:291,1,75,0|0,0:0|0:0,0:0:0:0:
426,246,65123,1,2,0:0:0:0:
489,167,65289,2,0,P|449:162|411:166,1,75,0|0,1:0|0:0,0:0:0:0:
282,97,65623,6,0,B|294:135|294:135|338:147,1,75,2|0,0:0|0:0,0:0:0:0:
387,86,65956,2,0,B|375:48|375:48|341:38,1,75,0|0,1:0|0:0,0:0:0:0:
260,18,66289,1,0,0:0:0:0:
178,31,66456,1,2,0:0:0:0:
97,49,66623,1,0,1:0:0:0:
41,216,66956,6,0,P|80:214|107:180,1,75,4|0,0:0|0:0,0:0:0:0:
152,122,67289,1,0,1:0:0:0:
217,194,67456,2,0,P|172:246|162:331,1,150,4|2,0:3|0:0,0:0:0:0:
87,362,67956,1,4,1:3:0:0:
309,368,68289,5,2,0:0:0:0:
349,295,68456,2,0,P|383:277|426:273,1,75,0|0,0:0|0:0,0:0:0:0:
488,194,68789,1,0,0:0:0:0:
406,178,68956,2,0,L|330:165,1,75,2|2,0:1|0:0,0:0:0:0:
253,144,69289,1,0,1:0:0:0:
286,68,69456,1,2,0:0:0:0:
366,47,69623,6,0,P|443:60|492:120,1,150,4|0,0:1|1:0,0:0:0:0:
488,194,70123,1,0,0:0:0:0:
436,257,70289,2,0,L|357:239,1,75,0|2,0:0|0:0,0:0:0:0:
280,252,70623,2,0,L|201:234,1,75,0|0,1:0|0:0,0:0:0:0:
193,132,70956,5,2,0:0:0:0:
270,103,71123,2,0,P|275:141|261:179,1,75,0|0,0:0|1:0,0:0:0:0:
207,236,71456,1,0,0:0:0:0:
134,275,71623,2,0,L|57:261,1,75,0|2,0:0|0:0,0:0:0:0:
8,196,71956,1,0,1:0:0:0:
98,360,72289,6,0,B|156:371|156:371|188:332|245:341,1,150,4|0,0:0|1:0,0:0:0:0:
306,295,72789,2,0,P|344:300|371:330,1,75,4|4,0:3|0:3,0:0:0:0:
445,357,73123,1,2,0:0:0:0:
483,284,73289,1,4,1:3:0:0:
392,72,73623,5,2,0:0:0:0:
404,153,73789,2,0,P|391:188|355:204,1,75,0|0,0:0|1:0,0:0:0:0:
275,197,74123,1,0,1:0:0:0:
218,256,74289,6,0,B|189:233|189:233|194:196,1,75,0|0,1:0|1:0,0:0:0:0:
126,150,74623,2,0,B|102:123|102:123|60:128,1,75,0|0,1:0|0:0,0:0:0:0:
37,54,74956,6,0,L|94:47,1,48.7499977684022,2|4,0:0|0:0,0:0:0:0:
165,71,75289,1,2,0:0:0:0:
241,104,75456,2,0,P|292:113|343:89,1,97.4999955368044,0|0,0:0|0:0,0:0:0:0:
396,43,75956,1,2,0:0:0:0:
475,188,76289,5,2,0:0:0:0:
391,188,76456,2,0,L|339:187,1,48.7499977684022,4|2,0:3|0:0,0:0:0:0:
259,182,76789,1,0,0:0:0:0:
196,237,76956,2,0,P|235:265|284:262,1,97.4999955368044,4|0,0:3|0:0,0:0:0:0:
351,308,77456,1,0,0:0:0:0:
293,367,77623,6,0,L|195:354,1,97.4999955368044,2|2,0:0|0:0,0:0:0:0:
140,292,78123,2,0,L|43:306,1,97.4999955368044,0|0,0:0|0:0,0:0:0:0:
196,354,78623,6,0,P|225:305|217:263,1,97.4999955368044,0|2,3:0|0:0,0:0:0:0:
277,207,79123,2,0,P|324:223|368:206,1,97.4999955368044,0|0,3:0|0:0,0:0:0:0:
433,156,79623,1,2,3:2:0:0:
217,148,79956,2,0,L|167:147,1,48.7499977684022,4|0,0:3|0:0,0:0:0:0:
85,145,80289,5,0,1:0:0:0:
203,29,80623,1,0,1:0:0:0:
358,84,80956,1,0,1:0:0:0:
339,248,81289,1,0,1:0:0:0:
176,284,81623,1,0,1:0:0:0:
85,145,81956,1,0,1:0:0:0:
231,150,82289,1,0,1:0:0:0:
339,248,82623,6,0,L|337:301,1,48.7499977684022,0|0,1:0|0:0,0:0:0:0:
391,178,82956,2,0,B|443:158|488:198|488:198|457:199|439:228,2,146.249993305207,8|2|2,0:0|0:0|0:0,0:0:0:0:
256,192,84039,12,0,85623,0:0:0:0:
386,92,90956,6,0,P|347:117|286:110,1,101.249996910095,2|0,0:1|0:0,0:0:0:0:
224,65,91623,2,0,P|189:63|157:80,1,67.4999979400635,2|2,0:1|0:0,0:0:0:0:
86,36,92123,1,0,0:0:0:0:
38,105,92289,2,0,P|50:149|101:156,1,101.249996910095,2|0,0:1|0:0,0:0:0:0:
138,233,92956,6,0,P|106:247|65:241,1,67.4999979400635,2|2,0:1|0:0,0:0:0:0:
163,379,93623,2,0,P|211:350|230:309,1,101.249996910095,2|0,0:1|0:0,0:0:0:0:
259,231,94289,2,0,L|246:161,1,67.4999979400635,2|2,0:1|0:0,0:0:0:0:
359,36,94956,2,0,P|398:27|459:39,1,101.249996910095,2|0,0:1|0:0,0:0:0:0:
439,120,95623,2,0,P|406:129|366:110,1,67.4999979400635,2|2,0:0|0:0,0:0:0:0:
489,213,96289,6,0,P|490:264|457:301,1,101.249996910095,2|0,0:1|0:0,0:0:0:0:
395,356,96956,2,0,L|327:346,1,67.4999979400635,2|2,0:1|0:0,0:0:0:0:
245,327,97456,1,0,0:0:0:0:
165,355,97623,2,0,P|113:353|67:368,1,101.249996910095,2|0,0:1|0:0,0:0:0:0:
17,300,98289,2,0,P|45:276|63:245,1,67.4999979400635,2|2,0:1|0:0,0:0:0:0:
227,222,98956,6,0,P|203:176|196:126,1,101.249996910095,2|0,0:1|0:0,0:0:0:0:
194,45,99623,2,0,L|154:52,1,33.7499989700318,2|2,0:1|0:0,0:0:0:0:
82,19,99956,2,0,L|42:26,1,33.7499989700318,0|2,0:0|0:0,0:0:0:0:
28,106,100289,2,0,P|34:157|21:212,1,101.249996910095,2|0,0:1|0:0,0:0:0:0:
51,285,100956,2,0,P|47:323|30:360,1,67.4999979400635,2|0,0:1|0:0,0:0:0:0:
205,357,101623,6,0,P|209:319|226:282,1,67.4999979400635,2|0,0:1|0:0,0:0:0:0:
380,241,102289,2,0,L|453:242,1,67.4999979400635,2|0,0:1|0:0,0:0:0:0:
459,158,102789,1,0,0:0:0:0:
368,152,102956,5,2,0:1:0:0:
283,150,103123,2,0,L|208:149,1,67.4999979400635,2|0,0:0|0:0,0:0:0:0:
142,193,103623,2,0,L|67:192,1,67.4999979400635,2|0,0:1|0:0,0:0:0:0:
128,42,104289,5,2,0:1:0:0:
137,126,104456,2,0,L|144:206,1,67.4999979400635,2|0,0:0|0:0,0:0:0:0:
117,273,104956,2,0,L|80:271,2,33.7499989700318,2|2|0,0:1|0:0|0:0,0:0:0:0:
201,277,105456,1,0,0:0:0:0:
201,277,105623,5,0,0:0:0:0:
251,344,105789,2,0,P|218:362|186:360,1,67.4999979400635,2|0,0:0|0:0,0:0:0:0:
106,342,106289,2,0,P|98:356|99:376,1,33.7499989700318,2|2,0:1|0:0,0:0:0:0:
188,360,106623,2,0,P|188:343|180:328,1,33.7499989700318,0|2,0:0|0:0,0:0:0:0:
183,244,106956,6,0,P|119:230|64:265,2,134.999995880127,2|0|0,0:1|0:0|0:0,0:0:0:0:
432,33,108956,2,0,L|366:54,1,67.4999979400635,2|2,0:1|0:0,0:0:0:0:
289,86,109456,1,2,0:0:0:0:
209,57,109623,6,0,P|202:89|215:126,1,67.4999979400635,2|0,0:1|0:0,0:0:0:0:
270,183,110123,1,0,0:0:0:0:
353,194,110289,2,0,L|434:178,2,67.4999979400635,0|2|2,0:0|0:0|0:1,0:0:0:0:
324,274,111123,2,0,L|243:271,1,67.4999979400635,2|0,0:0|0:0,0:0:0:0:
172,265,111623,1,2,0:1:0:0:
404,281,111956,1,8,0:0:0:0:
270,205,112289,6,0,P|282:251|325:274,1,97.4999955368044,4|0,0:3|0:0,0:0:0:0:
353,197,112789,1,0,0:0:0:0:
313,124,112956,6,0,P|291:113|261:112,1,48.7499977684022,8|0,0:0|0:0,0:0:0:0:
222,41,113289,2,0,P|194:37|171:41,1,48.7499977684022,0|0,0:0|0:0,0:0:0:0:
112,97,113623,2,0,L|117:146,1,48.7499977684022,2|0,0:0|0:0,0:0:0:0:
35,128,113956,2,0,L|23:28,1,97.4999955368044,0|8,0:0|0:0,0:0:0:0:
100,12,114456,1,0,0:0:0:0:
222,41,114623,6,0,P|198:46|174:41,1,48.7499977684022,0|0,0:0|0:0,0:0:0:0:
112,97,114956,2,0,P|112:152|131:195,1,97.4999955368044,2|0,0:0|0:0,0:0:0:0:
183,252,115456,1,0,0:0:0:0:
128,314,115623,6,0,P|108:328|82:330,1,48.7499977684022,10|0,0:0|0:0,0:0:0:0:
27,269,115956,2,0,P|47:255|73:253,1,48.7499977684022,0|0,0:0|0:0,0:0:0:0:
183,252,116289,1,2,0:0:0:0:
254,293,116456,1,0,0:0:0:0:
216,367,116623,2,0,P|239:376|264:374,1,48.7499977684022,8|2,0:0|0:0,0:0:0:0:
332,329,116956,2,0,P|378:311|426:320,1,97.4999955368044,10|0,0:0|0:0,0:0:0:0:
492,366,117456,1,0,0:0:0:0:
467,219,117623,6,0,L|367:227,1,97.4999955368044,2|0,0:0|0:0,0:0:0:0:
297,185,118123,1,0,0:0:0:0:
334,111,118289,6,0,P|357:122|370:145,1,48.7499977684022,10|0,0:0|0:0,0:0:0:0:
369,226,118623,2,0,P|361:249|338:264,1,48.7499977684022,0|0,0:0|0:0,0:0:0:0:
226,268,118956,1,2,0:0:0:0:
164,211,119123,2,0,P|120:194|64:203,1,97.4999955368044,0|0,0:0|0:0,0:0:0:0:
12,258,119623,1,10,0:0:0:0:
32,69,119956,6,0,P|55:81|64:106,1,48.7499977684022,0|0,0:0|0:0,0:0:0:0:
128,49,120289,2,0,P|179:50|227:24,1,97.4999955368044,2|0,0:0|0:0,0:0:0:0:
293,69,120789,1,0,0:0:0:0:
375,72,120956,2,0,P|399:62|413:43,1,48.7499977684022,10|0,0:0|0:0,0:0:0:0:
402,151,121289,2,0,B|373:155|373:155|374:200|404:221,1,97.4999955368044,0|2,0:0|0:0,0:0:0:0:
476,190,121789,1,0,0:0:0:0:
457,271,121956,2,0,P|441:292|417:298,1,48.7499977684022,8|0,0:0|0:0,0:0:0:0:
337,302,122289,1,10,0:0:0:0:
51,157,122956,6,0,P|102:180|121:233,1,112.500004291535,0|0,0:0|0:0,0:0:0:0:
115,314,123456,1,0,0:0:0:0:
44,268,123623,5,8,0:1:0:0:
209,300,123956,1,0,0:0:0:0:
337,191,124289,1,0,0:0:0:0:
316,23,124623,1,0,0:0:0:0:
147,14,124956,1,8,0:1:0:0:
399,73,125289,5,0,0:0:0:0:
399,73,125456,1,0,0:0:0:0:
399,73,125623,5,0,0:0:0:0:
454,232,125956,1,0,0:0:0:0:
322,337,126289,1,8,0:1:0:0:
170,261,126623,1,0,0:0:0:0:
280,134,126956,1,0,0:0:0:0:
141,37,127289,1,0,0:0:0:0:
212,190,127623,1,8,0:1:0:0:
96,348,127956,1,0,0:0:0:0:
23,172,128289,6,0,L|40:235,1,60,2|0,0:0|0:0,0:0:0:0:
124,280,128623,2,0,P|153:278|181:262,1,60,0|0,1:0|0:0,0:0:0:0:
251,207,128956,2,0,P|281:207|307:223,1,60,2|0,0:0|0:0,0:0:0:0:
397,225,129289,2,0,L|384:285,1,60,0|0,1:0|0:0,0:0:0:0:
322,348,129623,6,0,P|301:326|294:294,1,60,2|0,0:0|0:0,0:0:0:0:
251,207,129956,2,0,P|259:176|278:156,1,60,0|0,1:0|0:0,0:0:0:0:
357,111,130289,2,0,L|415:135,1,60,2|0,0:0|0:0,0:0:0:0:
478,70,130623,2,0,L|420:46,1,60,0|0,1:0|0:0,0:0:0:0:
338,18,130956,5,0,1:0:0:0:
272,79,131123,1,0,0:0:0:0:
194,36,131289,1,0,1:0:0:0:
153,115,131456,1,0,0:0:0:0:
76,68,131623,6,0,L|49:82,3,30,0|2|2|2,1:0|0:0|0:0|0:0,0:0:0:0:
37,125,131956,2,0,L|50:151,3,30,0|2|2|2,1:0|0:0|0:0|0:0,0:0:0:0:
94,164,132289,1,4,0:0:0:0:
255,198,132623,6,0,P|233:212|195:214,1,60,2|0,0:1|0:0,0:0:0:0:
114,265,132956,2,0,L|57:241,2,60,0|2|4,3:0|0:0|1:3,0:0:0:0:
114,265,133623,6,0,P|147:289|172:324,1,75,4|0,0:1|0:0,0:0:0:0:
244,347,133956,1,0,1:0:0:0:
295,260,134123,2,0,P|327:233|367:223,1,75,0|0,0:0|0:0,0:0:0:0:
441,234,134456,1,2,0:0:0:0:
487,302,134623,2,0,P|461:331|426:308,1,75,0|0,1:0|0:0,0:0:0:0:
359,223,134956,6,0,P|376:180|382:142,1,75,2|0,0:0|0:0,0:0:0:0:
475,130,135289,2,0,P|465:90|451:57,1,75,0|0,1:0|0:0,0:0:0:0:
381,16,135623,1,0,0:0:0:0:
302,34,135789,1,0,0:0:0:0:
273,111,135956,1,0,1:0:0:0:
61,42,136289,6,0,P|132:16|198:47,1,150,4|0,0:0|1:0,0:0:0:0:
185,127,136789,2,0,P|114:153|48:122,1,150,4|2,0:3|0:0,0:0:0:0:
18,199,137289,1,4,1:3:0:0:
163,342,137623,6,0,L|82:335,1,75,2|0,0:0|0:0,0:0:0:0:
107,254,137956,2,0,L|188:261,1,75,0|0,1:0|0:0,0:0:0:0:
235,196,138289,1,0,0:1:0:0:
272,270,138456,1,2,0:0:0:0:
243,347,138623,2,0,L|322:343,1,75,2|2,1:0|0:0,0:0:0:0:
469,359,138956,6,0,B|481:325|475:286|447:268|414:266|388:278,1,150,4|0,0:1|1:0,0:0:0:0:
338,213,139456,1,0,0:0:0:0:
414,179,139623,2,0,P|452:182|488:197,1,75,0|2,0:0|0:0,0:0:0:0:
508,116,139956,1,0,1:0:0:0:
345,30,140289,6,0,B|381:17|381:17|416:35,1,75,2|0,0:0|0:0,0:0:0:0:
372,105,140623,2,0,B|336:118|336:118|301:100,1,75,0|0,1:0|0:0,0:0:0:0:
231,148,140956,1,0,0:0:0:0:
206,69,141123,1,2,0:0:0:0:
262,9,141289,1,0,1:0:0:0:
136,161,141623,6,0,P|97:164|57:152,1,75,4|0,0:0|0:0,0:0:0:0:
31,78,141956,1,0,1:0:0:0:
96,25,142123,2,0,B|141:43|171:32|168:21|202:16|248:44,1,150,4|2,0:3|0:0,0:0:0:0:
299,100,142623,2,0,B|318:110|338:93|338:93|354:117|354:117|395:98|433:117,1,150,4|2,1:3|0:0,0:0:0:0:
482,50,143123,1,0,0:0:0:0:
431,115,143289,2,0,P|422:151|433:192,1,75,0|0,1:0|1:0,0:0:0:0:
487,277,143623,6,0,P|471:306|442:284,1,75,0|0,3:0|3:0,0:0:0:0:
355,239,143956,2,0,P|297:223|244:235,1,112.5,2|0,0:3|0:0,0:0:0:0:
238,231,144289,6,0,P|234:273|226:316,1,75,4|0,0:1|0:0,0:0:0:0:
263,379,144623,1,0,1:0:0:0:
143,369,144789,2,0,P|147:329|154:291,1,75,0|0,0:0|0:0,0:0:0:0:
86,246,145123,1,2,0:0:0:0:
23,167,145289,2,0,P|63:162|101:166,1,75,0|0,1:0|0:0,0:0:0:0:
230,97,145623,6,0,B|218:135|218:135|174:147,1,75,2|0,0:0|0:0,0:0:0:0:
125,86,145956,2,0,B|137:48|137:48|170:38,1,75,0|0,1:0|0:0,0:0:0:0:
252,18,146289,1,0,0:0:0:0:
334,31,146456,1,2,0:0:0:0:
415,49,146623,1,0,1:0:0:0:
471,216,146956,6,0,P|432:214|405:180,1,75,4|4,0:0|0:0,0:0:0:0:
360,122,147289,1,0,1:0:0:0:
295,194,147456,2,0,P|340:246|350:331,1,150,4|2,0:3|0:0,0:0:0:0:
425,362,147956,1,4,1:3:0:0:
203,368,148289,5,2,0:0:0:0:
163,295,148456,2,0,P|129:277|86:273,1,75,0|0,0:0|0:0,0:0:0:0:
24,194,148789,1,0,0:0:0:0:
106,178,148956,2,0,L|182:165,1,75,2|2,0:1|0:0,0:0:0:0:
259,144,149289,1,0,1:0:0:0:
226,68,149456,1,2,0:0:0:0:
146,47,149623,6,0,P|69:60|20:120,1,150,4|0,0:1|1:0,0:0:0:0:
24,194,150123,1,0,0:0:0:0:
76,257,150289,2,0,L|155:239,1,75,0|2,0:0|0:0,0:0:0:0:
232,252,150623,2,0,L|311:234,1,75,0|0,1:0|0:0,0:0:0:0:
319,132,150956,5,2,0:0:0:0:
242,103,151123,2,0,P|237:141|251:179,1,75,0|0,0:0|1:0,0:0:0:0:
305,236,151456,1,0,0:0:0:0:
378,275,151623,2,0,L|455:261,1,75,0|2,0:0|0:0,0:0:0:0:
504,196,151956,1,0,1:0:0:0:
414,360,152289,6,0,B|356:371|356:371|324:332|267:341,1,150,4|0,0:0|1:0,0:0:0:0:
206,295,152789,2,0,P|168:300|141:330,1,75,4|4,0:3|0:3,0:0:0:0:
67,357,153123,1,2,0:0:0:0:
29,284,153289,1,4,1:3:0:0:
120,72,153623,5,2,0:0:0:0:
108,153,153789,2,0,P|121:188|157:204,1,75,0|0,0:0|1:0,0:0:0:0:
237,197,154123,1,0,1:0:0:0:
294,256,154289,6,0,B|323:233|323:233|318:196,1,75,0|0,1:0|1:0,0:0:0:0:
386,150,154623,2,0,B|410:123|410:123|452:128,1,75,0|0,1:0|0:0,0:0:0:0:
475,54,154956,6,0,L|418:47,1,48.7499977684022,2|0,0:0|0:0,0:0:0:0:
347,71,155289,1,2,0:0:0:0:
271,104,155456,2,0,P|220:113|169:89,1,97.4999955368044,0|0,0:0|0:0,0:0:0:0:
116,43,155956,1,2,0:0:0:0:
37,188,156289,5,2,0:0:0:0:
121,188,156456,2,0,L|173:187,1,48.7499977684022,4|2,0:3|0:0,0:0:0:0:
253,182,156789,1,0,0:0:0:0:
316,237,156956,2,0,P|277:265|228:262,1,97.4999955368044,4|0,0:3|0:0,0:0:0:0:
161,308,157456,1,0,0:0:0:0:
219,367,157623,6,0,L|317:354,1,97.4999955368044,2|2,0:0|0:0,0:0:0:0:
372,292,158123,2,0,L|469:306,1,97.4999955368044,0|0,0:0|0:0,0:0:0:0:
316,354,158623,6,0,P|287:305|295:263,1,97.4999955368044,0|2,3:0|0:0,0:0:0:0:
235,207,159123,2,0,P|188:223|144:206,1,97.4999955368044,0|0,3:0|0:0,0:0:0:0:
79,156,159623,1,2,3:2:0:0:
295,148,159956,2,0,L|345:147,1,48.7499977684022,4|0,0:3|0:0,0:0:0:0:
427,145,160289,5,0,1:0:0:0:
309,29,160623,1,0,1:0:0:0:
154,84,160956,1,0,1:0:0:0:
173,248,161289,1,0,1:0:0:0:
336,284,161622,1,0,1:0:0:0:
427,145,161955,1,0,1:0:0:0:
281,150,162288,1,0,1:0:0:0:
173,248,162623,6,0,L|175:301,1,48.7499977684022,0|0,1:0|0:0,0:0:0:0:
121,178,162956,2,0,B|69:158|24:198|24:198|55:199|73:228,2,146.249993305207,8|2|2,0:0|0:0|0:0,0:0:0:0:
256,192,164039,12,0,165623,0:0:0:0:
