osu file format v14

[General]
AudioFilename: audio.mp3
AudioLeadIn: 0
PreviewTime: -1
Countdown: 0
SampleSet: Normal
StackLeniency: 0.7
Mode: 0
LetterboxInBreaks: 0
WidescreenStoryboard: 0

[Editor]
Bookmarks: 13403,26804,41252,53606,67007,80408,93809
DistanceSpacing: 1
BeatDivisor: 2
GridSize: 8
TimelineZoom: 1.2

[Metadata]
Title:Electro World
TitleUnicode:Electro World
Artist:Perfume
ArtistUnicode:Perfume
Creator:tanbla
Version:
Source:
Tags:
BeatmapID:1241069
BeatmapSetID:585948

[Difficulty]
HPDrainRate:5
CircleSize:3
OverallDifficulty:5
ApproachRate:5
SliderMultiplier:1.4
SliderTickRate:1

[Events]
//Background and Video events
0,0,"electroworld-bg.png",0,0
//Break Periods
//Storyboard Layer 0 (Background)
//Storyboard Layer 1 (Fail)
//Storyboard Layer 2 (Pass)
//Storyboard Layer 3 (Foreground)
//Storyboard Sound Samples

[TimingPoints]
2,418.783851694679,4,1,0,100,1,0
85433,-149.253731343284,4,1,0,100,0,0
86899,-100,4,1,0,100,0,0

[HitObjects]
45,115,13403,6,0,B|101:72|101:72|194:71,1,140
304,120,14240,2,0,B|248:163|248:163|178:163,1,140
56,231,15078,1,0,0:0:0:0:
97,287,15287,1,0,0:0:0:0:
165,301,15497,1,0,0:0:0:0:
234,302,15706,2,0,P|276:238|281:152,1,140
284,176,16334,1,0,0:0:0:0:
426,338,16753,6,0,B|355:337|355:337|281:280,1,140
223,178,17590,2,0,B|293:178|293:178|348:220,1,140
433,332,18428,1,0,0:0:0:0:
363,334,18637,1,0,0:0:0:0:
294,319,18847,1,0,0:0:0:0:
250,263,19056,2,0,L|250:106,1,140
250,123,19684,1,0,0:0:0:0:
152,24,20103,5,0,0:0:0:0:
104,72,20313,2,0,P|99:113|119:153,1,70
32,256,20941,1,0,0:0:0:0:
72,312,21150,2,0,P|107:333|151:332,1,70
256,336,21778,2,0,L|346:334,2,70
256,192,22616,2,0,L|346:190,2,70
89,90,23453,5,0,0:0:0:0:
144,48,23663,1,0,0:0:0:0:
216,32,23872,1,0,0:0:0:0:
328,120,24291,1,0,0:0:0:0:
344,184,24500,1,0,0:0:0:0:
304,240,24710,1,0,0:0:0:0:
184,312,25129,2,0,L|152:248,1,70
80,248,25547,2,0,L|97:169,1,70
160,168,25966,2,0,L|138:93,1,70
431,140,26804,6,0,L|353:115,1,70
336,184,27222,2,0,L|271:136,1,70
232,192,27641,2,0,L|197:129,1,70
136,96,28060,1,0,0:0:0:0:
88,152,28269,2,0,L|122:229,1,70
160,272,28688,1,0,0:0:0:0:
296,296,29107,1,0,0:0:0:0:
344,240,29316,2,0,P|354:206|348:172,1,70
288,136,29735,2,0,P|277:102|283:68,1,70
440,320,30573,6,0,P|408:335|374:335,1,70
304,344,30992,1,0,0:0:0:0:
248,304,31201,1,0,0:0:0:0:
111,344,31620,2,0,P|85:320|72:288,1,70
120,240,32038,2,0,P|114:205|126:172,1,70,0|0,2:0|0:0,0:0:0:0:
168,120,32457,1,0,0:0:0:0:
232,88,32667,1,0,0:0:0:0:
368,80,33085,2,0,P|349:50|319:33,1,70
144,302,33923,5,0,0:0:0:0:
67,184,34342,2,0,L|91:111,1,70
144,72,34761,1,0,0:0:0:0:
216,72,34970,2,0,L|300:72,1,70
360,72,35389,1,0,0:0:0:0:
444,183,35808,1,0,0:0:0:0:
427,250,36017,2,0,P|402:274|391:307,1,70
326,335,36436,1,0,0:0:0:0:
464,341,37273,5,0,0:0:0:0:
357,249,37692,1,0,0:0:0:0:
295,282,37901,2,0,L|257:211,1,70
224,160,38320,1,0,0:0:0:0:
117,71,38739,2,0,P|142:46|174:34,1,70
244,42,39158,1,0,0:0:0:0:
306,73,39367,1,0,0:0:0:0:
342,132,39577,1,0,0:0:0:0:
345,201,39786,2,0,P|356:234|381:258,1,70
358,324,40205,6,0,P|292:346|223:338,1,140
159,308,40833,1,0,0:0:0:0:
123,247,41042,1,0,0:0:0:0:
104,179,41252,6,0,L|164:136,1,70
200,195,41670,2,0,L|256:140,1,70
303,100,42089,5,0,0:0:0:0:
312,168,42299,2,0,P|297:199|270:219,1,70
200,232,42717,2,0,P|167:242|143:267,1,70
136,336,43136,6,0,L|219:309,1,70
272,320,43555,2,0,P|339:303|407:317,1,140
456,264,44183,1,0,0:0:0:0:
424,200,44393,1,0,0:0:0:0:
384,144,44602,6,0,L|324:101,1,70
280,48,45021,1,0,0:0:0:0:
248,112,45230,2,0,P|259:144|285:168,1,70
352,160,45649,1,0,0:0:0:0:
424,176,45858,2,0,P|439:206|439:241,1,70
368,256,46277,5,0,0:0:0:0:
422,308,46486,2,0,L|476:245,1,70
480,184,46905,2,0,P|431:134|365:110,1,140
328,168,47533,1,0,0:0:0:0:
264,184,47743,1,0,0:0:0:0:
208,232,47952,6,0,L|148:275,1,70
104,224,48371,2,0,L|72:295,1,70
120,344,48790,2,0,P|133:275|115:208,1,140
96,144,49418,1,0,0:0:0:0:
144,96,49627,5,0,0:0:0:0:
216,104,49836,2,0,L|283:46,1,70
336,40,50256,2,0,P|389:84|417:147,1,140
408,216,50884,1,0,0:0:0:0:
368,272,51093,1,0,0:0:0:0:
296,280,51303,6,0,L|356:237,1,70
400,296,51720,2,0,L|456:241,1,70
368,48,52559,5,0,0:0:0:0:
298,39,52768,1,0,0:0:0:0:
235,71,52978,1,0,0:0:0:0:
182,116,53187,2,0,L|122:75,1,70
431,140,53606,6,0,L|353:115,1,70
336,184,54024,2,0,L|271:136,1,70
232,192,54443,2,0,L|197:129,1,70
136,96,54862,1,0,0:0:0:0:
88,152,55071,2,0,L|122:229,1,70
160,272,55490,1,0,0:0:0:0:
296,296,55909,1,0,0:0:0:0:
344,240,56118,2,0,P|354:206|348:172,1,70
288,136,56537,2,0,P|277:102|283:68,1,70
440,320,57375,6,0,P|408:335|374:335,1,70
304,344,57794,1,0,0:0:0:0:
248,304,58003,1,0,0:0:0:0:
111,344,58422,2,0,P|85:320|72:288,1,70
120,240,58840,2,0,P|114:205|126:172,1,70,0|0,2:0|0:0,0:0:0:0:
168,120,59259,1,0,0:0:0:0:
232,88,59469,1,0,0:0:0:0:
368,80,59887,2,0,P|349:50|319:33,1,70
144,302,60725,5,0,0:0:0:0:
67,184,61144,2,0,L|91:111,1,70
144,72,61563,1,0,0:0:0:0:
216,72,61772,2,0,L|300:72,1,70
360,72,62191,1,0,0:0:0:0:
444,183,62610,1,0,0:0:0:0:
427,250,62819,2,0,P|402:274|391:307,1,70
326,335,63238,1,0,0:0:0:0:
464,341,64075,5,0,0:0:0:0:
357,249,64494,1,0,0:0:0:0:
295,282,64703,2,0,L|257:211,1,70
226,160,65122,1,0,0:0:0:0:
117,71,65541,2,0,P|142:46|174:34,1,70
244,42,65960,1,0,0:0:0:0:
306,73,66169,1,0,0:0:0:0:
342,132,66379,1,0,0:0:0:0:
352,200,66588,2,0,P|363:233|388:257,1,70
358,324,67007,6,0,P|292:346|223:338,1,140
159,308,67635,1,0,0:0:0:0:
123,247,67844,1,0,0:0:0:0:
104,179,68054,6,0,L|164:136,1,70
200,195,68472,2,0,L|256:140,1,70
303,100,68891,5,0,0:0:0:0:
312,168,69101,2,0,P|297:199|270:219,1,70
200,232,69519,2,0,P|167:242|143:267,1,70
136,336,69938,6,0,L|219:309,1,70
272,320,70357,2,0,P|339:303|407:317,1,140
456,264,70985,1,0,0:0:0:0:
424,200,71195,1,0,0:0:0:0:
384,144,71404,6,0,L|324:101,1,70
280,48,71823,1,0,0:0:0:0:
248,112,72032,2,0,P|259:144|285:168,1,70
352,160,72451,1,0,0:0:0:0:
424,176,72660,2,0,P|439:206|439:241,1,70
368,256,73079,5,0,0:0:0:0:
422,308,73288,2,0,L|476:245,1,70
480,184,73707,2,0,P|431:134|365:110,1,140
328,168,74335,1,0,0:0:0:0:
264,184,74545,1,0,0:0:0:0:
208,232,74754,6,0,L|148:275,1,70
104,224,75173,2,0,L|72:295,1,70
120,344,75592,2,0,P|133:275|115:208,1,140
96,144,76220,1,0,0:0:0:0:
144,96,76429,5,0,0:0:0:0:
216,104,76638,2,0,L|283:46,1,70
336,40,77058,2,0,P|389:84|417:147,1,140
408,216,77686,1,0,0:0:0:0:
368,272,77895,1,0,0:0:0:0:
296,280,78105,6,0,L|356:237,1,70
400,296,78522,2,0,L|456:241,1,70
368,48,79361,5,0,0:0:0:0:
298,39,79570,1,0,0:0:0:0:
235,71,79780,1,0,0:0:0:0:
182,116,79989,2,0,L|122:75,1,70
31,284,80408,5,0,0:0:0:0:
89,241,80617,1,0,0:0:0:0:
98,310,80827,2,0,P|135:292|159:255,1,70
211,308,81246,1,0,0:0:0:0:
264,263,81455,1,0,0:0:0:0:
331,244,81664,2,0,P|312:212|283:194,1,70
301,126,82083,1,0,0:0:0:0:
236,98,82292,1,0,0:0:0:0:
166,87,82502,2,0,P|182:55|211:36,1,70
279,25,82921,1,0,0:0:0:0:
346,42,83130,1,0,0:0:0:0:
415,45,83339,2,0,P|404:76|380:102,1,70
394,171,83758,1,0,0:0:0:0:
325,187,83968,1,0,0:0:0:0:
373,236,84177,2,0,P|235:271|106:219,1,280
73,163,85224,5,0,0:0:0:0:
105,100,85433,2,0,P|236:56|368:99,1,280
31,284,87109,5,0,0:0:0:0:
89,241,87318,1,0,0:0:0:0:
98,310,87528,2,0,P|135:292|159:255,1,70
211,308,87947,1,0,0:0:0:0:
264,263,88156,1,0,0:0:0:0:
331,244,88365,2,0,P|312:212|283:194,1,70
301,126,88784,1,0,0:0:0:0:
236,98,88993,1,0,0:0:0:0:
166,87,89203,2,0,P|182:55|211:36,1,70
279,25,89622,1,0,0:0:0:0:
346,42,89831,1,0,0:0:0:0:
415,45,90040,2,0,P|404:76|380:102,1,70
394,171,90459,1,0,0:0:0:0:
325,187,90669,1,0,0:0:0:0:
373,236,90878,2,0,P|235:271|106:219,1,280
256,192,93809,12,0,95903,0:0:0:0:
256,192,96950,12,0,98834,0:0:0:0:
256,192,100510,12,0,102604,0:0:0:0:
256,192,103651,12,0,105535,0:0:0:0:
256,192,107210,12,0,109304,0:0:0:0:
256,192,110351,12,0,112236,0:0:0:0:
