osu file format v14

[General]
AudioFilename: Perfume - Daijobanai.mp3
AudioLeadIn: 0
PreviewTime: 45000
Countdown: 0
SampleSet: Soft
StackLeniency: 0.2
Mode: 0
LetterboxInBreaks: 0
WidescreenStoryboard: 0

[Editor]
DistanceSpacing: 5
BeatDivisor: 4
GridSize: 8
TimelineZoom: 3.5

[Metadata]
Title:Daijobanai
TitleUnicode:Daijobanai
Artist:Perfume
ArtistUnicode:Perfume
Creator:Xelite
Version:Angel
Source:
Tags:
BeatmapID:1348924
BeatmapSetID:635646

[Difficulty]
HPDrainRate:4.5
CircleSize:4
OverallDifficulty:9
ApproachRate:10
SliderMultiplier:3.59999990463257
SliderTickRate:1

[Events]
//Background and Video events
0,0,"background.jpg",0,0
//Break Periods
//Storyboard Layer 0 (Background)
//Storyboard Layer 1 (Fail)
//Storyboard Layer 2 (Pass)
//Storyboard Layer 3 (Foreground)
//Storyboard Sound Samples

[TimingPoints]
614,468.75,4,2,0,70,1,0
28739,-200,4,2,0,70,0,0
29676,-66.6666666666667,4,2,0,80,0,0
30574,-200,4,2,0,55,0,0
45496,-100,4,2,0,70,0,0
52176,-50,4,2,0,70,0,0
52410,-100,4,2,0,70,0,0
88153,-66.6666666666667,4,2,0,70,0,0
88504,-100,4,2,0,70,0,0
89572,-66.6666666666667,4,2,0,80,0,0
90579,-200,4,2,0,70,0,0
122371,-100,4,2,0,80,0,0
135550,-200,4,2,0,70,0,0
136128,-66.6666666666667,4,2,0,70,0,0
136580,-66.6666666666667,4,2,0,5,0,0
136640,-66.6666666666667,4,2,0,80,0,0
136727,-66.6666666666667,4,2,0,5,0,0
136800,-66.6666666666667,4,2,0,80,0,0
136873,-66.6666666666667,4,2,0,5,0,0
136940,-66.6666666666667,4,2,0,80,0,0
137049,-66.6666666666667,4,2,0,5,0,0
137130,-66.6666666666667,4,2,0,80,0,0
137196,-66.6666666666667,4,2,0,5,0,0
137250,-66.6666666666667,4,2,0,80,0,0
137342,-66.6666666666667,4,2,0,5,0,0
137450,-100,4,2,0,80,0,0
180580,-200,4,2,0,40,0,0
180680,-200,4,2,0,35,0,0

[HitObjects]
260,128,614,6,0,P|308:156|296:228,1,89.9999976158142
260,248,848,2,0,P|212:220|224:148,1,89.9999976158142
280,24,1082,5,0,0:0:0:0:
316,186,1199,2,0,P|289:234|217:225,1,89.9999976158142
88,182,1433,5,0,0:0:0:0:
260,128,1551,2,0,P|308:155|296:228,1,89.9999976158142
240,355,1785,5,0,0:0:0:0:
201,184,1903,2,0,P|228:136|301:148,1,89.9999976158142
424,216,2137,5,0,0:0:0:0:
260,248,2254,1,0,0:0:0:0:
259,127,2371,1,0,0:0:0:0:
426,139,2489,2,0,P|431:95|405:60,1,89.9999976158142
325,87,2723,2,0,P|319:130|347:164,1,89.9999976158142
405,60,2957,5,0,0:0:0:0:
424,216,3074,2,0,P|396:264|324:253,1,89.9999976158143
325,87,3309,5,0,0:0:0:0:
424,216,3426,2,0,P|396:264|324:253,1,89.9999976158142
218,220,3660,5,0,0:0:0:0:
165,80,3777,2,0,P|193:32|265:43,1,89.9999976158142
218,220,4012,5,0,0:0:0:0:
282,94,4129,1,0,0:0:0:0:
418,160,4246,1,0,0:0:0:0:
365,271,4364,2,0,P|319:303|259:261,1,89.9999976158142
278,211,4598,2,0,P|292:157|233:114,1,89.9999976158142
144,328,4832,5,0,0:0:0:0:
278,211,4949,2,0,P|292:157|233:114,1,89.9999976158142
144,328,5184,5,0,0:0:0:0:
153,168,5301,2,0,P|181:120|253:131,1,89.9999976158142
366,156,5535,5,0,0:0:0:0:
390,302,5652,2,0,P|362:350|290:339,1,89.9999976158142
366,156,5887,5,0,0:0:0:0:
280,288,6004,1,0,0:0:0:0:
128,206,6121,1,0,0:0:0:0:
208,67,6239,6,0,P|259:86|261:157,1,89.9999976158142
279,288,6473,2,0,P|320:272|338:232,1,89.9999976158142
273,116,6707,5,0,0:0:0:0:
279,287,6824,1,0,0:0:0:0:
128,206,6942,1,0,0:0:0:0:
273,116,7059,5,0,0:0:0:0:
279,288,7176,2,0,P|320:272|338:231,1,89.9999976158142
128,206,7410,5,0,0:0:0:0:
279,288,7528,2,0,P|320:272|338:231,1,89.9999976158142
273,116,7762,5,0,0:0:0:0:
279,288,7879,2,0,P|320:272|338:231,1,89.9999976158142
273,116,8114,6,0,P|246:67|174:78,1,89.9999976158142
137,116,8348,2,0,P|165:164|237:153,1,89.9999976158142
215,58,8582,5,0,0:0:0:0:
195,171,8699,2,0,P|223:219|295:208,1,89.9999976158142
71,188,8934,1,0,0:0:0:0:
273,116,9051,6,0,P|246:67|174:78,1,89.9999976158142
187,269,9285,1,0,0:0:0:0:
273,116,9403,6,0,P|325:95|373:150,1,89.9999976158142
187,269,9637,5,0,0:0:0:0:
273,116,9754,1,0,0:0:0:0:
323,278,9871,1,0,0:0:0:0:
390,94,9989,6,0,P|373:53|333:36,1,89.9999976158142
273,116,10223,2,0,P|232:99|215:58,1,89.9999976158142
390,94,10457,5,0,0:0:0:0:
285,222,10574,2,0,P|313:270|385:259,1,89.9999976158142
390,94,10809,5,0,0:0:0:0:
285,222,10926,2,0,P|313:270|385:259,1,89.9999976158142
438,157,11160,1,0,0:0:0:0:
285,222,11278,2,0,P|238:191|253:120,1,89.9999976158142
390,94,11512,5,0,0:0:0:0:
285,222,11629,1,0,0:0:0:0:
438,157,11746,1,0,0:0:0:0:
295,342,11864,2,0,P|240:328|232:256,1,89.9999976158142
285,222,12098,2,0,P|338:236|346:309,1,89.9999976158142
149,343,12332,5,0,0:0:0:0:
194,158,12449,2,0,P|240:127|300:168,1,89.9999976158142
238,342,12684,5,0,0:0:0:0:
194,158,12801,2,0,P|166:110|94:121,1,89.9999976158142
348,140,13035,5,0,0:0:0:0:
317,326,13152,2,0,P|267:351|212:302,1,89.9999976158142
348,140,13387,5,0,0:0:0:0:
190,259,13504,2,0,P|134:254|112:185,1,89.9999976158142
256,192,13739,12,0,15496,0:0:0:0:
130,58,15614,6,0,P|158:106|230:95,1,89.9999976158142
377,108,15848,6,0,P|349:60|277:71,1,89.9999976158142
189,209,16082,1,0,0:0:0:0:
377,108,16199,1,0,0:0:0:0:
254,265,16317,1,0,0:0:0:0:
254,67,16434,1,0,0:0:0:0:
312,209,16551,2,0,P|284:257|212:246,1,89.9999976158142
254,67,16785,1,0,0:0:0:0:
312,209,16903,2,0,P|284:257|212:246,1,89.9999976158142
253,264,17137,5,0,0:0:0:0:
348,91,17254,1,0,0:0:0:0:
189,209,17371,1,0,0:0:0:0:
377,242,17489,6,0,P|359:282|318:298,1,89.9999976158142
131,265,17723,6,0,P|148:224|189:208,1,89.9999976158142
312,209,17957,1,0,0:0:0:0:
257,309,18074,1,0,0:0:0:0:
257,153,18192,1,0,0:0:0:0:
257,351,18309,1,0,0:0:0:0:
199,209,18426,2,0,P|227:161|299:172,1,89.9999976158142
257,351,18660,1,0,0:0:0:0:
199,209,18778,2,0,P|227:161|299:172,1,89.9999976158142
258,154,19012,5,0,0:0:0:0:
257,351,19129,1,0,0:0:0:0:
360,155,19246,1,0,0:0:0:0:
362,351,19364,6,0,P|415:365|458:306,1,89.9999976158142
512,179,19598,2,0,P|484:131|412:142,1,89.9999976158142
359,192,19832,1,0,0:0:0:0:
453,123,19949,1,0,0:0:0:0:
453,249,20067,1,0,0:0:0:0:
360,317,20184,1,0,0:0:0:0:
252,165,20301,2,0,P|269:125|311:110,1,89.9999976158142
360,317,20535,1,0,0:0:0:0:
252,165,20653,2,0,P|269:125|311:110,1,89.9999976158142
360,317,20887,5,0,0:0:0:0:
252,166,21004,1,0,0:0:0:0:
440,177,21121,2,0,P|488:149|477:77,1,89.9999976158142
440,177,21473,6,0,P|488:149|477:77,1,89.9999976158142
312,75,21707,1,0,0:0:0:0:
367,255,21824,1,0,0:0:0:0:
198,165,21942,1,0,0:0:0:0:
378,109,22059,1,0,0:0:0:0:
195,58,22176,2,0,P|95:92|115:178,1,179.999995231629
255,244,22528,1,0,0:0:0:0:
176,82,22645,6,0,P|128:110|139:182,1,89.9999976158143
255,244,22879,1,0,0:0:0:0:
150,116,22996,1,0,0:0:0:0:
19,270,23114,6,0,P|47:318|119:307,1,89.9999976158142
227,202,23348,2,0,P|199:154|127:165,1,89.9999976158142
77,325,23582,1,0,0:0:0:0:
168,146,23699,1,0,0:0:0:0:
181,335,23817,1,0,0:0:0:0:
73,179,23934,1,0,0:0:0:0:
235,275,24051,2,0,P|275:259|293:218,1,89.9999976158143
195,58,24285,1,0,0:0:0:0:
235,275,24403,2,0,P|275:259|293:218,1,89.9999976158143
195,58,24637,5,0,0:0:0:0:
293,218,24754,1,0,0:0:0:0:
114,155,24871,1,0,0:0:0:0:
446,118,24989,6,0,P|428:77|387:61,1,89.9999976158142
249,101,25223,2,0,P|265:141|306:158,1,89.9999976158142
446,118,25457,1,0,0:0:0:0:
249,101,25574,1,0,0:0:0:0:
417,189,25692,1,0,0:0:0:0:
298,42,25809,1,0,0:0:0:0:
306,158,25926,2,0,P|252:172|209:113,1,89.9999976158143
387,61,26160,1,0,0:0:0:0:
224,156,26278,2,0,P|176:128|187:56,1,89.9999976158143
168,97,26512,5,0,0:0:0:0:
198,298,26629,1,0,0:0:0:0:
114,155,26746,1,0,0:0:0:0:
272,186,26864,6,0,P|286:132|227:89,1,89.9999976158142
96,30,27098,2,0,P|48:58|59:130,1,89.9999976158142
137,242,27332,1,0,0:0:0:0:
96,30,27449,1,0,0:0:0:0:
137,242,27567,1,0,0:0:0:0:
190,61,27684,1,0,0:0:0:0:
80,183,27801,2,0,P|95:223|136:241,1,89.9999976158142
319,117,28035,1,0,0:0:0:0:
262,298,28153,2,0,P|221:315|180:299,1,89.9999976158142
175,125,28387,5,0,0:0:0:0:
262,298,28504,2,0,P|302:313|343:296,1,89.9999976158142
381,107,28739,2,0,P|298:55|260:131,1,179.999995231629
368,328,29676,6,0,B|324:306|324:306|291:253,1,90.0000010490418
144,328,29832,2,0,B|188:306|188:306|221:253,1,90.0000010490418
360,296,29989,6,0,B|316:274|316:274|283:221,1,90.0000010490418
152,296,30145,2,0,B|196:274|196:274|229:221,1,90.0000010490418
352,272,30301,6,0,B|308:250|308:250|275:197,1,90.0000010490418
160,272,30457,2,0,B|204:250|204:250|237:197,1,90.0000010490418
72,56,30614,6,0,P|96:112|152:124,1,89.9999976158143
280,120,31082,2,0,P|256:64|200:52,1,89.9999976158143
119,123,31551,2,0,P|143:179|199:191,1,89.9999976158143
232,204,31903,1,0,0:0:0:0:
268,206,32020,1,0,0:0:0:0:
218,26,32254,1,0,0:0:0:0:
302,193,32489,6,0,P|328:177|303:171,1,44.9999988079071
185,41,32723,1,0,0:0:0:0:
326,175,32840,6,0,P|344:150|318:154,1,44.9999988079071
159,76,33074,1,0,0:0:0:0:
342,126,33192,1,0,0:0:0:0:
134,96,33426,2,0,P|101:126|94:169,1,89.9999976158143
191,201,33895,2,0,P|159:313|75:353,1,179.999995231629
191,201,34598,5,0,0:0:0:0:
232,264,34832,2,0,P|256:320|312:332,1,89.9999976158143
393,261,35301,2,0,P|369:205|313:193,1,89.9999976158143
280,180,35653,1,0,0:0:0:0:
244,178,35770,1,0,0:0:0:0:
294,358,36004,1,0,0:0:0:0:
210,191,36239,6,0,P|183:206|208:212,1,44.9999988079071
327,343,36473,1,0,0:0:0:0:
186,209,36590,6,0,P|167:233|193:229,1,44.9999988079071
353,308,36824,1,0,0:0:0:0:
170,258,36942,1,0,0:0:0:0:
378,288,37176,2,0,P|411:258|418:215,1,89.9999976158143
321,183,37645,2,0,P|353:71|437:31,1,179.999995231629
54,207,38348,5,0,0:0:0:0:
54,207,38582,2,0,P|78:263|134:275,1,89.9999976158143
180,114,39051,2,0,P|156:58|100:46,1,89.9999976158143
67,33,39403,1,0,0:0:0:0:
31,31,39520,1,0,0:0:0:0:
99,131,39754,1,0,0:0:0:0:
215,45,39989,6,0,P|201:29|183:40,1,44.9999988079071
166,178,40223,1,0,0:0:0:0:
283,112,40340,6,0,P|269:96|251:107,1,44.9999988079071
232,217,40574,1,0,0:0:0:0:
251,107,40692,1,0,0:0:0:0:
101,218,40926,2,0,P|108:261|140:292,1,89.9999976158143
232,217,41395,2,0,P|299:274|313:362,1,179.999995231629
314,356,42098,5,0,0:0:0:0:
384,217,42332,1,0,0:0:0:0:
312,82,42567,1,0,0:0:0:0:
232,217,42801,2,0,P|256:273|312:285,1,89.9999976158143
384,217,43153,6,0,P|396:248|436:243,1,44.9999988079071
279,284,43504,5,0,0:0:0:0:
312,82,43739,1,0,0:0:0:0:
404,252,43973,5,0,0:0:0:0:
404,252,44090,1,0,0:0:0:0:
244,84,44324,1,0,0:0:0:0:
163,256,44442,1,0,0:0:0:0:
312,82,44676,5,0,0:0:0:0:
312,82,45145,5,0,0:0:0:0:
308,315,45262,1,0,0:0:0:0:
195,175,45379,1,0,0:0:0:0:
392,229,45496,1,0,0:0:0:0:
253,19,45614,6,0,P|239:73|297:116,1,89.9999976158142
392,229,45848,6,0,P|406:175|347:132,1,89.9999976158142
195,175,46082,1,0,0:0:0:0:
392,229,46199,1,0,0:0:0:0:
194,253,46317,1,0,0:0:0:0:
334,113,46434,1,0,0:0:0:0:
275,254,46551,2,0,P|221:269|178:210,1,89.9999976158142
334,113,46785,1,0,0:0:0:0:
275,254,46903,2,0,P|221:269|178:210,1,89.9999976158142
194,252,47137,5,0,0:0:0:0:
383,196,47254,1,0,0:0:0:0:
188,167,47371,1,0,0:0:0:0:
126,356,47489,6,0,P|85:338|70:297,1,89.9999976158142
130,109,47723,6,0,P|171:125|187:167,1,89.9999976158142
126,356,47957,1,0,0:0:0:0:
80,179,48074,1,0,0:0:0:0:
237,302,48192,1,0,0:0:0:0:
54,357,48309,1,0,0:0:0:0:
181,242,48426,2,0,P|228:269|218:341,1,89.9999976158142
54,357,48660,1,0,0:0:0:0:
181,242,48778,2,0,P|228:269|218:341,1,89.9999976158142
54,357,49012,5,0,0:0:0:0:
236,301,49129,1,0,0:0:0:0:
325,136,49246,1,0,0:0:0:0:
236,301,49364,6,0,P|265:349|336:338,1,89.9999976158142
452,294,49598,2,0,P|466:241|408:197,1,89.9999976158142
270,175,49832,1,0,0:0:0:0:
295,357,49949,1,0,0:0:0:0:
449,212,50067,1,0,0:0:0:0:
236,300,50184,1,0,0:0:0:0:
449,212,50301,2,0,P|435:172|394:154,1,89.9999976158142
295,357,50535,1,0,0:0:0:0:
449,212,50653,2,0,P|435:172|394:154,1,89.9999976158142
295,357,50887,5,0,0:0:0:0:
393,153,51004,1,0,0:0:0:0:
236,300,51121,2,0,P|194:284|177:244,1,89.9999976158142
177,244,51473,6,0,P|218:228|235:188,1,89.9999976158142
172,163,51707,1,0,0:0:0:0:
204,267,51824,1,0,0:0:0:0:
311,267,51942,1,0,0:0:0:0:
341,162,52059,1,0,0:0:0:0:
255,94,52176,2,0,P|154:127|223:179,1,179.999995231629
311,267,52410,1,0,0:0:0:0:
311,267,52528,1,0,0:0:0:0:
234,110,52645,2,0,P|183:126|218:152,1,89.9999976158143
311,267,52879,1,0,0:0:0:0:
234,110,52996,1,0,0:0:0:0:
37,222,53114,6,0,P|22:276|81:319,1,89.9999976158142
232,321,53348,2,0,P|246:267|187:224,1,89.9999976158142
39,302,53582,1,0,0:0:0:0:
230,240,53699,1,0,0:0:0:0:
105,383,53817,1,0,0:0:0:0:
139,196,53934,1,0,0:0:0:0:
186,378,54051,2,0,P|225:395|267:379,1,89.9999976158143
311,197,54285,1,0,0:0:0:0:
186,378,54403,2,0,P|225:395|267:379,1,89.9999976158143
311,197,54637,5,0,0:0:0:0:
267,379,54754,1,0,0:0:0:0:
185,208,54871,1,0,0:0:0:0:
438,348,54989,6,0,P|455:307|437:266,1,89.9999976158142
311,197,55223,2,0,P|294:237|311:278,1,89.9999976158142
438,348,55457,1,0,0:0:0:0:
311,197,55574,1,0,0:0:0:0:
368,378,55692,1,0,0:0:0:0:
387,190,55809,1,0,0:0:0:0:
311,278,55926,2,0,P|263:249|274:177,1,89.9999976158143
437,266,56160,1,0,0:0:0:0:
254,218,56278,2,0,P|240:164|299:121,1,89.9999976158143
257,137,56512,5,0,0:0:0:0:
225,322,56629,1,0,0:0:0:0:
177,140,56746,1,0,0:0:0:0:
199,278,56864,6,0,P|247:249|236:177,1,89.9999976158142
118,29,57098,2,0,P|69:83|126:126,1,89.9999976158142
254,218,57332,1,0,0:0:0:0:
56,166,57449,1,0,0:0:0:0:
254,218,57567,1,0,0:0:0:0:
61,234,57684,1,0,0:0:0:0:
196,160,57801,2,0,P|235:175|253:215,1,89.9999976158142
117,322,58035,1,0,0:0:0:0:
298,266,58153,2,0,P|314:224|298:183,1,89.9999976158142
125,179,58387,5,0,0:0:0:0:
298,266,58504,2,0,P|313:305|296:346,1,89.9999976158142
107,384,58739,2,0,P|54:300|131:262,1,179.999995231629
194,320,59207,2,0,P|276:316|283:234,1,179.999995231629
228,149,59676,2,0,P|235:67|318:64,1,179.999995231629
408,123,60144,2,0,P|461:60|405:0,1,179.999995231629
228,149,60614,2,0,P|256:197|328:186,1,89.9999976158142
463,55,60848,6,0,P|435:7|363:18,1,89.9999976158142
286,204,61082,1,0,0:0:0:0:
404,0,61199,1,0,0:0:0:0:
408,204,61317,1,0,0:0:0:0:
404,0,61434,1,0,0:0:0:0:
286,204,61551,2,0,P|313:252|385:241,1,89.9999976158142
286,0,61785,1,0,0:0:0:0:
285,203,61903,2,0,P|258:251|186:240,1,89.9999976158142
182,68,62137,5,0,0:0:0:0:
227,260,62254,1,0,0:0:0:0:
287,66,62371,1,0,0:0:0:0:
156,358,62489,6,0,P|197:374|237:355,1,89.9999976158142
365,204,62723,6,0,P|324:186|283:204,1,89.9999976158142
155,286,62957,1,0,0:0:0:0:
365,204,63074,1,0,0:0:0:0:
203,202,63192,1,0,0:0:0:0:
304,355,63309,1,0,0:0:0:0:
284,202,63426,2,0,P|231:187|187:245,1,89.9999976158142
304,355,63660,1,0,0:0:0:0:
284,202,63778,2,0,P|231:187|187:245,1,89.9999976158142
203,202,64012,5,0,0:0:0:0:
370,260,64129,1,0,0:0:0:0:
204,297,64246,1,0,0:0:0:0:
268,88,64364,6,0,P|322:74|364:132,1,89.9999976158142
416,246,64598,2,0,P|388:293|316:283,1,89.9999976158142
203,202,64832,1,0,0:0:0:0:
349,91,64949,1,0,0:0:0:0:
295,266,65067,1,0,0:0:0:0:
267,89,65184,1,0,0:0:0:0:
295,266,65301,2,0,P|256:284|215:268,1,89.9999976158142
267,89,65535,1,0,0:0:0:0:
295,266,65653,2,0,P|256:284|215:268,1,89.9999976158142
267,89,65887,5,0,0:0:0:0:
214,267,66004,1,0,0:0:0:0:
174,89,66121,2,0,P|158:47|118:30,1,89.9999976158142
174,89,66473,6,0,P|190:47|229:30,1,89.9999976158142
186,198,66707,1,0,0:0:0:0:
88,248,66824,1,0,0:0:0:0:
12,172,66942,1,0,0:0:0:0:
65,76,67059,1,0,0:0:0:0:
174,89,67176,2,0,P|222:183|136:171,1,179.999995231629
12,172,67528,1,0,0:0:0:0:
179,121,67645,2,0,P|203:168|160:162,1,89.9999976158143
12,172,67879,1,0,0:0:0:0:
177,150,67996,1,0,0:0:0:0:
281,312,68114,6,0,P|253:360|181:349,1,89.9999976158142
73,244,68348,2,0,P|101:195|173:207,1,89.9999976158142
223,367,68582,1,0,0:0:0:0:
131,189,68699,1,0,0:0:0:0:
119,378,68817,1,0,0:0:0:0:
227,222,68934,1,0,0:0:0:0:
65,317,69051,2,0,P|25:301|7:260,1,89.9999976158143
104,101,69285,1,0,0:0:0:0:
65,317,69403,2,0,P|25:301|7:260,1,89.9999976158143
104,101,69637,5,0,0:0:0:0:
7,261,69754,1,0,0:0:0:0:
186,198,69871,1,0,0:0:0:0:
65,317,69989,6,0,P|81:358|121:375,1,89.9999976158142
363,255,70223,2,0,P|347:214|305:199,1,89.9999976158143
121,375,70457,1,0,0:0:0:0:
186,198,70574,1,0,0:0:0:0:
239,376,70692,1,0,0:0:0:0:
307,199,70809,1,0,0:0:0:0:
359,375,70926,2,0,P|413:388|456:329,1,89.9999976158143
307,199,71160,1,0,0:0:0:0:
440,371,71278,2,0,P|488:342|476:270,1,89.9999976158143
307,199,71512,5,0,0:0:0:0:
495,311,71629,1,0,0:0:0:0:
297,375,71746,1,0,0:0:0:0:
494,133,71864,6,0,P|466:84|394:96,1,89.9999976158142
307,199,72098,2,0,P|322:239|363:257,1,89.9999976158142
435,77,72332,1,0,0:0:0:0:
363,257,72449,1,0,0:0:0:0:
309,81,72567,1,0,0:0:0:0:
363,257,72684,1,0,0:0:0:0:
435,77,72801,6,0,P|407:28|335:40,1,89.9999976158142
248,143,73035,2,0,P|263:183|304:201,1,89.9999976158142
376,21,73270,1,0,0:0:0:0:
304,201,73387,1,0,0:0:0:0:
250,25,73505,1,0,0:0:0:0:
304,201,73622,1,0,0:0:0:0:
376,21,73739,6,0,P|424:49|413:121,1,89.9999976158142
376,21,73973,2,0,P|424:49|413:121,1,89.9999976158142
256,316,74207,1,0,0:0:0:0:
376,256,74324,1,0,0:0:0:0:
177,229,74442,1,0,0:0:0:0:
365,106,74559,1,0,0:0:0:0:
141,22,74676,6,0,P|93:50|104:122,1,89.9999976158142
141,22,74910,2,0,P|93:50|104:122,1,89.9999976158142
177,229,75145,1,0,0:0:0:0:
240,24,75262,1,0,0:0:0:0:
177,229,75379,1,0,0:0:0:0:
141,22,75496,1,0,0:0:0:0:
98,320,75614,6,0,P|126:368|198:357,1,89.9999976158142
344,229,75848,6,0,P|316:181|244:192,1,89.9999976158142
156,375,76082,1,0,0:0:0:0:
220,172,76199,1,0,0:0:0:0:
285,376,76317,1,0,0:0:0:0:
98,320,76434,1,0,0:0:0:0:
285,285,76551,6,0,P|325:269|343:228,1,89.9999976158142
95,174,76785,1,0,0:0:0:0:
156,375,76903,6,0,P|196:392|237:376,1,89.9999976158142
220,172,77137,5,0,0:0:0:0:
156,375,77254,1,0,0:0:0:0:
157,142,77371,1,0,0:0:0:0:
322,364,77489,6,0,P|363:379|403:361,1,89.9999976158142
512,206,77723,6,0,P|470:189|430:206,1,89.9999976158142
267,300,77957,1,0,0:0:0:0:
483,356,78074,1,0,0:0:0:0:
343,196,78192,1,0,0:0:0:0:
483,356,78309,1,0,0:0:0:0:
267,300,78426,2,0,P|252:246|311:203,1,89.9999976158142
482,269,78660,1,0,0:0:0:0:
268,218,78778,2,0,P|253:164|312:121,1,89.9999976158142
481,180,79012,5,0,0:0:0:0:
269,136,79129,1,0,0:0:0:0:
481,95,79246,1,0,0:0:0:0:
269,36,79364,6,0,P|216:22|173:81,1,89.9999976158142
69,222,79598,2,0,P|97:270|169:259,1,89.9999976158142
188,38,79832,1,0,0:0:0:0:
69,222,79949,1,0,0:0:0:0:
283,224,80067,1,0,0:0:0:0:
188,38,80184,1,0,0:0:0:0:
69,222,80301,2,0,P|97:270|169:259,1,89.9999976158142
115,38,80535,1,0,0:0:0:0:
127,277,80653,2,0,P|180:291|223:232,1,89.9999976158143
57,98,80887,5,0,0:0:0:0:
256,222,81004,1,0,0:0:0:0:
69,222,81121,2,0,P|21:250|32:322,1,89.9999976158142
69,222,81473,6,0,P|21:250|32:322,1,89.9999976158142
225,372,81707,1,0,0:0:0:0:
120,137,81824,5,0,0:0:0:0:
14,373,81942,1,0,0:0:0:0:
256,222,82059,1,0,0:0:0:0:
508,285,82176,2,0,P|491:367|407:378,1,179.999995231629
404,118,82528,1,0,0:0:0:0:
408,379,82645,6,0,P|367:396|326:380,1,89.9999976158143
326,119,82879,1,0,0:0:0:0:
326,380,82996,1,0,0:0:0:0:
478,113,83114,6,0,P|450:65|378:76,1,89.9999976158142
269,221,83348,2,0,P|297:269|369:258,1,89.9999976158142
420,58,83582,1,0,0:0:0:0:
327,276,83699,1,0,0:0:0:0:
325,59,83817,1,0,0:0:0:0:
431,230,83934,1,0,0:0:0:0:
231,63,84051,2,0,P|191:79|173:120,1,89.9999976158143
431,230,84285,1,0,0:0:0:0:
231,63,84403,2,0,P|191:79|173:120,1,89.9999976158143
285,341,84637,5,0,0:0:0:0:
173,119,84754,1,0,0:0:0:0:
431,230,84871,1,0,0:0:0:0:
85,287,84989,6,0,P|103:328|144:344,1,89.9999976158142
341,215,85223,2,0,P|325:175|284:158,1,89.9999976158142
85,217,85457,1,0,0:0:0:0:
341,215,85574,1,0,0:0:0:0:
142,343,85692,1,0,0:0:0:0:
173,119,85809,1,0,0:0:0:0:
232,344,85926,2,0,P|286:358|329:299,1,89.9999976158143
259,119,86160,1,0,0:0:0:0:
313,342,86278,2,0,P|367:356|410:297,1,89.9999976158143
259,119,86512,5,0,0:0:0:0:
313,342,86629,1,0,0:0:0:0:
344,121,86746,1,0,0:0:0:0:
313,342,86864,2,0,P|272:359|231:343,1,89.9999976158143
27,177,87098,2,0,P|55:129|127:140,1,89.9999976158142
231,343,87332,1,0,0:0:0:0:
27,177,87449,1,0,0:0:0:0:
259,119,87567,1,0,0:0:0:0:
48,262,87684,1,0,0:0:0:0:
303,195,87801,2,0,P|316:154|281:104,1,89.9999976158143
27,177,88035,1,0,0:0:0:0:
303,195,88153,2,0,P|315:151|221:104,1,135.000001573563
48,262,88387,5,0,0:0:0:0:
303,195,88504,6,0,P|296:112|205:117,1,179.999995231629
154,272,88973,2,0,P|182:320|254:309,1,89.9999976158142
303,384,89207,1,0,0:0:0:0:
213,328,89324,1,0,0:0:0:0:
331,262,89442,1,0,0:0:0:0:
176,190,89559,1,0,0:0:0:0:
348,77,89676,6,0,B|384:91|384:91|402:126|402:126|434:135,1,90.0000010490418
206,33,89832,2,0,B|251:51|251:51|277:105,1,90.0000010490418
300,128,89989,6,0,B|336:142|336:142|354:177|354:177|386:186,1,90.0000010490418
156,84,90145,2,0,B|201:102|201:102|227:156,1,90.0000010490418
250,177,90301,6,0,B|286:191|286:191|304:226|304:226|336:235,1,90.0000010490418
106,133,90457,2,0,B|151:151|151:151|177:205,1,90.0000010490418
207,248,90614,6,0,P|238:292|293:295,1,89.9999976158143
433,248,90965,5,0,0:0:0:0:
321,331,91317,5,0,0:0:0:0:
207,248,91668,5,0,0:0:0:0:
251,115,92020,5,0,0:0:0:0:
251,115,92137,1,0,0:0:0:0:
321,116,92254,1,0,0:0:0:0:
390,115,92371,1,0,0:0:0:0:
324,224,92723,5,0,0:0:0:0:
185,224,93074,5,0,0:0:0:0:
121,115,93426,5,0,0:0:0:0:
260,115,93777,5,0,0:0:0:0:
390,115,94012,5,0,0:0:0:0:
391,185,94129,1,0,0:0:0:0:
334,226,94246,1,0,0:0:0:0:
178,226,94364,6,0,P|194:278|246:298,1,89.9999976158143
292,297,94715,1,0,0:0:0:0:
260,115,95067,5,0,0:0:0:0:
222,295,95419,5,0,0:0:0:0:
260,115,95770,5,0,0:0:0:0:
122,115,95887,5,0,0:0:0:0:
121,185,96004,1,0,0:0:0:0:
178,226,96121,1,0,0:0:0:0:
334,226,96473,5,0,0:0:0:0:
180,67,96707,5,0,0:0:0:0:
234,115,96824,5,0,0:0:0:0:
235,185,96941,1,0,0:0:0:0:
178,226,97058,1,0,0:0:0:0:
290,66,97176,2,0,P|306:89|307:126,1,44.9999988079071
309,227,97410,1,0,0:0:0:0:
178,226,97528,5,0,0:0:0:0:
309,295,97684,1,0,0:0:0:0:
177,295,97840,1,0,0:0:0:0:
309,227,97996,1,0,0:0:0:0:
177,137,98114,6,0,P|208:93|263:90,1,89.9999976158143
368,88,98465,1,0,0:0:0:0:
439,192,98817,5,0,0:0:0:0:
368,288,99168,5,0,0:0:0:0:
296,192,99520,5,0,0:0:0:0:
224,296,99636,5,0,0:0:0:0:
163,259,99753,1,0,0:0:0:0:
144,192,99871,1,0,0:0:0:0:
296,192,100223,5,0,0:0:0:0:
296,64,100574,5,0,0:0:0:0:
168,64,100926,5,0,0:0:0:0:
80,144,101278,5,0,0:0:0:0:
80,263,101512,5,0,0:0:0:0:
99,330,101630,1,0,0:0:0:0:
160,367,101747,1,0,0:0:0:0:
352,367,101864,2,0,P|387:340|396:297,1,89.9999976158143
256,184,102215,5,0,0:0:0:0:
382,27,102332,5,0,0:0:0:0:
436,75,102449,1,0,0:0:0:0:
437,145,102566,1,0,0:0:0:0:
380,186,102683,1,0,0:0:0:0:
256,184,102919,5,0,0:0:0:0:
132,198,103270,5,0,0:0:0:0:
75,239,103387,1,0,0:0:0:0:
76,309,103504,1,0,0:0:0:0:
130,357,103621,1,0,0:0:0:0:
256,358,103973,5,0,0:0:0:0:
382,357,104207,5,0,0:0:0:0:
436,309,104324,1,0,0:0:0:0:
437,239,104441,1,0,0:0:0:0:
380,198,104558,1,0,0:0:0:0:
256,184,104676,5,0,0:0:0:0:
232,185,104754,1,0,0:0:0:0:
203,186,104832,1,0,0:0:0:0:
132,186,104911,5,0,0:0:0:0:
75,145,104989,1,0,0:0:0:0:
76,75,105067,1,0,0:0:0:0:
127,29,105145,5,0,0:0:0:0:
173,37,105223,1,0,0:0:0:0:
214,62,105301,1,0,0:0:0:0:
244,99,105379,1,0,0:0:0:0:
258,145,105457,1,0,0:0:0:0:
261,194,105535,1,0,0:0:0:0:
269,260,105614,6,0,P|285:301|326:319,1,89.9999976158142
324,145,106082,5,0,0:0:0:0:
201,260,106199,1,0,0:0:0:0:
155,154,106434,5,0,0:0:0:0:
296,240,106551,1,0,0:0:0:0:
201,260,106785,5,0,0:0:0:0:
236,96,106903,1,0,0:0:0:0:
406,151,107137,5,0,0:0:0:0:
423,191,107254,1,0,0:0:0:0:
411,232,107371,1,0,0:0:0:0:
313,324,107489,5,0,0:0:0:0:
276,325,107723,1,0,0:0:0:0:
188,184,107957,5,0,0:0:0:0:
196,152,108074,1,0,0:0:0:0:
224,128,108192,1,0,0:0:0:0:
328,257,108309,1,0,0:0:0:0:
265,107,108426,1,0,0:0:0:0:
376,165,108660,5,0,0:0:0:0:
228,244,108778,1,0,0:0:0:0:
85,306,109012,5,0,0:0:0:0:
73,270,109129,1,0,0:0:0:0:
81,230,109246,1,0,0:0:0:0:
202,79,109364,1,0,0:0:0:0:
234,59,109598,1,0,0:0:0:0:
308,64,109832,5,0,0:0:0:0:
344,88,109949,1,0,0:0:0:0:
356,124,110067,1,0,0:0:0:0:
198,177,110184,1,0,0:0:0:0:
364,177,110301,1,0,0:0:0:0:
199,249,110535,5,0,0:0:0:0:
366,249,110653,1,0,0:0:0:0:
200,317,110887,5,0,0:0:0:0:
238,318,111004,1,0,0:0:0:0:
276,317,111121,1,0,0:0:0:0:
435,249,111239,1,0,0:0:0:0:
433,212,111473,1,0,0:0:0:0:
200,317,111707,5,0,0:0:0:0:
164,305,111824,1,0,0:0:0:0:
136,281,111942,1,0,0:0:0:0:
296,238,112059,1,0,0:0:0:0:
133,203,112176,1,0,0:0:0:0:
296,238,112410,5,0,0:0:0:0:
164,133,112528,1,0,0:0:0:0:
228,81,112762,5,0,0:0:0:0:
195,98,112879,1,0,0:0:0:0:
164,133,112996,1,0,0:0:0:0:
333,249,113114,5,0,0:0:0:0:
332,284,113348,1,0,0:0:0:0:
93,131,113582,5,0,0:0:0:0:
93,99,113699,1,0,0:0:0:0:
117,63,113817,1,0,0:0:0:0:
244,191,113934,1,0,0:0:0:0:
244,24,114051,1,0,0:0:0:0:
338,190,114285,5,0,0:0:0:0:
337,23,114403,1,0,0:0:0:0:
435,190,114637,5,0,0:0:0:0:
422,232,114754,1,0,0:0:0:0:
390,263,114871,1,0,0:0:0:0:
180,263,114988,1,0,0:0:0:0:
160,301,115223,1,0,0:0:0:0:
263,195,115457,5,0,0:0:0:0:
287,171,115574,1,0,0:0:0:0:
319,163,115692,1,0,0:0:0:0:
321,329,115809,1,0,0:0:0:0:
377,172,115926,1,0,0:0:0:0:
321,329,116160,5,0,0:0:0:0:
377,172,116278,1,0,0:0:0:0:
180,82,116512,5,0,0:0:0:0:
377,172,116629,1,0,0:0:0:0:
298,25,116746,1,0,0:0:0:0:
222,189,116864,1,0,0:0:0:0:
207,219,117098,1,0,0:0:0:0:
321,329,117332,5,0,0:0:0:0:
353,309,117449,1,0,0:0:0:0:
369,281,117567,1,0,0:0:0:0:
140,195,117684,1,0,0:0:0:0:
364,196,117801,1,0,0:0:0:0:
136,83,118035,5,0,0:0:0:0:
362,85,118153,1,0,0:0:0:0:
364,196,118387,5,0,0:0:0:0:
351,238,118504,1,0,0:0:0:0:
319,269,118621,1,0,0:0:0:0:
140,195,118739,1,0,0:0:0:0:
99,196,118973,1,0,0:0:0:0:
362,121,119207,5,0,0:0:0:0:
362,85,119324,1,0,0:0:0:0:
138,121,119442,1,0,0:0:0:0:
256,311,119559,5,0,0:0:0:0:
256,86,119676,1,0,0:0:0:0:
360,312,119910,5,0,0:0:0:0:
362,85,120028,1,0,0:0:0:0:
150,310,120262,5,0,0:0:0:0:
150,85,120379,1,0,0:0:0:0:
2,254,120496,1,0,0:0:0:0:
311,252,120614,2,0,P|295:293|253:311,1,89.9999976158142
256,192,120965,12,0,122371,0:0:0:0:
126,340,122489,6,0,P|154:292|226:303,1,89.9999976158142
168,144,122723,2,0,P|140:192|68:181,1,89.9999976158142
244,356,122957,1,0,0:0:0:0:
300,140,123074,1,0,0:0:0:0:
356,332,123192,1,0,0:0:0:0:
168,144,123309,1,0,0:0:0:0:
356,332,123426,2,0,P|328:284|256:295,1,89.9999976158142
428,136,123660,1,0,0:0:0:0:
356,332,123778,2,0,P|328:284|256:295,1,89.9999976158142
296,108,124012,5,0,0:0:0:0:
248,232,124129,1,0,0:0:0:0:
428,136,124246,1,0,0:0:0:0:
296,108,124364,6,0,P|269:157|197:146,1,89.9999976158142
189,287,124598,2,0,P|217:239|289:250,1,89.9999976158142
160,80,124832,1,0,0:0:0:0:
366,160,124949,1,0,0:0:0:0:
356,332,125067,1,0,0:0:0:0:
238,165,125184,1,0,0:0:0:0:
130,342,125301,2,0,P|158:294|230:305,1,89.9999976158142
168,144,125535,1,0,0:0:0:0:
130,342,125653,2,0,P|158:294|230:305,1,89.9999976158142
168,144,125887,5,0,0:0:0:0:
92,256,126004,1,0,0:0:0:0:
297,276,126121,1,0,0:0:0:0:
168,144,126239,6,0,P|152:103|111:85,1,89.9999976158142
297,276,126473,2,0,P|313:317|353:334,1,89.9999976158142
420,168,126707,1,0,0:0:0:0:
188,280,126824,1,0,0:0:0:0:
312,143,126942,1,0,0:0:0:0:
353,334,127059,1,0,0:0:0:0:
312,143,127176,2,0,P|360:115|349:43,1,89.9999976158142
160,52,127410,1,0,0:0:0:0:
312,143,127528,2,0,P|360:115|349:43,1,89.9999976158142
288,336,127762,5,0,0:0:0:0:
160,256,127879,1,0,0:0:0:0:
256,80,127996,2,0,P|304:108|293:180,1,89.9999976158142
256,80,128348,6,0,P|304:108|293:180,1,89.9999976158142
369,305,128582,1,0,0:0:0:0:
397,153,128699,1,0,0:0:0:0:
256,80,128817,1,0,0:0:0:0:
152,183,128934,1,0,0:0:0:0:
216,322,129051,2,0,P|316:288|312:204,1,179.999995231629
256,80,129403,1,0,0:0:0:0:
207,242,129520,6,0,P|159:214|170:142,1,89.9999976158142
256,80,129754,1,0,0:0:0:0:
207,242,129871,1,0,0:0:0:0:
380,72,129989,6,0,P|352:120|280:109,1,89.9999976158142
256,300,130223,2,0,P|284:252|356:263,1,89.9999976158142
380,72,130457,1,0,0:0:0:0:
191,128,130574,1,0,0:0:0:0:
316,244,130692,1,0,0:0:0:0:
104,276,130809,1,0,0:0:0:0:
132,72,130926,2,0,P|160:120|232:109,1,89.9999976158142
256,300,131160,1,0,0:0:0:0:
132,72,131278,2,0,P|160:120|232:109,1,89.9999976158142
256,300,131512,5,0,0:0:0:0:
159,185,131629,1,0,0:0:0:0:
339,197,131746,1,0,0:0:0:0:
102,242,131864,6,0,P|129:193|201:204,1,89.9999976158142
238,242,132098,2,0,P|210:290|138:279,1,89.9999976158142
322,128,132332,1,0,0:0:0:0:
408,320,132449,1,0,0:0:0:0:
440,128,132567,1,0,0:0:0:0:
238,242,132684,1,0,0:0:0:0:
440,128,132801,2,0,P|412:176|340:165,1,89.9999976158142
408,320,133035,1,0,0:0:0:0:
440,128,133153,2,0,P|412:176|340:165,1,89.9999976158142
238,242,133387,5,0,0:0:0:0:
382,184,133504,1,0,0:0:0:0:
164,136,133621,1,0,0:0:0:0:
294,301,133739,6,0,P|246:273|257:201,1,89.9999976158142
327,126,133973,2,0,P|375:154|364:226,1,89.9999976158142
164,136,134207,1,0,0:0:0:0:
294,301,134324,1,0,0:0:0:0:
327,126,134442,1,0,0:0:0:0:
136,256,134559,1,0,0:0:0:0:
220,78,134676,2,0,P|172:106|183:178,1,89.9999976158142
32,196,134910,1,0,0:0:0:0:
220,72,135028,2,0,P|172:100|183:172,1,89.9999976158142
136,256,135262,1,0,0:0:0:0:
304,152,135379,2,0,P|352:180|341:252,1,89.9999976158142
226,278,135614,6,0,P|163:219|191:97,1,179.999995231629
464,188,136551,6,0,B|434:173|434:173|400:176,1,45.0000005245209
293,44,136707,2,0,B|312:70|312:70|315:104,1,45.0000005245209
442,206,136864,2,0,B|413:192|413:192|380:195,1,45.0000005245209
280,70,137020,2,0,B|297:95|297:95|300:127,1,45.0000005245209
402,219,137176,2,0,B|378:208|378:208|352:210,1,45.0000005245209
271,109,137332,2,0,B|284:129|284:129|287:155,1,45.0000005245209
126,44,137489,6,0,P|154:92|226:81,1,89.9999976158142
257,259,137723,2,0,P|229:211|157:222,1,89.9999976158142
126,44,137957,1,0,0:0:0:0:
337,115,138074,1,0,0:0:0:0:
192,204,138192,1,0,0:0:0:0:
244,28,138309,1,0,0:0:0:0:
396,59,138426,2,0,P|368:107|296:96,1,89.9999976158142
424,280,138660,1,0,0:0:0:0:
396,59,138778,2,0,P|368:107|296:96,1,89.9999976158142
256,268,139012,5,0,0:0:0:0:
338,114,139129,1,0,0:0:0:0:
156,164,139246,1,0,0:0:0:0:
395,171,139364,6,0,P|368:122|296:133,1,89.9999976158142
256,268,139598,2,0,P|284:316|356:305,1,89.9999976158142
156,164,139832,1,0,0:0:0:0:
337,113,139949,1,0,0:0:0:0:
314,323,140067,1,0,0:0:0:0:
256,96,140184,1,0,0:0:0:0:
97,108,140301,2,0,P|125:156|197:145,1,89.9999976158142
32,284,140535,1,0,0:0:0:0:
97,108,140653,2,0,P|125:156|197:145,1,89.9999976158142
168,296,140887,5,0,0:0:0:0:
32,284,141004,1,0,0:0:0:0:
256,192,141121,1,0,0:0:0:0:
408,56,141239,6,0,P|392:97|351:115,1,89.9999976158142
367,299,141473,2,0,P|383:258|423:241,1,89.9999976158142
256,192,141707,1,0,0:0:0:0:
408,56,141824,1,0,0:0:0:0:
423,240,141942,1,0,0:0:0:0:
244,88,142059,1,0,0:0:0:0:
312,241,142176,2,0,P|360:269|349:341,1,89.9999976158142
408,56,142410,1,0,0:0:0:0:
312,241,142528,2,0,P|360:269|349:341,1,89.9999976158142
288,48,142762,5,0,0:0:0:0:
160,128,142879,1,0,0:0:0:0:
256,304,142996,2,0,P|304:276|293:204,1,89.9999976158142
256,304,143348,6,0,P|304:276|293:204,1,89.9999976158142
369,79,143582,1,0,0:0:0:0:
397,231,143699,1,0,0:0:0:0:
256,304,143817,1,0,0:0:0:0:
152,201,143934,1,0,0:0:0:0:
216,62,144051,2,0,P|316:96|312:180,1,179.999995231629
256,304,144403,1,0,0:0:0:0:
207,142,144520,6,0,P|159:170|170:242,1,89.9999976158142
256,304,144754,1,0,0:0:0:0:
207,142,144871,1,0,0:0:0:0:
380,312,144989,6,0,P|352:264|280:275,1,89.9999976158142
256,84,145223,2,0,P|284:132|356:121,1,89.9999976158142
464,144,145457,1,0,0:0:0:0:
380,312,145574,1,0,0:0:0:0:
316,140,145692,1,0,0:0:0:0:
264,336,145809,1,0,0:0:0:0:
136,308,145926,2,0,P|164:260|236:271,1,89.9999976158142
256,84,146160,1,0,0:0:0:0:
132,312,146278,2,0,P|160:264|232:275,1,89.9999976158142
256,84,146512,5,0,0:0:0:0:
159,199,146629,1,0,0:0:0:0:
339,187,146746,1,0,0:0:0:0:
102,142,146864,6,0,P|129:191|201:180,1,89.9999976158142
238,142,147098,2,0,P|210:94|138:105,1,89.9999976158142
264,276,147332,1,0,0:0:0:0:
388,112,147449,1,0,0:0:0:0:
380,312,147567,1,0,0:0:0:0:
238,142,147684,1,0,0:0:0:0:
440,256,147801,2,0,P|412:208|340:219,1,89.9999976158142
408,64,148035,1,0,0:0:0:0:
440,256,148153,2,0,P|412:208|340:219,1,89.9999976158142
238,142,148387,5,0,0:0:0:0:
382,200,148504,1,0,0:0:0:0:
164,248,148621,1,0,0:0:0:0:
294,83,148739,6,0,P|246:111|257:183,1,89.9999976158142
327,258,148973,2,0,P|375:230|364:158,1,89.9999976158142
294,83,149207,2,0,P|246:55|257:-17,1,89.9999976158142
327,258,149442,2,0,P|375:286|364:358,1,89.9999976158142
294,83,149676,2,0,P|342:55|331:-17,1,89.9999976158142
327,258,149910,2,0,P|279:286|290:358,1,89.9999976158142
294,83,150145,2,0,P|342:111|331:183,1,89.9999976158142
327,258,150380,2,0,P|279:230|290:158,1,89.9999976158142
220,312,150614,6,0,P|172:284|183:212,1,89.9999976158142
220,312,150848,2,0,P|172:284|183:212,1,89.9999976158142
288,80,151082,1,0,0:0:0:0:
136,128,151199,1,0,0:0:0:0:
360,160,151317,1,0,0:0:0:0:
220,312,151434,1,0,0:0:0:0:
212,72,151551,1,0,0:0:0:0:
332,276,151668,1,0,0:0:0:0:
288,80,151785,6,0,P|303:120|344:144,1,89.9999976158143
136,128,152020,6,0,P|174:206|258:229,1,179.999995231629
288,80,152489,6,0,P|336:108|325:180,1,89.9999976158142
258,228,152723,2,0,P|210:200|221:128,1,89.9999976158142
152,328,152957,1,0,0:0:0:0:
92,104,153074,1,0,0:0:0:0:
256,232,153192,1,0,0:0:0:0:
56,288,153309,1,0,0:0:0:0:
202,169,153426,6,0,P|229:203|273:207,1,89.9999976158142
327,95,153660,2,0,P|299:60|255:56,1,89.9999976158142
194,324,153895,1,0,0:0:0:0:
85,119,154012,1,0,0:0:0:0:
273,207,154130,1,0,0:0:0:0:
91,306,154247,1,0,0:0:0:0:
273,207,154364,6,0,P|302:174|299:130,1,89.9999976158142
180,95,154598,2,0,P|150:127|153:171,1,89.9999976158142
427,190,154833,1,0,0:0:0:0:
241,330,154950,1,0,0:0:0:0:
299,130,155068,1,0,0:0:0:0:
425,295,155185,1,0,0:0:0:0:
225,266,155301,6,0,P|214:223|177:200,1,89.9999976158142
79,277,155535,2,0,P|89:319|126:342,1,89.9999976158142
299,130,155770,1,0,0:0:0:0:
307,362,155887,1,0,0:0:0:0:
176,200,156005,1,0,0:0:0:0:
384,191,156122,1,0,0:0:0:0:
176,200,156239,6,0,P|205:232|202:276,1,89.9999976158142
83,312,156473,2,0,P|53:279|56:235,1,89.9999976158142
330,217,156708,1,0,0:0:0:0:
144,77,156825,1,0,0:0:0:0:
202,277,156943,1,0,0:0:0:0:
328,112,157060,1,0,0:0:0:0:
228,200,157176,6,0,P|198:232|201:276,1,89.9999976158142
321,312,157410,2,0,P|350:279|347:235,1,89.9999976158142
74,217,157645,1,0,0:0:0:0:
260,77,157762,1,0,0:0:0:0:
202,277,157880,1,0,0:0:0:0:
80,102,157996,2,0,P|90:145|128:168,1,89.9999976158142
260,77,158348,5,0,0:0:0:0:
202,277,158466,1,0,0:0:0:0:
80,102,158582,2,0,P|90:145|128:168,1,89.9999976158142
260,77,158817,1,0,0:0:0:0:
312,280,158934,1,0,0:0:0:0:
432,102,159051,2,0,P|422:145|384:168,1,89.9999976158142
460,304,159285,1,0,0:0:0:0:
432,102,159403,2,0,P|422:145|384:168,1,89.9999976158142
202,277,159637,1,0,0:0:0:0:
307,142,159754,2,0,P|297:99|259:76,1,89.9999976158142
80,102,159989,6,0,P|90:145|128:168,1,89.9999976158142
307,142,160223,2,0,P|297:99|259:76,1,89.9999976158143
202,277,160457,1,0,0:0:0:0:
80,104,160574,1,0,0:0:0:0:
112,288,160692,1,0,0:0:0:0:
259,76,160809,1,0,0:0:0:0:
101,165,160926,6,0,P|125:201|169:209,1,89.9999976158142
327,120,161160,2,0,P|302:83|258:75,1,89.9999976158143
277,284,161394,1,0,0:0:0:0:
101,166,161511,1,0,0:0:0:0:
180,312,161629,1,0,0:0:0:0:
155,109,161746,1,0,0:0:0:0:
277,284,161864,6,0,P|267:241|229:218,1,89.9999976158142
50,244,162098,2,0,P|60:287|98:310,1,89.9999976158143
155,109,162332,1,0,0:0:0:0:
228,308,162449,1,0,0:0:0:0:
245,98,162567,1,0,0:0:0:0:
98,310,162684,1,0,0:0:0:0:
334,134,162801,6,0,P|324:177|286:200,1,89.9999976158142
107,174,163035,2,0,P|117:131|155:108,1,89.9999976158143
212,309,163269,1,0,0:0:0:0:
334,136,163386,1,0,0:0:0:0:
302,320,163504,1,0,0:0:0:0:
155,108,163621,1,0,0:0:0:0:
302,320,163739,6,0,P|292:277|254:254,1,89.9999976158142
75,280,163973,2,0,P|85:323|123:346,1,89.9999976158143
180,145,164207,1,0,0:0:0:0:
302,318,164324,1,0,0:0:0:0:
270,134,164442,1,0,0:0:0:0:
75,280,164559,1,0,0:0:0:0:
222,68,164676,6,0,P|259:91|269:133,1,89.9999976158143
89,159,164910,2,0,P|51:135|41:93,1,89.9999976158142
123,346,165145,1,0,0:0:0:0:
302,318,165262,1,0,0:0:0:0:
192,204,165379,1,0,0:0:0:0:
256,192,165496,12,0,167371,0:0:0:0:
132,72,167489,6,0,P|160:120|232:109,1,89.9999976158142
256,300,167723,2,0,P|228:252|156:263,1,89.9999976158142
380,72,167957,2,0,P|352:120|280:109,2,89.9999976158142
256,300,168309,1,0,0:0:0:0:
380,72,168426,2,0,P|352:120|280:109,1,89.9999976158142
432,276,168660,1,0,0:0:0:0:
380,72,168778,2,0,P|352:120|280:109,1,89.9999976158142
256,300,169012,5,0,0:0:0:0:
353,185,169129,1,0,0:0:0:0:
173,197,169246,1,0,0:0:0:0:
107,37,169364,6,0,P|135:85|207:74,1,89.9999976158142
238,252,169598,2,0,P|210:204|138:215,1,89.9999976158142
107,37,169832,1,0,0:0:0:0:
318,108,169949,1,0,0:0:0:0:
179,196,170067,1,0,0:0:0:0:
224,28,170184,1,0,0:0:0:0:
377,52,170301,2,0,P|349:100|277:89,1,89.9999976158142
405,273,170535,1,0,0:0:0:0:
377,52,170653,2,0,P|349:100|277:89,1,89.9999976158142
237,261,170887,5,0,0:0:0:0:
319,107,171004,1,0,0:0:0:0:
137,157,171121,1,0,0:0:0:0:
319,107,171239,6,0,P|292:58|220:69,1,89.9999976158142
347,217,171473,2,0,P|375:265|447:254,1,89.9999976158142
201,329,171707,1,0,0:0:0:0:
347,217,171824,1,0,0:0:0:0:
172,120,171942,1,0,0:0:0:0:
347,217,172059,1,0,0:0:0:0:
113,65,172176,2,0,P|141:113|213:102,1,89.9999976158142
201,329,172410,1,0,0:0:0:0:
113,65,172528,2,0,P|141:113|213:102,1,89.9999976158142
201,329,172762,5,0,0:0:0:0:
81,249,172879,1,0,0:0:0:0:
293,234,172996,1,0,0:0:0:0:
201,329,173114,6,0,P|153:301|164:229,1,89.9999976158142
201,329,173348,6,0,P|153:301|164:229,1,89.9999976158142
88,104,173582,1,0,0:0:0:0:
60,256,173699,1,0,0:0:0:0:
201,329,173817,1,0,0:0:0:0:
305,226,173934,1,0,0:0:0:0:
241,87,174051,2,0,P|141:121|145:205,1,179.999995231629
201,329,174403,1,0,0:0:0:0:
250,167,174520,6,0,P|298:195|287:267,1,89.9999976158142
201,329,174754,1,0,0:0:0:0:
250,167,174871,1,0,0:0:0:0:
440,300,174989,6,0,P|412:252|340:263,1,89.9999976158142
316,72,175223,2,0,P|344:120|416:109,1,89.9999976158142
192,300,175457,2,0,P|220:252|292:263,2,89.9999976158142
316,72,175809,1,0,0:0:0:0:
192,300,175926,2,0,P|220:252|292:263,1,89.9999976158142
140,96,176160,1,0,0:0:0:0:
192,300,176278,2,0,P|220:252|292:263,1,89.9999976158142
316,72,176512,5,0,0:0:0:0:
219,187,176629,1,0,0:0:0:0:
399,175,176746,1,0,0:0:0:0:
465,335,176864,6,0,P|437:287|365:298,1,89.9999976158142
334,120,177098,2,0,P|362:168|434:157,1,89.9999976158142
465,335,177332,1,0,0:0:0:0:
254,264,177449,1,0,0:0:0:0:
393,176,177567,1,0,0:0:0:0:
348,344,177684,1,0,0:0:0:0:
195,320,177801,2,0,P|223:272|295:283,1,89.9999976158142
167,99,178035,1,0,0:0:0:0:
195,320,178153,2,0,P|223:272|295:283,1,89.9999976158142
335,111,178387,5,0,0:0:0:0:
253,265,178504,1,0,0:0:0:0:
435,215,178621,1,0,0:0:0:0:
253,265,178739,6,0,P|280:314|352:303,1,89.9999976158142
225,155,178973,2,0,P|197:107|125:118,1,89.9999976158142
371,43,179207,1,0,0:0:0:0:
225,155,179324,1,0,0:0:0:0:
400,252,179442,1,0,0:0:0:0:
225,155,179559,1,0,0:0:0:0:
459,307,179676,2,0,P|431:259|359:270,1,89.9999976158142
371,43,179910,1,0,0:0:0:0:
459,307,180028,2,0,P|431:259|359:270,1,89.9999976158142
371,43,180262,5,0,0:0:0:0:
457,193,180379,6,0,P|430:242|358:231,1,89.9999976158142
167,97,180614,6,0,P|194:146|266:135,1,89.9999976158142
371,43,181082,1,0,0:0:0:0:
360,76,181199,1,0,0:0:0:0:
348,112,181317,1,0,0:0:0:0:
336,144,181434,1,0,0:0:0:0:
224,154,181551,6,0,P|229:209|300:227,2,89.9999976158142
348,112,182254,1,0,0:0:0:0:
337,145,182371,1,0,0:0:0:0:
224,152,182489,2,0,B|216:168|216:168|200:172,2,22.4999994039536
337,145,182723,2,0,B|344:172|344:172|368:192,2,44.9999988079071
