osu file format v14

[General]
AudioFilename: Perfume - Daijobanai.mp3
AudioLeadIn: 0
PreviewTime: 45000
Countdown: 0
SampleSet: None
StackLeniency: 0.2
Mode: 0
LetterboxInBreaks: 0
WidescreenStoryboard: 1

[Editor]
DistanceSpacing: 2.1
BeatDivisor: 4
GridSize: 8
TimelineZoom: 3.5

[Metadata]
Title:Daijobanai
TitleUnicode:Daijobanai
Artist:Perfume
ArtistUnicode:Perfume
Creator:Xelite
Version:Add me on azur lane
Source:
Tags:
BeatmapID:1842875
BeatmapSetID:635646

[Difficulty]
HPDrainRate:4.5
CircleSize:3.4
OverallDifficulty:9
ApproachRate:9.5
SliderMultiplier:3.59999990463257
SliderTickRate:1

[Events]
//Background and Video events
0,0,"background.jpg",0,0
//Break Periods
2,23431,29151
//Storyboard Layer 0 (Background)
//Storyboard Layer 1 (Fail)
//Storyboard Layer 2 (Pass)
//Storyboard Layer 3 (Foreground)
//Storyboard Sound Samples

[TimingPoints]
614,468.75,4,2,0,70,1,0
28739,-200,4,2,0,70,0,0
29676,-66.6666666666667,4,2,0,80,0,0
29705,-66.6666666666667,4,2,0,5,0,0
29832,-66.6666666666667,4,2,0,80,0,0
29852,-66.6666666666667,4,2,0,5,0,0
29989,-66.6666666666667,4,2,0,80,0,0
29998,-66.6666666666667,4,2,0,5,0,0
30145,-66.6666666666667,4,2,0,80,0,0
30174,-66.6666666666667,4,2,0,5,0,0
30301,-66.6666666666667,4,2,0,80,0,0
30321,-66.6666666666667,4,2,0,5,0,0
30457,-66.6666666666667,4,2,0,80,0,0
30467,-66.6666666666667,4,2,0,5,0,0
30574,-200,4,2,0,55,0,0
45496,-100,4,2,0,70,0,0
89572,-66.6666666666667,4,2,0,80,0,0
89705,-66.6666666666667,4,2,0,5,0,0
89805,-66.6666666666667,4,2,0,80,0,0
89852,-66.6666666666667,4,2,0,5,0,0
89900,-66.6666666666667,4,2,0,80,0,0
89998,-66.6666666666667,4,2,0,5,0,0
90070,-66.6666666666667,4,2,0,80,0,0
90174,-66.6666666666667,4,2,0,5,0,0
90220,-66.6666666666667,4,2,0,80,0,0
90321,-66.6666666666667,4,2,0,5,0,0
90379,-66.6666666666667,4,2,0,80,0,0
90479,-66.6666666666667,4,2,0,5,0,0
90579,-200,4,2,0,70,0,0
122371,-100,4,2,0,80,0,0
135550,-200,4,2,0,70,0,0
136128,-66.6666666666667,4,2,0,70,0,0
136580,-66.6666666666667,4,2,0,5,0,0
136640,-66.6666666666667,4,2,0,80,0,0
136727,-66.6666666666667,4,2,0,5,0,0
136800,-66.6666666666667,4,2,0,80,0,0
136873,-66.6666666666667,4,2,0,5,0,0
136940,-66.6666666666667,4,2,0,80,0,0
137049,-66.6666666666667,4,2,0,5,0,0
137130,-66.6666666666667,4,2,0,80,0,0
137196,-66.6666666666667,4,2,0,5,0,0
137250,-66.6666666666667,4,2,0,80,0,0
137342,-66.6666666666667,4,2,0,5,0,0
137450,-100,4,2,0,80,0,0
180580,-200,4,2,0,40,0,0
180680,-200,4,2,0,35,0,0

[HitObjects]
90,64,614,6,0,L|113:158,1,89.9999976158143
210,242,848,2,0,L|188:154,1,89.9999976158143
266,45,1082,5,0,0:0:0:0:
336,31,1199,1,0,0:0:0:0:
407,40,1317,1,0,0:0:0:0:
464,83,1434,1,0,0:0:0:0:
479,153,1551,6,0,L|492:270,1,89.9999976158143
392,336,1785,1,0,0:0:0:0:
392,336,1903,2,0,L|382:246,1,89.9999976158143
367,112,2137,1,0,0:0:0:0:
223,99,2254,1,0,0:0:0:0:
284,230,2371,1,0,0:0:0:0:
284,230,2489,6,0,P|272:277|294:320,1,89.9999976158143
165,370,2723,2,0,P|171:324|155:280,1,89.9999976158143
95,225,2957,5,0,0:0:0:0:
64,159,3074,1,0,0:0:0:0:
73,87,3192,1,0,0:0:0:0:
121,33,3309,1,0,0:0:0:0:
192,26,3426,6,0,L|282:40,1,89.9999976158143
382,127,3660,1,0,0:0:0:0:
382,127,3778,2,0,L|293:140,1,89.9999976158143
160,162,4012,1,0,0:0:0:0:
103,285,4129,1,0,0:0:0:0:
237,272,4246,1,0,0:0:0:0:
237,272,4364,6,0,L|333:311,1,89.9999976158143
440,202,4598,2,0,L|356:235,1,89.9999976158143
277,272,4832,5,0,0:0:0:0:
205,279,4949,1,0,0:0:0:0:
135,258,5067,1,0,0:0:0:0:
77,214,5184,1,0,0:0:0:0:
48,148,5301,6,0,P|42:105|54:51,1,89.9999976158143
149,151,5535,1,0,0:0:0:0:
149,151,5653,2,0,P|157:195|152:239,1,89.9999976158143
107,354,5887,5,0,0:0:0:0:
223,284,6004,1,0,0:0:0:0:
106,218,6121,1,0,0:0:0:0:
218,142,6239,1,0,0:0:0:0:
218,142,6473,6,0,L|325:89,1,89.9999976158143
422,155,6707,1,0,0:0:0:0:
422,155,6824,2,0,L|341:194,1,89.9999976158143
285,319,7059,5,0,0:0:0:0:
211,205,7176,1,0,0:0:0:0:
104,72,7410,5,0,0:0:0:0:
236,56,7528,1,0,0:0:0:0:
188,176,7645,1,0,0:0:0:0:
169,18,7762,1,0,0:0:0:0:
248,124,7880,1,0,0:0:0:0:
120,143,7997,1,0,0:0:0:0:
49,258,8114,6,0,L|194:313,1,89.9999976158143
265,265,8348,2,0,L|180:233,1,89.9999976158143
100,194,8582,5,0,0:0:0:0:
51,140,8699,1,0,0:0:0:0:
51,67,8817,1,0,0:0:0:0:
110,26,8934,1,0,0:0:0:0:
181,29,9051,6,0,P|220:50|275:59,1,89.9999976158143
348,164,9285,1,0,0:0:0:0:
214,137,9403,1,0,0:0:0:0:
289,248,9520,2,0,P|251:227|205:218,1,89.9999976158143
89,286,9754,5,0,0:0:0:0:
89,151,9871,1,0,0:0:0:0:
206,219,9989,2,0,L|322:172,1,89.9999976158143
418,225,10223,2,0,L|334:258,1,89.9999976158143
252,302,10457,5,0,0:0:0:0:
183,281,10574,1,0,0:0:0:0:
129,231,10692,1,0,0:0:0:0:
115,160,10809,1,0,0:0:0:0:
135,90,10926,6,0,P|154:50|185:18,1,89.9999976158143
183,153,11160,1,0,0:0:0:0:
254,37,11278,1,0,0:0:0:0:
260,171,11395,2,0,P|240:211|209:243,1,89.9999976158143
93,312,11629,5,0,0:0:0:0:
93,177,11746,1,0,0:0:0:0:
209,243,11864,2,0,L|320:259,1,89.9999976158143
399,344,12098,2,0,L|309:331,1,89.9999976158143
220,312,12332,5,0,0:0:0:0:
151,288,12449,1,0,0:0:0:0:
109,181,12567,1,0,0:0:0:0:
174,151,12684,1,0,0:0:0:0:
240,122,12801,6,0,L|350:80,1,89.9999976158143
449,27,13035,5,0,0:0:0:0:
484,157,13153,1,0,0:0:0:0:
484,157,13270,1,0,0:0:0:0:
357,111,13387,5,0,0:0:0:0:
295,230,13504,1,0,0:0:0:0:
143,314,13739,5,0,0:0:0:0:
221,119,14207,5,0,0:0:0:0:
297,244,14676,5,0,0:0:0:0:
402,66,15145,6,0,L|401:11,1,44.9999988079071
402,66,15614,6,0,L|369:166,1,89.9999976158143
319,275,15848,2,0,L|290:189,1,89.9999976158143
233,0,16082,1,0,0:0:0:0:
218,255,16199,1,0,0:0:0:0:
191,16,16317,1,0,0:0:0:0:
161,211,16434,1,0,0:0:0:0:
161,211,16551,6,0,P|153:292|243:323,1,179.999995231629
336,155,16903,1,0,0:0:0:0:
336,155,17020,1,0,0:0:0:0:
161,211,17137,5,0,0:0:0:0:
384,89,17254,1,0,0:0:0:0:
278,319,17371,1,0,0:0:0:0:
228,69,17488,1,0,0:0:0:0:
415,242,17606,1,0,0:0:0:0:
217,256,17723,6,0,L|146:200,1,89.9999976158143
332,265,17957,2,0,L|402:320,1,89.9999976158143
245,191,18192,1,0,2:0:0:0:
321,28,18309,1,0,2:0:0:0:
442,174,18426,1,0,2:0:0:0:
442,174,18660,6,0,L|346:224,1,89.9999976158143
172,274,18895,2,0,L|252:315,1,89.9999976158143
329,355,19129,1,0,0:0:0:0:
288,125,19246,1,0,0:0:0:0:
456,287,19364,6,0,L|366:283,1,89.9999976158143
171,244,19598,2,0,L|287:239,1,89.9999976158143
384,230,19832,1,0,0:0:0:0:
482,18,19949,1,0,0:0:0:0:
278,131,20067,1,0,0:0:0:0:
509,159,20184,1,0,0:0:0:0:
339,0,20301,2,0,L|222:39,1,89.9999976158143
80,124,20535,1,0,0:0:0:0:
80,124,20653,6,0,L|166:157,1,89.9999976158143
346,230,20887,1,0,0:0:0:0:
383,3,21004,1,0,0:0:0:0:
160,74,21121,1,0,0:0:0:0:
160,74,21239,5,0,0:0:0:0:
346,230,21473,6,0,L|326:324,1,89.9999976158143
369,108,21707,1,0,0:0:0:0:
187,23,21824,1,0,0:0:0:0:
204,221,21942,1,0,0:0:0:0:
266,256,22059,1,0,0:0:0:0:
330,288,22176,6,0,L|431:330,1,89.9999976158143
294,176,22410,2,0,L|194:124,1,89.9999976158143
131,81,22645,1,0,0:0:0:0:
131,271,22762,1,0,0:0:0:0:
294,176,22879,1,0,0:0:0:0:
131,81,22996,1,0,0:0:0:0:
131,81,23055,1,0,0:0:0:0:
131,81,23114,6,0,L|237:76,1,89.9999976158143
178,117,29676,6,0,L|97:137,1,67.5000007867814
178,117,29832,6,0,L|243:100,1,67.5000007867814
139,238,29989,6,0,L|67:194,1,67.5000007867814
139,238,30145,6,0,L|196:272,1,67.5000007867814
289,207,30301,6,0,L|310:143,1,67.5000007867814,0|0,2:0|2:0,2:0:0:0:
289,207,30457,6,0,L|267:270,1,67.5000007867814,0|0,2:0|2:0,2:0:0:0:
342,55,30614,5,0,0:0:0:0:
