osu file format v14

[General]
AudioFilename: audio.mp3
AudioLeadIn: 0
PreviewTime: 895
Countdown: 0
SampleSet: Soft
StackLeniency: 0.4
Mode: 0
LetterboxInBreaks: 0
WidescreenStoryboard: 1

[Editor]
Bookmarks: 35108
DistanceSpacing: 1.2
BeatDivisor: 4
GridSize: 4
TimelineZoom: 1

[Metadata]
Title:Daijobanai
TitleUnicode:だいじょばない
Artist:Perfume
ArtistUnicode:Perfume
Creator:Cosmolade
Version:Normal
Source:
Tags:level3 short meme sleepykinq Darlinqq shai
BeatmapID:1411563
BeatmapSetID:666920

[Difficulty]
HPDrainRate:4
CircleSize:3
OverallDifficulty:4
ApproachRate:5
SliderMultiplier:1.4
SliderTickRate:1

[Events]
//Background and Video events
0,0,"shai.jpg",0,0
Video,120,"DAIJOBANAI - MEME.avi"
//Break Periods
//Storyboard Layer 0 (Background)
//Storyboard Layer 1 (Fail)
//Storyboard Layer 2 (Pass)
//Storyboard Layer 3 (Foreground)
//Storyboard Sound Samples

[TimingPoints]
895,468.75,4,2,1,60,1,0

[Colours]
Combo1 : 194,135,135
Combo2 : 255,168,168
Combo3 : 142,142,255
Combo4 : 243,187,255

[HitObjects]
99,88,426,6,0,P|139:88|186:114,1,70
207,170,890,6,0,L|203:258,1,70,6|0,0:0|0:0,0:0:0:0:
118,244,1363,2,0,L|121:174,1,70,10|0,0:0|0:0,0:0:0:0:
166,98,1832,1,2,3:2:0:0:
331,68,2301,1,8,0:0:0:0:
476,152,2770,6,0,P|482:180|472:248,1,70,2|0,3:2|0:0,0:0:0:0:
404,256,3238,2,0,P|396:221|398:187,1,70,10|0,0:0|0:0,0:0:0:0:
404,104,3707,1,2,3:2:0:0:
256,24,4176,1,8,0:0:0:0:
120,124,4645,6,0,L|124:216,1,70,2|0,3:2|0:0,0:0:0:0:
208,204,5113,2,0,L|204:134,1,70,10|0,0:0|0:0,0:0:0:0:
172,56,5582,1,2,3:2:0:0:
20,128,6051,1,8,0:0:0:0:
56,292,6520,6,0,P|124:304|216:276,1,140,0|10,3:0|0:0,0:0:0:0:
220,124,7457,2,0,P|192:108|144:96,2,70,8|2|0,0:3|3:2|0:0,0:0:0:0:
332,248,8395,6,0,P|324:216|332:156,1,70,6|0,0:0|0:0,0:0:0:0:
384,120,8863,2,0,P|385:85|377:51,1,70,10|0,0:0|0:0,0:0:0:0:
300,16,9332,1,2,3:2:0:0:
136,56,9801,1,8,0:0:0:0:
12,168,10270,6,0,L|32:268,1,70,2|0,3:2|0:0,0:0:0:0:
108,260,10738,2,0,L|128:360,1,70,10|0,0:0|0:0,0:0:0:0:
200,356,11207,1,2,3:2:0:0:
256,196,11676,1,8,0:0:0:0:
312,356,12145,6,0,P|344:324|360:284,1,70,2|0,3:2|0:0,0:0:0:0:
430,339,12613,2,0,P|434:275|421:245,1,70,10|0,0:0|0:0,0:0:0:0:
366,219,13082,1,2,3:2:0:0:
256,92,13551,1,8,0:0:0:0:
144,220,14020,6,0,P|80:232|-4:200,1,140,0|0,3:0|0:0,0:0:0:0:
92,64,14957,2,0,P|124:60|184:72,1,70,8|8,0:3|0:3,0:0:0:0:
228,116,15426,2,0,P|260:120|320:108,1,70,2|2,0:0|0:0,0:0:0:0:
380,100,15895,6,0,L|388:200,1,70,6|0,0:0|0:0,0:0:0:0:
469,176,16363,2,0,L|463:106,1,70,10|0,0:0|0:0,0:0:0:0:
427,30,16832,1,2,3:2:0:0:
267,81,17301,1,8,0:0:0:0:
284,248,17770,6,0,P|328:268|368:268,1,70,2|0,3:2|0:0,0:0:0:0:
404,204,18238,2,0,P|373:187|338:182,1,70,10|0,0:0|0:0,0:0:0:0:
256,167,18707,1,2,3:2:0:0:
116,260,19176,1,8,0:0:0:0:
256,352,19645,6,0,L|360:320,1,70,2|0,3:2|0:0,0:0:0:0:
296,252,20113,2,0,L|220:276,1,70,10|0,0:0|0:0,0:0:0:0:
174,336,20582,1,2,3:2:0:0:
38,236,21051,1,8,0:0:0:0:
60,68,21520,6,0,P|128:52|212:80,1,140,0|10,3:0|0:0,0:0:0:0:
256,228,22457,2,0,L|256:312,2,70,2|8|8,0:0|0:3|0:3,0:0:0:0:
336,80,23395,6,0,P|368:108|384:144,1,70,6|0,0:0|0:0,0:0:0:0:
456,96,23863,2,0,P|464:152|456:176,1,70,10|0,0:0|0:0,0:0:0:0:
395,216,24332,1,2,3:2:0:0:
256,308,24801,1,8,0:0:0:0:
92,267,25270,6,0,L|72:167,1,70,2|0,3:2|0:0,0:0:0:0:
149,154,25738,2,0,L|129:54,1,70,10|0,0:0|0:0,0:0:0:0:
198,29,26207,1,2,3:2:0:0:
361,69,26676,1,8,0:0:0:0:
474,192,27145,6,0,P|442:232|411:252,1,70,2|0,3:2|0:0,0:0:0:0:
344,258,27613,2,0,P|317:280|300:310,1,70,10|0,0:0|0:0,0:0:0:0:
212,311,28082,2,0,P|195:281|169:259,1,70,2|0,3:2|0:0,0:0:0:0:
87,247,28551,2,0,P|61:223|41:195,1,70,10|0,0:0|0:0,0:0:0:0:
73,115,29020,6,0,P|40:109|-9:125,2,70,0|0|2,3:0|3:0|0:0,0:0:0:0:
192,232,29957,2,0,B|256:256|256:256|348:222,1,140,2|10,3:2|0:0,0:0:0:0:
432,103,30895,6,0,L|408:191,1,70,6|0,0:0|0:0,0:0:0:0:
333,148,31363,2,0,L|351:80,1,70,10|2,0:0|0:0,0:0:0:0:
410,20,31832,1,2,3:2:0:0:
501,160,32301,1,8,0:0:0:0:
355,243,32770,6,0,P|316:250|265:229,1,70,2|0,3:2|0:0,0:0:0:0:
322,165,33238,2,0,P|356:159|390:166,1,70,10|2,0:0|0:0,0:0:0:0:
439,234,33707,1,2,3:2:0:0:
312,343,34176,1,8,0:0:0:0:
160,269,34645,6,0,L|160:181,1,70,2|0,3:2|0:0,0:0:0:0:
242,183,35113,2,0,L|242:253,1,70,10|2,0:0|0:0,0:0:0:0:
214,332,35582,1,2,3:2:0:0:
62,258,36051,1,8,0:0:0:0:
108,96,36520,6,0,P|148:96|196:136,1,70,0|2,3:0|0:0,0:0:0:0:
128,180,36988,2,0,P|88:180|40:140,1,70,8|0,0:0|0:0,0:0:0:0:
20,96,37457,2,0,P|48:32|120:8,1,140,0|8,3:0|0:3,0:0:0:0:
272,60,38395,6,0,P|276:92|272:140,1,70,4|0,0:0|0:0,0:0:0:0:
204,180,38863,2,0,P|199:214|202:249,1,70,8|0,0:0|0:0,0:0:0:0:
264,308,39332,1,0,3:0:0:0:
412,228,39801,1,8,0:0:0:0:
356,68,40270,6,0,L|272:44,1,70,0|0,3:0|0:0,0:0:0:0:
220,100,40738,2,0,L|136:76,1,70,8|0,0:0|0:0,0:0:0:0:
80,124,41207,1,0,3:0:0:0:
36,288,41676,1,8,0:0:0:0:
197,335,42145,6,0,P|209:299|217:239,1,70,8|8,3:0|3:0,0:0:0:0:
297,267,42613,2,0,P|303:301|314:334,1,70,8|0,0:0|0:0,0:0:0:0:
396,352,43082,1,8,3:0:0:0:
496,216,43551,1,8,0:0:0:0:
256,192,44020,12,2,45738,0:0:0:0:
