osu file format v14

[General]
AudioFilename: audio.mp3
AudioLeadIn: 0
PreviewTime: 895
Countdown: 0
SampleSet: Soft
StackLeniency: 0.4
Mode: 0
LetterboxInBreaks: 0
WidescreenStoryboard: 0

[Editor]
DistanceSpacing: 2.3
BeatDivisor: 4
GridSize: 4
TimelineZoom: 1

[Metadata]
Title:Daijobanai
TitleUnicode:だいじょばない
Artist:Perfume
ArtistUnicode:Perfume
Creator:Cosmolade
Version:Hard
Source:
Tags:level3 short meme sleepykinq Darlinqq shai
BeatmapID:1411320
BeatmapSetID:666920

[Difficulty]
HPDrainRate:6
CircleSize:4
OverallDifficulty:6
ApproachRate:6
SliderMultiplier:1.6
SliderTickRate:1

[Events]
//Background and Video events
0,0,"shai.jpg",0,0
Video,120,"DAIJOBANAI - MEME.avi"
//Break Periods
//Storyboard Layer 0 (Background)
//Storyboard Layer 1 (Fail)
//Storyboard Layer 2 (Pass)
//Storyboard Layer 3 (Foreground)
//Storyboard Sound Samples

[TimingPoints]
895,468.75,4,2,1,60,1,0

[Colours]
Combo1 : 194,135,135
Combo2 : 255,168,168
Combo3 : 142,142,255
Combo4 : 243,187,255

[HitObjects]
112,136,426,6,0,P|153:137|108:152,1,120
76,164,895,6,0,P|68:200|80:252,1,80,6|0,0:0|0:0,0:0:0:0:
124,344,1363,2,0,P|152:308|160:268,1,80,10|0,0:0|0:0,0:0:0:0:
192,228,1715,1,2,0:0:0:0:
192,228,1832,2,0,L|288:228,1,80,2|0,3:2|0:0,0:0:0:0:
380,276,2301,1,8,0:0:0:0:
468,208,2535,1,2,0:0:0:0:
468,208,2652,1,2,0:0:0:0:
468,208,2770,6,0,P|476:152|464:112,1,80,2|0,3:2|0:0,0:0:0:0:
368,88,3238,2,0,P|362:127|371:166,1,80,10|0,0:0|0:0,0:0:0:0:
384,220,3590,1,2,0:0:0:0:
384,220,3707,2,0,L|280:236,1,80,2|0,3:2|0:0,0:0:0:0:
192,244,4176,1,8,0:0:0:0:
156,140,4410,1,2,0:0:0:0:
156,140,4527,1,2,0:0:0:0:
156,140,4645,6,0,P|208:132|240:144,1,80,2|0,3:2|0:0,0:0:0:0:
192,244,5113,2,0,P|153:253|114:243,1,80,10|0,0:0|0:0,0:0:0:0:
68,212,5465,1,2,0:0:0:0:
68,212,5582,2,0,L|64:100,1,80,2|0,3:2|0:0,0:0:0:0:
158,60,6051,2,0,L|155:139,1,80,8|2,0:0|0:0,0:0:0:0:
256,188,6520,5,0,3:0:0:0:
356,139,6754,2,0,L|354:60,1,80,2|10,0:0|0:0,0:0:0:0:
380,12,7105,1,0,0:0:0:0:
380,12,7223,2,0,L|440:12,2,40,2|2|8,0:0|0:0|0:3,0:0:0:0:
280,60,7691,2,0,L|220:60,2,40,2|8|0,3:2|0:3|0:0,0:0:0:0:
356,139,8160,1,8,0:3:0:0:
316,244,8395,6,0,P|272:220|248:168,1,80,6|0,0:0|0:0,0:0:0:0:
356,139,8863,2,0,P|391:155|416:186,1,80,10|0,0:0|0:0,0:0:0:0:
420,244,9215,1,2,0:0:0:0:
420,244,9332,2,0,L|344:328,1,80,2|0,3:2|0:0,0:0:0:0:
256,328,9801,1,8,0:0:0:0:
145,303,10035,1,2,0:0:0:0:
145,303,10152,1,2,0:0:0:0:
145,303,10270,6,0,L|92:244,1,80,2|0,3:2|0:0,0:0:0:0:
160,152,10738,2,0,L|213:211,1,80,10|0,0:0|0:0,0:0:0:0:
256,248,11090,1,2,0:0:0:0:
256,248,11207,2,0,P|304:220|324:180,1,80,2|0,3:2|0:0,0:0:0:0:
320,92,11676,1,8,0:0:0:0:
216,56,11910,1,2,0:0:0:0:
216,56,12027,1,2,0:0:0:0:
216,56,12145,6,0,L|112:56,1,80,2|0,3:2|0:0,0:0:0:0:
80,152,12613,2,0,L|160:152,1,80,10|0,0:0|0:0,0:0:0:0:
204,188,12965,1,2,0:0:0:0:
204,188,13082,2,0,P|208:232|188:276,1,80,2|0,3:2|0:0,0:0:0:0:
256,360,13551,1,8,0:0:0:0:
316,265,13785,1,2,0:0:0:0:
316,265,13902,1,2,0:0:0:0:
316,265,14020,6,0,P|303:227|308:188,1,80,0|8,3:0|0:3,0:0:0:0:
396,120,14488,1,0,0:0:0:0:
494,65,14723,2,0,P|504:82|509:101,2,40,8|8|8,0:3|0:3|0:3,0:0:0:0:
396,120,15191,1,8,0:3:0:0:
323,39,15426,2,0,P|307:51|296:68,3,40,2|2|2|2,0:0|0:0|0:0|0:0,0:0:0:0:
256,107,15895,6,0,P|212:111|152:95,1,80,6|0,0:0|0:0,0:0:0:0:
105,190,16363,2,0,P|144:185|190:193,1,80,10|0,0:0|0:0,0:0:0:0:
212,239,16715,1,2,0:0:0:0:
212,239,16832,2,0,L|212:327,1,80,2|0,3:2|0:0,0:0:0:0:
310,372,17301,1,8,0:0:0:0:
420,336,17535,1,2,0:0:0:0:
420,336,17652,1,2,0:0:0:0:
420,336,17770,6,0,P|424:288|416:252,1,80,2|0,3:2|0:0,0:0:0:0:
384,152,18238,2,0,P|340:204|332:240,1,80,10|0,0:0|0:0,0:0:0:0:
312,264,18590,1,2,0:0:0:0:
312,264,18707,2,0,L|216:260,1,80,2|0,3:2|0:0,0:0:0:0:
132,212,19176,1,8,0:0:0:0:
132,100,19410,1,2,0:0:0:0:
132,100,19527,1,2,0:0:0:0:
132,100,19645,6,0,P|184:116|208:148,1,80,2|0,3:2|0:0,0:0:0:0:
312,136,20113,2,0,P|341:109|380:102,1,80,10|0,0:0|0:0,0:0:0:0:
436,112,20465,1,2,0:0:0:0:
436,112,20582,2,0,L|440:212,1,80,2|0,3:2|0:0,0:0:0:0:
348,260,21051,1,8,0:0:0:0:
256,324,21285,1,2,0:0:0:0:
256,324,21402,1,2,0:0:0:0:
256,324,21520,6,0,P|216:332|156:316,1,80,0|0,3:0|0:0,0:0:0:0:
132,224,21988,2,0,P|170:216|210:222,1,80,10|2,0:0|0:0,0:0:0:0:
256,192,22340,1,2,0:0:0:0:
256,192,22457,2,0,P|260:148|252:88,1,80,2|8,0:0|0:3,0:0:0:0:
168,44,22926,2,0,L|112:60,2,40,8|8|0,0:3|0:3|0:0,0:0:0:0:
220,20,23277,1,0,0:0:0:0:
220,20,23395,6,0,L|320:32,1,80,6|0,0:0|0:0,0:0:0:0:
376,112,23863,2,0,L|276:124,1,80,10|0,0:0|0:0,0:0:0:0:
256,164,24215,1,2,0:0:0:0:
256,164,24332,2,0,P|256:216|280:256,1,80,2|0,3:2|0:0,0:0:0:0:
364,296,24801,1,8,0:0:0:0:
460,240,25035,1,2,0:0:0:0:
460,240,25152,1,2,0:0:0:0:
460,240,25270,6,0,L|488:136,1,80,2|0,3:2|0:0,0:0:0:0:
392,66,25738,2,0,L|372:144,1,80,10|0,0:0|0:0,0:0:0:0:
324,172,26090,1,2,0:0:0:0:
324,172,26207,2,0,P|268:144|248:108,1,80,2|0,3:2|0:0,0:0:0:0:
204,32,26676,1,8,0:0:0:0:
100,76,26910,1,2,0:0:0:0:
100,76,27027,1,2,0:0:0:0:
100,76,27145,6,0,L|84:176,1,80,2|0,3:2|0:0,0:0:0:0:
176,224,27613,2,0,L|188:145,1,80,10|0,0:0|0:0,0:0:0:0:
228,104,27965,1,2,0:0:0:0:
228,104,28082,2,0,P|272:96|320:112,1,80,2|0,3:2|0:0,0:0:0:0:
372,192,28551,2,0,P|333:200|294:191,1,80,10|0,0:0|0:0,0:0:0:0:
252,232,28902,1,2,0:0:0:0:
252,232,29020,6,0,L|252:296,3,40,0|0|0|0,3:0|0:0|3:0|0:0,0:0:0:0:
208,240,29488,2,0,B|176:256|176:256|136:228|136:228|120:268,1,120,2|2,0:0|0:0,0:0:0:0:
76,292,29957,6,0,P|40:244|32:208,1,80,2|0,3:2|0:0,0:0:0:0:
64,116,30426,1,10,0:0:0:0:
160,56,30660,1,2,0:0:0:0:
160,56,30777,1,2,0:0:0:0:
160,56,30895,6,0,P|172:80|176:136,1,80,6|0,0:0|0:0,0:0:0:0:
92,204,31363,2,0,P|64:188|48:184,2,40,10|2|2,0:0|0:0|0:0,0:0:0:0:
136,240,31715,1,0,0:0:0:0:
136,240,31832,2,0,P|144:272|180:324,1,80,2|0,3:2|0:0,0:0:0:0:
256,244,32301,1,8,0:0:0:0:
343,311,32535,1,2,0:0:0:0:
343,311,32652,1,2,0:0:0:0:
343,311,32770,6,0,P|365:278|376:240,1,80,2|0,3:2|0:0,0:0:0:0:
448,156,33238,2,0,P|464:169|492:184,2,40,10|2|2,0:0|0:0|0:0,0:0:0:0:
416,112,33590,1,0,0:0:0:0:
416,112,33707,2,0,P|368:104|316:124,1,80,2|0,3:2|0:0,0:0:0:0:
256,188,34176,1,8,0:0:0:0:
173,111,34410,1,2,0:0:0:0:
173,111,34527,1,2,0:0:0:0:
173,111,34645,6,0,P|134:103|96:112,1,80,2|0,3:2|0:0,0:0:0:0:
24,200,35113,2,0,P|8:192|-16:172,2,40,10|2|2,0:0|0:0|0:0,0:0:0:0:
80,200,35465,1,0,0:0:0:0:
80,200,35582,2,0,P|96:228|96:288,1,80,2|0,3:2|0:0,0:0:0:0:
44,372,36051,1,8,0:0:0:0:
156,372,36285,1,2,0:0:0:0:
156,372,36402,1,2,0:0:0:0:
156,372,36520,6,0,P|192:360|236:320,1,80,0|2,3:0|0:0,0:0:0:0:
244,224,36988,2,0,L|200:224,2,40,8|0|0,0:0|0:0|0:0,0:0:0:0:
284,184,37340,1,0,0:0:0:0:
284,184,37457,2,0,P|324:176|376:188,1,80,0|0,3:0|0:0,0:0:0:0:
464,228,37926,1,8,0:3:0:0:
476,116,38160,1,0,0:0:0:0:
476,116,38277,1,0,0:0:0:0:
476,116,38395,6,0,L|448:36,1,80,4|0,0:0|0:0,0:0:0:0:
340,68,38863,2,0,L|376:100,2,40,8|0|0,0:0|0:0|0:0,0:0:0:0:
292,40,39215,1,0,0:0:0:0:
292,40,39332,2,0,P|240:48|200:80,1,80,0|0,3:0|0:0,0:0:0:0:
180,168,39801,2,0,L|212:204,2,40,8|0|0,0:0|0:0|0:0,0:0:0:0:
128,148,40152,1,0,0:0:0:0:
128,148,40270,6,0,P|124:196|148:252,1,80,0|0,3:0|0:0,0:0:0:0:
184,328,40738,2,0,P|160:336|132:336,2,40,8|0|0,0:0|0:0|0:0,0:0:0:0:
232,296,41090,1,0,0:0:0:0:
232,296,41207,2,0,P|272:300|328:328,1,80,0|0,3:0|0:0,0:0:0:0:
408,368,41676,1,8,0:0:0:0:
488,288,41910,1,0,0:0:0:0:
488,288,42027,1,0,0:0:0:0:
488,288,42145,6,0,L|492:184,1,80,8|8,3:0|3:0,0:0:0:0:
436,112,42613,2,0,L|476:96,2,40,8|0|0,0:0|0:0|0:0,0:0:0:0:
380,124,42965,1,0,0:0:0:0:
380,124,43082,2,0,P|336:104|300:60,1,80,8|8,3:0|3:0,0:0:0:0:
220,20,43551,1,8,0:0:0:0:
116,60,43785,1,0,0:0:0:0:
116,60,43902,1,0,0:0:0:0:
116,60,44020,6,0,L|120:160,1,80,4|0,0:0|0:0,0:0:0:0:
228,168,44488,2,0,L|208:128,3,40
301,146,44957,6,0,L|319:213,2,53.3333333333333,2|2|2,0:0|0:0|0:0,0:0:0:0:
365,65,45426,2,0,L|333:16,2,53.3333333333333,2|2|2,0:0|0:0|0:0,0:0:0:0:
