osu file format v14

[General]
AudioFilename: audio.mp3
AudioLeadIn: 0
PreviewTime: 895
Countdown: 0
SampleSet: Soft
StackLeniency: 0.4
Mode: 0
LetterboxInBreaks: 0
WidescreenStoryboard: 1

[Editor]
Bookmarks: 35108
DistanceSpacing: 1.2
BeatDivisor: 6
GridSize: 4
TimelineZoom: 1

[Metadata]
Title:Daijobanai
TitleUnicode:だいじょばない
Artist:Perfume
ArtistUnicode:Perfume
Creator:Cosmolade
Version:Advanced
Source:
Tags:level3 short meme sleepykinq Darlinqq shai
BeatmapID:1413724
BeatmapSetID:666920

[Difficulty]
HPDrainRate:5
CircleSize:3.5
OverallDifficulty:5
ApproachRate:5.5
SliderMultiplier:1.4
SliderTickRate:1

[Events]
//Background and Video events
0,0,"shai.jpg",0,0
Video,120,"DAIJOBANAI - MEME.avi"
//Break Periods
//Storyboard Layer 0 (Background)
//Storyboard Layer 1 (Fail)
//Storyboard Layer 2 (Pass)
//Storyboard Layer 3 (Foreground)
//Storyboard Sound Samples

[TimingPoints]
895,468.75,4,2,1,60,1,0

[Colours]
Combo1 : 194,135,135
Combo2 : 255,168,168
Combo3 : 142,142,255
Combo4 : 243,187,255

[HitObjects]
128,60,426,6,0,B|177:39|177:39|223:63,1,105,0|0,0:0|0:0,0:0:0:0:
256,92,895,6,0,P|259:134|256:176,1,70,6|0,0:0|0:0,0:0:0:0:
180,192,1363,2,0,P|176:226|177:261,1,70,10|0,0:0|0:0,0:0:0:0:
240,320,1832,2,0,L|328:312,2,70,2|0|8,3:2|0:0|0:0,0:0:0:0:
160,340,2535,1,2,0:0:0:0:
60,292,2770,6,0,L|56:192,1,70,2|0,3:2|0:0,0:0:0:0:
136,200,3238,2,0,L|132:100,1,70,10|0,0:0|0:0,0:0:0:0:
180,60,3707,2,0,P|141:45|88:60,2,70,2|0|8,3:2|0:0|0:0,0:0:0:0:
220,132,4410,1,2,0:0:0:0:
327,102,4645,6,0,L|407:90,1,70,2|0,3:2|0:0,0:0:0:0:
431,167,5113,2,0,L|512:154,1,70,10|0,0:0|0:0,0:0:0:0:
502,240,5582,2,0,P|510:280|495:331,2,70,2|0|8,3:2|0:0|0:0,0:0:0:0:
426,277,6285,1,2,0:0:0:0:
337,210,6520,6,0,P|298:196|252:196,1,70,0|2,3:0|0:0,0:0:0:0:
205,248,6988,2,0,P|170:245|137:232,1,70,10|2,0:0|0:0,0:0:0:0:
69,182,7457,1,8,0:3:0:0:
60,98,7691,1,2,3:2:0:0:
60,98,7809,2,0,L|25:100,2,35,8|0|0,0:3|0:0|0:0,0:0:0:0:
94,74,8160,1,8,0:3:0:0:
201,43,8395,6,0,L|296:50,1,70,6|0,0:0|0:0,0:0:0:0:
317,117,8863,2,0,L|412:124,1,70,10|0,0:0|0:0,0:0:0:0:
428,195,9332,2,0,P|460:165|467:120,2,70,2|0|8,3:2|0:0|0:0,0:0:0:0:
344,207,10035,1,2,0:0:0:0:
239,172,10270,6,0,P|234:203|244:253,1,70,2|0,3:2|0:0,0:0:0:0:
310,286,10738,2,0,P|314:320|309:355,1,70,10|0,0:0|0:0,0:0:0:0:
225,357,11207,2,0,L|148:346,2,70,2|0|8,3:2|0:0|0:0,0:0:0:0:
309,355,11910,1,2,0:0:0:0:
412,313,12145,6,0,L|430:243,1,70,2|0,3:2|0:0,0:0:0:0:
361,195,12613,2,0,L|379:125,1,70,10|0,0:0|0:0,0:0:0:0:
429,60,13082,2,0,P|457:94|462:125,2,70,2|0|8,3:2|0:0|0:0,0:0:0:0:
345,47,13785,1,2,0:0:0:0:
240,82,14020,6,0,L|251:171,1,70,0|8,3:0|0:3,0:0:0:0:
158,207,14488,2,0,L|163:136,1,70,0|8,0:0|0:3,0:0:0:0:
153,96,14840,1,8,0:3:0:0:
153,96,14957,2,0,P|112:89|73:98,1,70,8|8,0:3|0:3,0:0:0:0:
29,157,15426,2,0,L|-10:120,2,35,2|2|2,0:0|0:0|0:0,0:0:0:0:
86,253,15895,6,0,P|85:295|100:338,1,70,6|0,0:0|0:0,0:0:0:0:
171,371,16363,2,0,P|179:337|177:302,1,70,10|0,0:0|0:0,0:0:0:0:
160,219,16832,2,0,L|239:210,2,70,2|0|8,3:2|0:0|0:0,0:0:0:0:
93,167,17535,1,2,0:0:0:0:
124,60,17770,6,0,P|163:54|215:63,1,70,2|0,3:2|0:0,0:0:0:0:
253,114,18238,2,0,P|287:116|322:110,1,70,10|0,0:0|0:0,0:0:0:0:
395,68,18707,2,0,L|414:148,2,70,2|0|8,3:2|0:0|0:0,0:0:0:0:
321,27,19410,1,2,0:0:0:0:
253,114,19645,6,0,L|253:199,1,70,2|0,3:2|0:0,0:0:0:0:
169,189,20113,2,0,L|169:274,1,70,10|0,0:0|0:0,0:0:0:0:
140,338,20582,2,0,P|107:319|86:270,2,70,2|0|8,3:2|0:0|0:0,0:0:0:0:
223,326,21285,1,2,0:0:0:0:
319,270,21520,6,0,P|328:225|326:190,1,70,0|0,3:0|0:0,0:0:0:0:
256,157,21988,2,0,P|256:122|264:88,1,70,10|2,0:0|0:0,0:0:0:0:
314,20,22457,1,2,0:0:0:0:
381,69,22691,1,8,0:3:0:0:
381,69,22809,2,0,L|444:68,2,35,0|8|8,0:0|0:3|0:3,0:0:0:0:
348,95,23160,1,0,0:0:0:0:
256,157,23395,6,0,P|220:162|159:147,1,70,6|0,0:0|0:0,0:0:0:0:
126,216,23863,2,0,P|91:211|56:216,1,70,10|0,0:0|0:0,0:0:0:0:
15,289,24332,2,0,L|11:363,2,70,2|0|8,3:2|0:0|0:0,0:0:0:0:
56,216,25035,1,2,0:0:0:0:
145,150,25270,6,0,L|224:137,1,70,2|0,3:2|0:0,0:0:0:0:
297,137,25738,2,0,L|366:148,1,70,10|0,0:0|0:0,0:0:0:0:
448,163,26207,2,0,P|445:120|422:85,2,70,2|0|8,3:2|0:0|0:0,0:0:0:0:
396,229,26910,1,2,0:0:0:0:
301,286,27145,6,0,L|218:283,1,70,2|0,3:2|0:0,0:0:0:0:
149,304,27613,1,10,0:0:0:0:
89,243,27848,1,0,0:0:0:0:
144,147,28082,2,0,L|213:149,1,70,2|0,3:2|0:0,0:0:0:0:
296,129,28550,1,10,0:0:0:0:
356,190,28785,1,0,0:0:0:0:
408,255,29020,6,0,L|408:339,2,70,0|0|2,3:0|3:0|0:0,0:0:0:0:
296,129,29957,2,0,P|265:122|215:134,2,70,2|0|10,3:2|0:0|0:0,0:0:0:0:
262,206,30660,1,2,0:0:0:0:
160,250,30895,6,0,L|135:162,1,70,6|0,0:0|0:0,0:0:0:0:
62,160,31363,2,0,L|52:201,2,35,10|2|2,0:0|0:0|0:0,0:0:0:0:
87,79,31832,2,0,P|121:72|186:73,1,70,2|0,3:2|0:0,0:0:0:0:
238,89,32301,1,8,0:0:0:0:
375,185,32770,6,0,L|382:273,1,70,2|0,3:2|0:0,0:0:0:0:
316,309,33238,2,0,L|291:267,2,35,10|2|2,0:0|0:0|0:0,0:0:0:0:
395,336,33707,2,0,P|440:315|464:270,1,70,2|0,3:2|0:0,0:0:0:0:
463,216,34176,1,8,0:0:0:0:
341,99,34645,6,0,L|247:92,1,70,2|0,3:2|0:0,0:0:0:0:
221,26,35113,2,0,L|272:4,2,35,10|2|2,0:0|0:0|0:0,0:0:0:0:
145,62,35582,2,0,P|141:104|150:142,1,70,2|0,3:2|0:0,0:0:0:0:
194,200,36051,1,8,0:0:0:0:
361,217,36520,6,0,L|371:136,1,70,0|2,3:0|0:0,0:0:0:0:
433,93,36988,2,0,L|462:147,2,35,8|0|0,0:0|0:0|0:0,0:0:0:0:
360,50,37457,1,0,3:0:0:0:
284,87,37691,1,0,0:0:0:0:
210,126,37926,2,0,P|175:130|112:120,1,70,8|0,0:3|0:0,0:0:0:0:
33,99,38395,6,0,L|44:191,1,70,4|0,0:0|0:0,0:0:0:0:
109,217,38863,2,0,L|120:309,1,70,8|0,0:0|0:0,0:0:0:0:
142,320,39215,1,0,0:0:0:0:
142,320,39332,2,0,P|182:326|238:308,1,70,0|0,3:0|0:0,0:0:0:0:
295,320,39801,2,0,P|329:325|363:319,1,70,8|0,0:0|0:0,0:0:0:0:
459,263,40270,6,0,L|468:184,1,70,0|0,3:0|0:0,0:0:0:0:
387,166,40738,2,0,L|396:87,1,70,8|0,0:0|0:0,0:0:0:0:
366,65,41090,1,0,0:0:0:0:
366,65,41207,2,0,P|314:74|276:95,1,70,0|0,3:0|0:0,0:0:0:0:
214,80,41676,2,0,P|181:68|146:64,1,70,8|0,0:0|0:0,0:0:0:0:
46,111,42145,6,0,L|36:206,1,70,8|8,3:0|3:0,0:0:0:0:
97,239,42613,2,0,L|158:242,2,35,8|0|0,0:0|0:0|0:0,0:0:0:0:
32,292,43082,2,0,P|69:318|120:318,1,70,8|8,3:0|3:0,0:0:0:0:
176,315,43551,2,0,P|211:273|212:232,1,70,8|0,0:0|0:0,0:0:0:0:
307,193,44020,6,0,L|331:280,1,70,4|0,0:0|0:0,0:0:0:0:
396,305,44488,2,0,L|421:257,2,35,0|0|0,0:0|0:0|0:0,0:0:0:0:
320,342,44957,6,0,L|259:333,5,46.6666666666667,2|2|2|2|2|2,0:0|0:0|0:0|0:0|0:0|0:0,0:0:0:0:
