osu file format v14

[General]
AudioFilename: audio.mp3
AudioLeadIn: 0
PreviewTime: 99519
Countdown: 0
SampleSet: Soft
StackLeniency: 0.7
Mode: 0
LetterboxInBreaks: 0
WidescreenStoryboard: 0

[Editor]
Bookmarks: 745,10742,28522,42744,56967,71189,85411,99633,113856,128078,142300,156522,170744,184967,199189,213411,227633,241856,261411
DistanceSpacing: 1
BeatDivisor: 4
GridSize: 32
TimelineZoom: 2.599999

[Metadata]
Title:Cling Cling
TitleUnicode:Cling Cling
Artist:Perfume
ArtistUnicode:Perfume
Creator:eiri-
Version:Yearning
Source:
Tags:Ayyri Lafayla COSMIC EXPLORER jpop
BeatmapID:1848062
BeatmapSetID:884100

[Difficulty]
HPDrainRate:5
CircleSize:4
OverallDifficulty:7.5
ApproachRate:8
SliderMultiplier:1.8
SliderTickRate:1

[Events]
//Background and Video events
0,0,"Cling Cling.jpg",0,0
//Break Periods
//Storyboard Layer 0 (Background)
//Storyboard Layer 1 (Fail)
//Storyboard Layer 2 (Pass)
//Storyboard Layer 3 (Foreground)
//Storyboard Sound Samples

[TimingPoints]
10742,444.444444444444,4,2,1,25,1,0
10742,-100,4,2,1,65,0,0
14297,-111.111111111111,4,2,1,75,0,0
28519,-111.111111111111,4,2,1,85,0,0
42741,-100,4,2,1,80,0,0
49408,-400,4,2,1,65,0,0
49853,-66.6666666666667,4,2,1,80,0,0
50741,-100,4,2,1,80,0,0
56964,-100,4,2,1,85,0,0
71186,-111.111111111111,4,2,1,70,0,0
85408,-111.111111111111,4,2,1,75,0,0
99630,-80,4,2,1,90,0,1
113630,-80,4,2,1,90,0,0
113853,-80,4,2,1,90,0,1
128075,-100,4,2,1,80,0,0
134741,-400,4,2,1,65,0,0
135186,-66.6666666666667,4,2,1,70,0,0
135630,-100,4,2,1,70,0,0
142297,-100,4,2,1,75,0,0
156519,-111.111111111111,4,2,1,65,0,0
170741,-111.111111111111,4,2,1,75,0,0
184964,-80,4,2,1,90,0,1
198964,-80,4,2,1,90,0,0
199186,-80,4,2,1,90,0,1
213408,-100,4,2,1,85,0,0
220519,-111.111111111111,4,2,1,80,0,0
227630,-80,4,2,1,90,0,1
241630,-80,4,2,1,90,0,0
241853,-80,4,2,1,90,0,1
256075,-111.111111111111,4,2,1,80,0,0
261408,-133.333333333333,4,2,1,65,0,0
261853,-133.333333333333,4,2,1,5,0,0

[Colours]
Combo1 : 245,236,180
Combo2 : 172,223,253
Combo3 : 217,243,182
Combo4 : 255,170,170

[HitObjects]
256,192,742,12,0,10297,0:0:0:0:
430,304,10742,5,4,0:3:0:0:
430,304,11630,1,4,0:3:0:0:
429,273,12519,1,4,0:3:0:0:
437,260,12964,1,4,0:3:0:0:
429,247,13408,1,4,0:3:0:0:
472,174,13741,1,4,0:3:0:0:
472,174,13853,2,0,L|412:166,1,45,4|0,1:2|0:0,0:0:0:0:
312,155,14075,1,8,0:0:0:0:
312,155,14297,6,0,L|298:51,1,80.9999975280763,6|0,0:0|0:0,0:0:0:0:
203,203,14741,2,0,L|217:99,1,80.9999975280763,2|8,0:0|0:0,0:0:0:0:
233,12,15186,1,0,1:0:0:0:
100,38,15408,1,0,0:0:0:0:
100,38,15630,2,0,P|119:86|120:133,1,80.9999975280763,2|8,0:0|0:0,0:0:0:0:
80,215,16075,2,0,L|-2:204,1,80.9999975280763,2|8,0:0|0:0,0:0:0:0:
77,316,16519,5,2,0:0:0:0:
178,283,16741,1,2,0:0:0:0:
178,283,16853,1,0,0:0:0:0:
178,283,16964,1,0,1:0:0:0:
160,175,17186,2,0,L|99:169,2,40.4999987640381,2|2|2,0:0|0:0|0:0,0:0:0:0:
300,186,17630,1,2,0:0:0:0:
283,77,17853,5,2,0:0:0:0:
415,16,18075,2,0,L|415:115,1,80.9999975280763,0|0,0:0|0:0,0:0:0:0:
419,209,18519,1,2,0:0:0:0:
419,209,18741,2,0,P|467:208|508:226,2,80.9999975280763,0|0|0,1:0|0:0|0:0,0:0:0:0:
312,268,19408,1,10,0:0:0:0:
312,268,19630,6,0,B|271:253|271:253|210:252,1,80.9999975280763,2|8,0:0|0:0,0:0:0:0:
187,253,19964,1,8,0:0:0:0:
187,253,20075,2,0,B|194:210|194:210|185:150,1,80.9999975280763,2|0,0:0|0:0,0:0:0:0:
158,72,20519,1,0,1:0:0:0:
62,9,20741,1,0,0:0:0:0:
17,117,20964,2,0,L|-30:107,2,40.4999987640381,2|2|10,0:0|0:0|0:0,0:0:0:0:
112,46,21408,6,0,L|199:39,1,80.9999975280763,6|0,0:0|0:0,0:0:0:0:
89,145,21853,2,0,L|176:152,1,80.9999975280763,2|8,0:0|0:0,0:0:0:0:
293,164,22297,1,0,1:0:0:0:
388,85,22519,1,0,0:0:0:0:
476,209,22741,2,0,P|422:233|401:253,1,80.9999975280763,2|8,0:0|0:0,0:0:0:0:
340,325,23186,1,2,0:0:0:0:
285,208,23408,1,8,0:0:0:0:
247,301,23630,5,2,0:0:0:0:
361,186,23853,2,0,L|363:129,2,40.4999987640381,2|2|2,0:0|0:0|1:2,0:0:0:0:
360,352,24297,1,2,0:0:0:0:
360,352,24519,1,0,0:0:0:0:
455,380,24741,1,2,0:0:0:0:
509,263,24964,6,0,L|475:178,1,80.9999975280763,2|0,0:0|0:0,0:0:0:0:
501,9,25408,2,0,L|476:86,1,80.9999975280763,0|2,0:0|0:0,0:0:0:0:
310,159,25853,2,0,L|389:142,1,80.9999975280763,2|0,1:2|0:0,0:0:0:0:
488,47,26297,1,2,0:0:0:0:
389,8,26519,1,10,0:0:0:0:
276,82,26741,5,2,0:0:0:0:
173,42,26964,2,0,L|164:-2,2,40.4999987640381,10|10|2,0:0|0:0|0:0,0:0:0:0:
151,153,27408,1,0,0:0:0:0:
186,279,27630,1,0,1:0:0:0:
186,279,27853,1,0,0:0:0:0:
85,365,28075,2,0,L|37:358,2,40.4999987640381,2|2|10,0:0|0:0|0:0,0:0:0:0:
232,383,28519,6,0,P|272:380|310:368,1,80.9999975280763,6|0,1:2|0:0,0:0:0:0:
459,305,28964,2,0,P|418:302|380:290,1,80.9999975280763,2|0,1:2|0:0,0:0:0:0:
257,227,29408,1,2,1:2:0:0:
395,182,29630,1,0,0:0:0:0:
296,57,29853,2,0,L|303:142,1,80.9999975280763,2|0,1:2|0:0,0:0:0:0:
187,14,30297,6,0,L|179:99,1,80.9999975280763,2|0,1:2|0:0,0:0:0:0:
97,196,30741,1,2,1:2:0:0:
167,285,30964,1,2,0:0:0:0:
294,179,31186,2,0,P|253:176|216:191,1,80.9999975280763,2|2,1:2|0:0,0:0:0:0:
367,109,31630,2,0,P|404:123|444:121,1,80.9999975280763,2|2,1:2|1:2,0:0:0:0:
343,270,32075,5,2,1:2:0:0:
224,198,32297,1,2,0:0:0:0:
224,198,32408,1,2,0:0:0:0:
224,198,32519,2,0,L|216:283,1,80.9999975280763,2|0,1:2|0:0,0:0:0:0:
108,384,32964,2,0,L|100:303,1,80.9999975280763,2|2,1:2|0:2,0:0:0:0:
140,140,33408,1,2,1:2:0:0:
10,235,33630,5,2,0:0:0:0:
10,235,33741,1,2,0:0:0:0:
10,235,33853,2,0,P|0:195|2:154,1,80.9999975280763,2|0,1:2|0:0,0:0:0:0:
121,53,34297,2,0,P|123:93|113:132,1,80.9999975280763,2|0,1:2|0:0,0:0:0:0:
25,260,34741,1,2,1:2:0:0:
112,329,34964,1,2,0:0:0:0:
232,267,35186,2,0,L|223:227,2,40.4999987640381,2|2|2,1:2|0:0|1:2,0:0:0:0:
342,325,35630,6,0,L|350:240,1,80.9999975280763,6|0,1:2|0:0,0:0:0:0:
461,371,36075,2,0,L|453:290,1,80.9999975280763,2|0,1:2|0:0,0:0:0:0:
459,118,36519,1,2,1:2:0:0:
377,224,36741,1,2,0:0:0:0:
339,69,36964,2,0,P|310:96|299:135,1,80.9999975280763,2|2,1:2|0:0,0:0:0:0:
299,134,37297,1,2,0:0:0:0:
299,134,37408,5,2,1:2:0:0:
205,73,37630,1,2,0:0:0:0:
105,187,37853,2,0,P|142:177|185:179,1,80.9999975280763,2|2,1:2|0:0,0:0:0:0:
342,244,38297,1,2,1:2:0:0:
268,340,38519,1,2,0:0:0:0:
222,186,38741,1,2,1:2:0:0:
97,298,38964,5,2,0:0:0:0:
97,298,39075,1,2,0:0:0:0:
97,298,39186,2,0,P|135:309|176:307,1,80.9999975280763,6|2,1:2|3:2,0:0:0:0:
334,266,39630,1,2,1:2:0:0:
334,266,39741,1,0,3:0:0:0:
334,266,39853,1,0,3:0:0:0:
334,266,39964,1,0,3:0:0:0:
334,266,40075,6,0,L|327:329,1,40.4999987640381,2|0,1:2|3:0,0:0:0:0:
427,214,40297,2,0,L|422:173,1,40.4999987640381,2|0,3:2|3:0,0:0:0:0:
354,66,40520,1,2,1:2:0:0:
316,49,40631,1,0,3:0:0:0:
276,53,40742,1,0,3:0:0:0:
239,71,40853,1,0,3:0:0:0:
219,105,40964,5,6,1:2:0:0:
222,153,42075,1,0,0:0:0:0:
222,153,42297,1,2,0:0:0:0:
369,233,42519,1,8,0:0:0:0:
369,233,42630,1,8,0:0:0:0:
369,233,42741,6,0,B|361:187|361:187|377:147|377:147|358:91,1,135,6|0,1:2|0:0,0:0:0:0:
344,61,43186,1,2,0:0:0:0:
254,138,43408,1,0,0:0:0:0:
448,195,43630,2,0,L|465:286,1,90,2|0,1:2|0:0,0:0:0:0:
464,283,43964,1,0,0:0:0:0:
464,283,44075,1,2,0:0:0:0:
365,373,44297,1,8,0:0:0:0:
279,257,44519,5,2,0:0:0:0:
154,336,44741,1,8,0:0:0:0:
154,336,44964,2,0,L|165:269,1,45,2|2,0:0|0:0,0:0:0:0:
197,161,45186,1,10,0:0:0:0:
197,161,45297,1,10,0:0:0:0:
197,161,45408,6,0,B|244:149|244:149|304:159,1,90,0|2,1:0|0:0,0:0:0:0:
323,180,45741,1,10,0:0:0:0:
323,180,45853,2,0,L|316:239,2,45,2|0|2,0:0|0:0|0:0,0:0:0:0:
332,53,46297,6,0,B|292:35|292:35|248:64|169:38,1,135,2|0,1:2|0:0,0:0:0:0:
161,23,46741,1,8,0:0:0:0:
68,96,46964,1,8,0:0:0:0:
134,209,47186,2,0,L|123:317,1,90,2|0,1:2|0:0,0:0:0:0:
124,298,47519,1,0,0:0:0:0:
124,298,47630,1,2,0:0:0:0:
242,367,47853,1,0,0:0:0:0:
323,269,48075,5,2,0:0:0:0:
452,341,48297,1,8,0:0:0:0:
452,341,48408,1,8,0:0:0:0:
452,341,48519,2,0,L|441:279,1,45,2|0,0:0|0:0,0:0:0:0:
485,204,48741,2,0,L|496:142,1,45,2|0,0:0|0:0,0:0:0:0:
510,55,48964,2,0,B|474:49|474:49|446:60|446:60|423:40|423:40|374:32,1,135,0|0,1:0|0:0,0:0:0:0:
286,24,49408,6,2,L|291:62,1,33.75,0|0,0:0|0:0,0:1:0:0:
302,159,49853,6,0,B|240:142|240:142|172:171|172:171|97:144,1,202.500007724762,6|0,1:2|0:0,0:0:0:0:
66,130,50297,1,2,0:0:0:0:
164,28,50519,1,0,0:0:0:0:
175,205,50741,2,0,L|180:309,1,90,2|0,1:2|0:0,0:0:0:0:
179,294,51075,1,0,0:0:0:0:
179,294,51186,1,2,0:0:0:0:
295,363,51408,1,8,0:0:0:0:
421,261,51630,5,2,0:0:0:0:
426,126,51853,1,8,0:0:0:0:
426,126,52075,2,0,L|371:124,1,45,2|2,0:0|0:0,0:0:0:0:
247,129,52297,1,10,0:0:0:0:
247,129,52408,1,10,0:0:0:0:
247,129,52519,6,0,B|203:142|203:142|152:124,1,90,0|2,1:0|0:0,0:0:0:0:
116,113,52853,1,10,0:0:0:0:
116,113,52964,2,0,L|121:184,2,45,2|0|2,0:0|0:0|0:0,0:0:0:0:
114,15,53408,2,0,B|54:9|54:9|21:34|4:84,1,135,2|0,1:2|0:0,0:0:0:0:
1,109,53853,1,8,0:0:0:0:
97,194,54075,1,8,0:0:0:0:
39,321,54297,6,0,L|145:311,1,90,2|0,1:2|0:0,0:0:0:0:
128,312,54630,1,0,0:0:0:0:
128,312,54741,1,2,0:0:0:0:
242,367,54964,1,0,0:0:0:0:
326,248,55186,5,2,0:0:0:0:
455,368,55408,1,8,0:0:0:0:
495,204,55630,2,0,L|549:193,2,45,2|0|2,0:0|0:0|0:0,0:0:0:0:
358,227,56075,2,0,B|344:197|344:197|356:124,1,90,0|2,1:0|0:0,0:0:0:0:
373,60,56408,1,0,0:0:0:0:
373,60,56519,2,0,L|287:51,1,45,0|0,1:0|0:0,0:0:0:0:
202,45,56741,1,8,0:0:0:0:
202,45,56964,6,0,P|203:89|182:128,1,90,6|0,1:2|0:0,0:0:0:0:
72,212,57408,1,2,1:2:0:0:
232,229,57630,1,0,0:0:0:0:
160,372,57853,2,0,L|151:282,1,90,2|0,1:2|0:0,0:0:0:0:
152,283,58186,1,0,0:0:0:0:
152,283,58297,1,2,1:2:0:0:
289,330,58519,1,0,0:0:0:0:
225,201,58741,6,0,P|266:217|310:216,1,90,2|2,1:2|0:0,0:0:0:0:
484,162,59186,1,2,1:2:0:0:
500,114,59297,1,2,0:0:0:0:
485,69,59408,1,2,0:0:0:0:
447,36,59519,1,2,0:0:0:0:
401,30,59630,1,2,1:2:0:0:
287,113,59853,1,2,0:0:0:0:
287,113,59964,1,2,0:0:0:0:
287,113,60075,2,0,L|243:110,2,45,2|0|0,1:2|0:0|1:0,0:0:0:0:
422,193,60519,6,0,P|439:257|384:312,1,135,2|0,1:2|0:0,0:0:0:0:
363,322,60964,1,2,1:2:0:0:
251,249,61186,1,0,0:0:0:0:
165,371,61408,2,0,L|254:362,1,90,2|0,1:2|0:0,0:0:0:0:
147,257,61853,2,0,L|57:248,1,90,2|0,1:2|0:0,0:0:0:0:
30,231,62186,1,0,0:0:0:0:
30,231,62297,6,0,P|18:170|74:112,1,135,2|0,1:2|0:0,0:0:0:0:
97,109,62741,1,2,1:2:0:0:
197,184,62964,1,0,0:0:0:0:
259,34,63186,2,0,P|255:78|277:121,1,90,2|2,1:2|0:0,0:0:0:0:
350,167,63519,1,2,0:0:0:0:
350,167,63630,2,0,L|394:164,2,45,2|0|0,1:2|0:0|1:0,0:0:0:0:
234,253,64075,6,0,P|168:257|116:217,1,135,2|0,1:2|0:0,0:0:0:0:
82,155,64519,2,0,L|73:245,1,90,2|0,1:2|0:0,0:0:0:0:
150,373,64964,1,2,1:2:0:0:
234,253,65186,1,0,0:0:0:0:
362,334,65408,2,0,P|314:353|270:347,1,90,2|0,1:2|0:0,0:0:0:0:
276,349,65741,1,0,0:0:0:0:
276,349,65853,5,2,1:2:0:0:
339,231,66075,1,0,0:0:0:0:
471,338,66297,1,2,1:2:0:0:
475,298,66408,1,2,0:0:0:0:
479,259,66519,1,2,0:0:0:0:
483,221,66630,1,2,0:0:0:0:
487,181,66741,2,0,P|446:147|392:149,1,90,2|2,1:2|0:0,0:0:0:0:
323,176,67075,1,2,0:0:0:0:
323,176,67186,2,0,L|320:220,2,45,2|0|0,1:2|0:0|0:0,0:0:0:0:
199,88,67630,5,2,1:2:0:0:
160,76,67741,1,0,3:0:0:0:
119,81,67853,1,0,3:0:0:0:
88,107,67964,1,0,3:0:0:0:
73,144,68075,2,0,P|71:166|76:188,1,45,2|0,1:2|3:0,0:0:0:0:
42,282,68297,2,0,P|52:302|66:318,1,45,0|0,3:0|3:0,0:0:0:0:
161,377,68519,1,2,1:2:0:0:
242,241,68741,5,2,1:2:0:0:
242,241,68853,1,2,3:2:0:0:
242,241,68964,2,0,P|220:241|198:248,1,45,2|0,1:2|3:0,0:0:0:0:
326,287,69186,2,0,P|348:286|369:279,1,45,2|0,1:2|3:0,0:0:0:0:
478,233,69408,6,0,L|467:322,1,90,10|0,1:2|0:0,0:0:0:0:
343,180,69853,1,2,0:0:0:0:
326,287,70075,1,2,0:0:0:0:
197,173,70297,1,2,1:2:0:0:
150,319,70519,1,2,0:0:0:0:
150,319,70630,1,2,0:0:0:0:
150,319,70741,2,0,L|145:271,1,45,2|0,0:0|0:0,0:0:0:0:
78,190,70964,2,0,L|82:142,1,45,8|8,0:0|0:0,0:0:0:0:
87,26,71186,6,0,P|133:31|168:45,1,80.9999975280763,14|0,0:0|0:0,0:0:0:0:
265,38,71630,2,0,P|293:74|308:108,1,80.9999975280763,2|0,0:0|0:0,0:0:0:0:
382,172,72075,1,2,0:0:0:0:
312,262,72297,1,0,0:0:0:0:
400,153,72519,1,2,0:0:0:0:
435,293,72741,1,0,0:0:0:0:
392,119,72964,5,2,0:0:0:0:
392,119,73186,2,0,L|492:101,1,80.9999975280763,0|2,0:0|0:0,0:0:0:0:
335,36,73630,2,0,P|293:53|245:94,1,80.9999975280763,2|0,0:0|0:0,0:0:0:0:
186,163,74075,1,2,0:0:0:0:
186,163,74297,2,0,P|228:180|276:221,1,80.9999975280763,2|0,0:0|0:0,0:0:0:0:
316,297,74741,6,0,L|185:288,1,121.499996292114,10|0,0:0|0:0,0:0:0:0:
146,281,75186,2,0,P|117:344|113:360,1,80.9999975280763,2|0,0:0|0:0,0:0:0:0:
42,286,75519,1,2,0:0:0:0:
42,286,75630,2,0,P|29:247|10:211,1,80.9999975280763,2|0,0:0|0:0,0:0:0:0:
87,120,76075,1,2,0:0:0:0:
177,254,76297,1,0,0:0:0:0:
300,169,76519,6,0,P|317:222|283:309,1,121.499996292114,10|0,0:0|0:0,0:0:0:0:
283,321,76964,2,0,P|337:308|383:329,1,80.9999975280763,2|0,0:0|0:0,0:0:0:0:
440,376,77408,1,2,0:0:0:0:
503,284,77630,1,0,0:0:0:0:
377,295,77853,1,2,0:0:0:0:
399,157,78075,1,0,0:0:0:0:
276,214,78297,6,0,L|144:200,1,121.499996292114,10|0,0:0|0:0,0:0:0:0:
113,195,78741,2,0,P|90:143|89:96,1,80.9999975280763,2|0,0:0|0:0,0:0:0:0:
184,0,79186,2,0,P|207:52|208:99,1,80.9999975280763,2|0,0:0|0:0,0:0:0:0:
185,221,79630,1,2,0:0:0:0:
241,359,79853,1,2,0:0:0:0:
362,199,80075,6,0,L|469:189,1,80.9999975280763,10|0,0:0|0:0,0:0:0:0:
512,285,80519,1,2,0:0:0:0:
407,368,80741,1,0,0:0:0:0:
319,273,80964,2,0,P|272:271|234:282,1,80.9999975280763,2|2,0:0|0:0,0:0:0:0:
125,351,81408,2,0,P|169:365|201:388,1,80.9999975280763,2|0,0:0|0:0,0:0:0:0:
23,351,81853,6,0,P|-4:289|11:218,1,121.499996292114,10|0,0:0|0:0,0:0:0:0:
23,191,82297,2,0,L|121:181,1,80.9999975280763,2|0,0:0|0:0,0:0:0:0:
179,91,82741,2,0,L|277:81,1,80.9999975280763,2|0,0:0|0:0,0:0:0:0:
343,186,83186,2,0,L|441:176,1,80.9999975280763,2|0,0:0|0:0,0:0:0:0:
506,62,83630,6,0,P|473:21|399:1,1,121.499996292114,2|0,0:0|0:0,0:0:0:0:
360,14,84075,2,0,P|318:47|299:121,1,121.499996292114,2|0,0:0|0:0,0:0:0:0:
312,160,84519,1,2,0:0:0:0:
489,94,84741,2,0,L|478:208,1,80.9999975280763,2|2,0:0|0:0,0:0:0:0:
472,307,85186,1,8,0:0:0:0:
472,307,85297,1,8,0:0:0:0:
472,307,85408,6,0,P|435:323|395:323,1,80.9999975280763,14|0,0:0|0:0,0:0:0:0:
231,252,85853,2,0,P|267:235|307:235,1,80.9999975280763,10|0,0:0|0:0,0:0:0:0:
469,279,86297,1,10,0:0:0:0:
501,164,86519,1,2,0:0:0:0:
338,220,86741,1,10,0:0:0:0:
417,90,86964,1,0,0:0:0:0:
226,128,87186,6,0,L|313:120,1,80.9999975280763,10|0,0:0|0:0,0:0:0:0:
145,47,87630,2,0,L|64:54,1,80.9999975280763,8|2,0:0|0:0,0:0:0:0:
21,191,88075,1,10,0:0:0:0:
115,82,88297,1,2,0:0:0:0:
139,237,88519,2,0,P|137:277|121:314,1,80.9999975280763,10|0,0:0|0:0,0:0:0:0:
267,264,88964,6,0,B|324:247|324:247|389:268,1,121.499996292114,10|0,0:0|0:0,0:0:0:0:
436,330,89408,2,0,L|442:248,1,80.9999975280763,10|0,0:0|0:0,0:0:0:0:
379,115,89853,1,10,0:0:0:0:
469,235,90075,1,0,0:0:0:0:
508,83,90297,1,10,0:0:0:0:
388,148,90519,1,0,0:0:0:0:
286,40,90741,6,0,P|326:35|364:46,1,80.9999975280763,10|0,0:0|0:0,0:0:0:0:
203,151,91186,2,0,P|243:155|281:144,1,80.9999975280763,10|0,0:0|0:0,0:0:0:0:
397,51,91630,1,10,0:0:0:0:
379,179,91853,1,2,0:0:0:0:
512,110,92075,2,0,P|516:150|505:188,1,80.9999975280763,10|0,0:0|0:0,0:0:0:0:
374,336,92519,6,0,B|368:280|368:280|385:241|385:241|378:178,1,161.999995056153,14|0,1:2|0:0,0:0:0:0:
300,17,93186,1,2,0:0:0:0:
300,17,93408,2,0,L|293:98,1,80.9999975280763,2|0,1:2|0:0,0:0:0:0:
252,206,93853,1,2,0:0:0:0:
162,120,94075,1,2,0:0:0:0:
138,270,94297,6,0,P|72:227|0:254,2,161.999995056153,14|2|2,1:2|0:0|0:0,0:0:0:0:
222,350,95408,1,2,0:0:0:0:
222,350,95630,2,0,P|269:353|306:337,1,80.9999975280763,2|0,0:0|0:0,0:0:0:0:
477,289,96075,6,0,P|437:293|399:280,1,80.9999975280763,14|0,1:2|0:0,0:0:0:0:
230,211,96519,2,0,P|316:220|349:163,1,161.999995056153,2|14,0:0|1:2,0:0:0:0:
349,162,97408,1,0,0:0:0:0:
292,63,97630,1,0,0:0:0:0:
222,210,97853,5,14,1:2:0:0:
214,223,98298,1,2,1:2:0:0:
222,236,98742,1,2,1:2:0:0:
108,57,99075,5,8,0:0:0:0:
108,57,99186,1,10,1:2:0:0:
112,195,99408,1,8,0:0:0:0:
112,195,99630,6,0,P|175:193|215:157,1,112.5,14|0,1:2|0:0,0:0:0:0:
399,195,100075,2,0,P|344:195|300:162,1,112.5,10|0,1:2|0:0,0:0:0:0:
336,46,100519,1,8,0:0:0:0:
459,122,100741,1,8,0:0:0:0:
459,122,100964,2,0,P|485:211|492:321,1,168.75,2|0,1:2|0:0,0:0:0:0:
488,337,101408,5,8,0:0:0:0:
345,271,101630,1,2,0:0:0:0:
454,154,101853,1,8,0:0:0:0:
492,286,102075,1,2,0:0:0:0:
301,213,102297,2,0,B|272:108|348:160|294:8,1,168.75,2|0,1:2|0:0,0:0:0:0:
291,0,102741,1,10,0:0:0:0:
201,92,102964,1,0,0:0:0:0:
78,13,103186,1,10,0:0:0:0:
13,151,103408,5,2,1:2:0:0:
154,26,103630,1,2,1:2:0:0:
197,206,103853,1,2,1:2:0:0:
263,130,104075,2,0,P|207:106|148:118,1,112.5,10|0,0:0|0:0,0:0:0:0:
212,254,104519,1,2,0:0:0:0:
288,111,104741,1,0,0:0:0:0:
365,269,104964,6,0,L|487:255,1,112.5,10|0,1:2|0:0,0:0:0:0:
270,357,105408,2,0,L|392:371,1,112.5,10|0,1:2|0:0,0:0:0:0:
158,268,105853,2,0,L|280:254,1,112.5,10|0,1:2|0:0,0:0:0:0:
403,239,106297,1,10,1:2:0:0:
467,69,106519,1,2,0:0:0:0:
394,149,106741,6,0,P|331:147|291:111,1,112.5,14|0,1:2|0:0,0:0:0:0:
106,149,107186,2,0,P|161:149|205:116,1,112.5,10|0,1:2|0:0,0:0:0:0:
170,0,107630,1,8,0:0:0:0:
47,76,107852,1,8,0:0:0:0:
47,76,108075,2,0,P|21:165|14:275,1,168.75,2|0,1:2|0:0,0:0:0:0:
18,291,108519,5,8,0:0:0:0:
129,177,108741,1,2,0:0:0:0:
201,338,108964,1,8,0:0:0:0:
312,224,109186,1,2,0:0:0:0:
377,362,109408,2,0,P|300:375|242:272,1,168.75,2|0,1:2|0:0,0:0:0:0:
241,263,109853,1,10,0:0:0:0:
404,138,110075,1,0,0:0:0:0:
324,296,110297,6,0,P|317:240|335:187,1,112.5,10|0,1:2|0:0,0:0:0:0:
511,121,110741,2,0,P|459:142|404:138,1,112.5,10|0,1:2|0:0,0:0:0:0:
253,25,111186,2,0,P|301:54|330:102,1,112.5,10|0,1:2|0:0,0:0:0:0:
241,205,111630,2,0,L|52:191,1,168.75,10|0,0:0|0:0,0:0:0:0:
37,222,112075,5,10,0:0:0:0:
92,64,112297,1,0,0:0:0:0:
181,200,112519,1,10,0:0:0:0:
12,125,112741,1,0,0:0:0:0:
186,100,112964,5,10,1:2:0:0:
290,280,113186,1,2,0:0:0:0:
290,280,113297,1,2,0:0:0:0:
290,280,113408,2,0,L|299:189,1,56.25,10|0,1:2|0:0,0:0:0:0:
309,103,113630,1,8,0:0:0:0:
309,103,113853,6,0,P|361:78|426:88,1,112.5,14|0,1:2|0:0,0:0:0:0:
203,103,114297,2,0,P|151:78|86:88,1,112.5,10|0,1:2|0:0,0:0:0:0:
6,167,114741,1,8,0:0:0:0:
123,269,114963,1,8,0:0:0:0:
123,269,115186,2,0,B|174:290|174:290|301:277,1,168.75,2|0,1:2|0:0,0:0:0:0:
334,264,115630,5,8,0:0:0:0:
419,355,115852,1,2,0:0:0:0:
471,241,116075,2,0,P|460:185|415:149,1,112.5,8|2,0:0|0:0,0:0:0:0:
250,47,116519,2,0,B|314:52|314:52|352:35|352:35|414:40,1,168.75,2|0,1:2|0:0,0:0:0:0:
459,51,116963,1,10,0:0:0:0:
404,180,117186,1,0,0:0:0:0:
298,17,117408,1,10,0:0:0:0:
276,167,117630,5,2,1:2:0:0:
92,91,117852,2,0,P|144:73|198:85,1,112.5,2|2,1:2|1:2,0:0:0:0:
308,169,118296,1,8,0:0:0:0:
179,225,118519,1,0,0:0:0:0:
218,66,118741,1,2,0:0:0:0:
309,201,118963,1,0,0:0:0:0:
386,35,119186,6,0,P|397:85|400:157,1,112.5,10|0,1:2|0:0,0:0:0:0:
495,281,119630,2,0,P|497:224|509:169,1,112.5,10|0,1:2|0:0,0:0:0:0:
396,355,120075,2,0,P|393:298|381:243,1,112.5,10|0,1:2|0:0,0:0:0:0:
400,112,120519,1,10,1:2:0:0:
274,252,120741,1,2,0:0:0:0:
112,112,120963,6,0,P|175:114|215:150,1,112.5,14|0,1:2|0:0,0:0:0:0:
400,112,121408,2,0,P|345:112|301:145,1,112.5,10|0,1:2|0:0,0:0:0:0:
189,282,121852,1,8,0:0:0:0:
69,126,122074,1,8,0:0:0:0:
69,126,122297,2,0,B|40:231|116:179|62:331,1,168.75,2|0,1:2|0:0,0:0:0:0:
65,331,122741,5,8,0:0:0:0:
187,219,122963,1,2,0:0:0:0:
173,384,123186,1,8,0:0:0:0:
81,232,123408,1,2,0:0:0:0:
256,336,123630,2,0,P|336:352|428:332,1,168.75,2|0,1:2|0:0,0:0:0:0:
464,319,124075,1,10,0:0:0:0:
355,224,124297,1,0,0:0:0:0:
507,168,124519,5,2,3:2:0:0:
507,168,124630,1,0,3:0:0:0:
507,168,124742,1,0,3:0:0:0:
507,168,124853,1,0,0:0:0:0:
507,168,124964,2,0,L|418:159,1,56.25,2|0,3:2|3:0,0:0:0:0:
325,80,125186,5,0,3:0:0:0:
325,80,125298,1,0,3:0:0:0:
325,80,125409,2,0,P|317:114|316:169,1,56.25,2|0,3:2|3:0,0:0:0:0:
276,300,125630,2,0,P|272:272|265:244,1,56.25,2|0,3:2|3:0,0:0:0:0:
174,88,125853,1,2,3:2:0:0:
138,65,125964,1,0,3:0:0:0:
96,69,126075,1,0,3:0:0:0:
59,89,126186,1,0,3:0:0:0:
43,128,126298,5,10,3:2:0:0:
142,258,126519,1,0,0:0:0:0:
174,88,126741,1,2,0:0:0:0:
45,232,126963,1,2,0:0:0:0:
242,185,127186,5,10,0:0:0:0:
195,359,127408,1,2,0:0:0:0:
195,359,127519,1,2,0:0:0:0:
195,359,127630,1,10,1:2:0:0:
351,256,127852,1,8,0:0:0:0:
351,256,127964,1,8,0:0:0:0:
351,256,128075,6,0,B|403:244|403:244|430:265|430:265|499:245,1,135,6|0,1:2|0:0,0:0:0:0:
512,277,128519,1,2,0:0:0:0:
362,154,128741,1,0,0:0:0:0:
295,312,128964,1,2,1:2:0:0:
159,237,129186,1,0,0:0:0:0:
159,237,129297,1,0,0:0:0:0:
159,237,129408,6,0,L|170:123,1,90,2|8,0:0|0:0,0:0:0:0:
183,32,129853,2,0,B|137:46|137:46|77:37,1,90,2|8,0:0|0:0,0:0:0:0:
13,128,130297,2,0,B|59:114|59:114|119:123,1,90,2|8,0:0|0:0,0:0:0:0:
66,217,130630,1,8,0:0:0:0:
66,217,130741,6,0,B|76:265|76:265|61:302|61:302|72:358,1,135,0|8,1:0|0:0,0:0:0:0:
78,377,131186,2,0,P|108:366|135:366,1,45,2|0,0:0|0:0,0:0:0:0:
191,293,131408,2,0,P|219:306|239:325,1,45,2|0,0:0|0:0,0:0:0:0:
302,384,131630,5,2,1:2:0:0:
428,348,131853,1,0,0:0:0:0:
335,227,132075,1,8,0:0:0:0:
464,247,132298,1,8,0:0:0:0:
508,98,132519,6,0,P|446:113|381:51,1,135,2|0,1:2|0:0,0:0:0:0:
377,25,132964,1,2,0:0:0:0:
234,9,133186,1,0,0:0:0:0:
234,9,133297,1,0,0:0:0:0:
234,9,133408,6,0,L|243:73,1,45,2|0,0:0|0:0,0:0:0:0:
187,140,133630,2,0,L|196:204,1,45,8|8,0:0|0:0,0:0:0:0:
206,298,133853,2,0,B|100:288,1,90,2|2,0:0|0:0,0:0:0:0:
1,280,134297,2,0,B|17:244|17:244|6:220|6:220|15:139,1,135,0|0,1:0|0:0,0:0:0:0:
25,64,134741,6,2,L|58:58,1,33.75,0|0,0:0|0:0,0:1:0:0:
195,39,135186,6,0,B|208:79|266:99|266:99|328:90|367:29,1,202.500007724762,6|0,1:2|0:0,0:0:0:0:
371,9,135630,1,2,0:0:0:0:
448,122,135853,1,0,0:0:0:0:
303,120,136075,1,2,1:2:0:0:
492,39,136297,1,0,0:0:0:0:
492,39,136408,1,0,0:0:0:0:
492,39,136519,6,0,L|503:153,1,90,2|8,0:0|0:0,0:0:0:0:
444,233,136964,2,0,B|398:219|398:219|338:228,1,90,2|8,0:0|0:0,0:0:0:0:
285,296,137297,1,0,0:0:0:0:
285,296,137408,2,0,B|239:310|239:310|179:301,1,90,2|8,0:0|0:0,0:0:0:0:
98,276,137741,1,8,0:0:0:0:
98,276,137852,6,0,B|88:228|88:228|115:179|89:123,1,135,0|8,1:0|0:0,0:0:0:0:
89,93,138297,2,0,L|161:93,1,45,2|0,0:0|0:0,0:0:0:0:
207,3,138519,2,0,L|258:54,1,45,2|0,0:0|0:0,0:0:0:0:
322,125,138741,5,2,1:2:0:0:
460,165,138964,1,0,0:0:0:0:
363,7,139186,1,8,0:0:0:0:
501,47,139409,1,8,0:0:0:0:
347,115,139630,6,0,P|373:176|383:247,1,135,2|0,1:2|0:0,0:0:0:0:
370,294,140075,1,10,0:0:0:0:
271,353,140297,1,0,0:0:0:0:
271,353,140408,1,0,0:0:0:0:
271,353,140519,6,0,L|207:344,1,45,2|0,0:0|0:0,0:0:0:0:
158,273,140741,2,0,L|94:282,1,45,2|0,0:0|0:0,0:0:0:0:
0,291,140964,2,0,L|13:196,1,90,2|2,0:0|0:0,0:0:0:0:
30,94,141408,2,0,B|75:119|123:94|123:94|152:151,1,135,0|0,1:0|0:0,0:0:0:0:
156,175,141853,1,0,1:0:0:0:
279,118,142075,1,8,0:0:0:0:
377,251,142297,6,0,P|314:218|244:231,1,135,6|0,1:2|0:0,0:0:0:0:
219,246,142741,1,2,1:2:0:0:
244,116,142963,1,0,0:0:0:0:
97,45,143186,6,0,L|111:185,1,135,2|0,1:2|0:0,0:0:0:0:
116,216,143630,1,2,1:2:0:0:
56,333,143852,1,0,0:0:0:0:
208,284,144075,6,0,P|255:278|303:297,1,90,2|0,1:2|0:0,0:0:0:0:
471,235,144519,2,0,P|424:241|376:222,1,90,2|0,1:2|0:0,0:0:0:0:
300,90,144964,2,0,L|287:179,1,90,2|2,1:2|0:0,0:0:0:0:
287,179,145297,1,2,0:0:0:0:
287,179,145408,1,2,1:2:0:0:
147,85,145630,1,2,1:2:0:0:
147,85,145741,1,2,0:0:0:0:
147,85,145853,6,0,B|153:139|153:139|136:169|136:169|145:240,1,135,2|0,1:2|0:0,0:0:0:0:
154,258,146297,1,2,1:2:0:0:
267,152,146519,1,0,0:0:0:0:
398,263,146742,2,0,P|340:294|261:247,1,135,2|0,1:2|0:0,0:0:0:0:
248,244,147186,1,2,1:2:0:0:
182,356,147408,1,0,0:0:0:0:
79,258,147630,6,0,L|69:347,1,90,2|0,1:2|0:0,0:0:0:0:
164,200,148075,2,0,L|154:110,1,90,2|0,1:2|0:0,0:0:0:0:
274,257,148519,2,0,L|283:167,1,90,2|2,1:2|0:0,0:0:0:0:
283,167,148853,1,2,0:0:0:0:
283,167,148964,1,2,1:2:0:0:
401,70,149186,1,2,1:2:0:0:
401,70,149297,1,2,0:0:0:0:
401,70,149408,6,0,L|418:227,1,135,2|0,1:2|0:0,0:0:0:0:
422,246,149853,1,2,1:2:0:0:
284,218,150075,1,0,0:0:0:0:
343,353,150297,2,0,B|298:336|298:336|177:350,1,135,2|0,1:2|0:0,0:0:0:0:
174,351,150741,1,2,1:2:0:0:
144,230,150964,1,0,0:0:0:0:
29,333,151186,6,0,P|44:288|42:243,1,90,2|0,1:2|0:0,0:0:0:0:
136,109,151630,2,0,P|129:155|141:198,1,90,2|2,1:2|0:0,0:0:0:0:
266,281,152075,2,0,L|356:290,1,90,2|2,1:2|0:0,0:0:0:0:
434,252,152408,1,2,0:0:0:0:
434,252,152519,2,0,P|447:209|440:165,1,90,2|0,1:2|0:0,0:0:0:0:
295,40,152964,5,2,1:2:0:0:
295,40,153075,1,0,3:0:0:0:
295,40,153186,1,0,3:0:0:0:
295,40,153297,1,0,3:0:0:0:
250,40,153408,1,2,1:2:0:0:
211,62,153519,1,0,0:0:0:0:
194,103,153630,1,0,3:0:0:0:
193,147,153741,1,0,0:0:0:0:
218,184,153853,6,0,P|243:191|290:191,1,45,2|0,1:2|0:0,0:0:0:0:
401,235,154075,2,0,P|378:237|357:244,1,45,2|2,1:2|3:2,0:0:0:0:
258,318,154297,1,2,1:2:0:0:
258,318,154408,1,0,0:0:0:0:
258,318,154519,2,0,P|236:324|214:326,1,45,2|0,1:2|3:0,0:0:0:0:
103,278,154741,6,0,P|90:235|97:191,1,90,10|0,1:2|0:0,0:0:0:0:
191,49,155186,1,10,0:0:0:0:
304,119,155408,1,2,0:0:0:0:
137,187,155630,1,10,1:2:0:0:
264,249,155853,1,2,0:0:0:0:
264,249,155964,1,2,0:0:0:0:
264,249,156075,2,0,P|289:244|332:227,1,45,2|0,0:0|0:0,0:0:0:0:
429,183,156297,2,0,P|406:179|385:172,1,45,8|8,0:0|0:0,0:0:0:0:
283,102,156519,6,0,P|330:72|377:57,1,80.9999975280763,14|0,0:0|0:0,0:0:0:0:
442,51,156964,2,0,P|479:67|512:90,1,80.9999975280763,2|0,0:0|0:0,0:0:0:0:
455,205,157408,1,2,0:0:0:0:
495,310,157630,1,0,0:0:0:0:
397,359,157852,1,2,0:0:0:0:
475,257,158075,1,0,0:0:0:0:
329,189,158297,5,2,0:0:0:0:
329,189,158519,2,0,L|337:86,1,80.9999975280763,0|2,0:0|0:0,0:0:0:0:
341,7,158964,1,2,0:0:0:0:
236,56,159186,2,0,P|181:57|136:39,1,80.9999975280763,0|2,0:0|0:0,0:0:0:0:
50,127,159630,2,0,P|90:123|129:133,1,80.9999975280763,2|0,0:0|0:0,0:0:0:0:
209,220,160074,6,0,L|340:211,1,121.499996292114,10|0,0:0|0:0,0:0:0:0:
377,217,160519,2,0,P|348:280|344:296,1,80.9999975280763,2|0,0:0|0:0,0:0:0:0:
258,371,160964,2,0,P|230:341|197:317,1,80.9999975280763,2|0,0:0|0:0,0:0:0:0:
80,272,161408,1,2,0:0:0:0:
204,208,161630,1,0,0:0:0:0:
34,123,161853,6,0,P|36:69|108:32,1,121.499996292114,10|0,0:0|0:0,0:0:0:0:
135,48,162297,2,0,L|126:142,1,80.9999975280763,2|0,0:0|0:0,0:0:0:0:
112,265,162741,1,2,0:0:0:0:
236,222,162963,1,0,0:0:0:0:
132,89,163186,1,2,0:0:0:0:
256,46,163408,1,0,0:0:0:0:
366,162,163630,6,0,P|436:151|457:104,1,121.499996292114,10|0,0:0|0:0,0:0:0:0:
460,75,164074,2,0,P|437:23|436:-24,1,80.9999975280763,2|0,0:0|0:0,0:0:0:0:
326,126,164519,2,0,P|344:90|351:50,1,80.9999975280763,2|0,0:0|0:0,0:0:0:0:
456,110,164963,1,2,0:0:0:0:
366,162,165186,1,2,0:0:0:0:
495,222,165408,6,0,L|490:312,1,80.9999975280763,10|0,0:0|0:0,0:0:0:0:
423,378,165853,1,2,0:0:0:0:
304,303,166075,1,0,0:0:0:0:
204,367,166297,2,0,L|184:268,1,80.9999975280763,2|2,0:0|0:0,0:0:0:0:
89,309,166741,2,0,L|109:210,1,80.9999975280763,2|0,0:0|0:0,0:0:0:0:
126,116,167186,6,0,P|181:126|221:61,1,121.499996292114,10|0,0:0|0:0,0:0:0:0:
214,31,167630,2,0,L|110:19,1,80.9999975280763,2|0,0:0|0:0,0:0:0:0:
302,112,168075,2,0,L|382:102,1,80.9999975280763,2|0,0:0|0:0,0:0:0:0:
297,231,168519,2,0,L|216:221,1,80.9999975280763,2|0,0:0|0:0,0:0:0:0:
91,267,168963,6,0,P|103:318|162:367,1,121.499996292114,2|0,0:0|0:0,0:0:0:0:
203,372,169408,2,0,P|255:359|303:300,1,121.499996292114,2|0,0:0|0:0,0:0:0:0:
308,260,169852,1,2,0:0:0:0:
295,139,170075,2,0,L|375:129,1,80.9999975280763,2|2,0:0|0:0,0:0:0:0:
499,115,170519,1,0,0:0:0:0:
512,260,170741,6,0,P|463:224|406:244,1,121.499996292114,6|0,1:2|0:0,0:0:0:0:
366,306,171186,2,0,L|355:226,1,80.9999975280763,2|0,0:0|0:0,0:0:0:0:
343,61,171630,1,2,1:2:0:0:
272,164,171853,1,0,0:0:0:0:
174,43,172075,2,0,P|161:81|163:121,1,80.9999975280763,2|8,0:0|0:0,0:0:0:0:
120,287,172519,6,0,P|121:246|109:208,1,80.9999975280763,2|8,0:0|0:0,0:0:0:0:
7,128,172964,1,2,0:0:0:0:
196,150,173186,1,8,0:0:0:0:
196,150,173297,1,8,0:0:0:0:
196,150,173408,2,0,L|282:155,1,80.9999975280763,0|2,1:0|0:0,0:0:0:0:
371,227,173853,1,0,0:0:0:0:
414,92,174075,1,8,0:0:0:0:
489,244,174297,6,0,P|482:304|436:353,1,121.499996292114,2|0,1:2|0:0,0:0:0:0:
367,369,174741,2,0,L|286:361,1,80.9999975280763,8|8,0:0|0:0,0:0:0:0:
139,303,175186,1,2,1:2:0:0:
255,236,175409,1,0,0:0:0:0:
80,196,175630,2,0,P|121:200|160:180,1,80.9999975280763,2|0,0:0|0:0,0:0:0:0:
272,81,176075,5,2,0:0:0:0:
343,143,176297,2,0,L|338:183,2,40.4999987640381,8|8|2,0:0|0:0|0:0,0:0:0:0:
443,3,176742,1,2,0:0:0:0:
443,3,176853,1,2,0:0:0:0:
443,3,176964,2,0,L|450:83,1,80.9999975280763,0|0,1:0|0:0,0:0:0:0:
477,219,177409,1,0,1:0:0:0:
351,115,177631,1,0,1:0:0:0:
215,219,177853,6,0,B|271:213|271:213|310:230|310:230|373:223,1,161.999995056153,6|2,1:2|0:0,0:0:0:0:
512,329,178519,1,0,0:0:0:0:
512,329,178741,2,0,L|431:321,1,80.9999975280763,2|0,1:2|0:0,0:0:0:0:
303,259,179186,1,2,0:0:0:0:
219,382,179408,1,8,0:0:0:0:
88,356,179630,6,0,P|107:291|215:295,1,161.999995056153,2|2,0:0|0:0,0:0:0:0:
333,379,180297,1,8,0:0:0:0:
333,379,180408,1,8,0:0:0:0:
333,379,180519,1,0,1:0:0:0:
305,224,180741,1,8,0:0:0:0:
305,224,180853,1,8,0:0:0:0:
305,224,180964,2,0,P|305:175|322:141,1,80.9999975280763,0|2,0:0|0:0,0:0:0:0:
425,292,181408,6,0,P|430:252|419:213,1,80.9999975280763,2|0,1:2|0:0,0:0:0:0:
512,70,181853,2,0,P|451:80|392:64,1,121.499996292114,8|0,0:0|0:0,0:0:0:0:
316,31,182297,2,0,L|236:41,1,80.9999975280763,2|0,1:2|0:0,0:0:0:0:
98,136,182741,1,2,0:0:0:0:
209,169,182964,1,0,0:0:0:0:
116,308,183186,5,14,1:2:0:0:
108,295,183631,1,2,1:2:0:0:
116,282,184075,1,2,1:2:0:0:
243,150,184408,5,8,0:0:0:0:
243,150,184519,1,10,1:2:0:0:
309,248,184741,1,8,0:0:0:0:
309,248,184964,6,0,P|369:233|430:258,1,112.5,14|0,1:2|0:0,0:0:0:0:
203,248,185408,2,0,P|143:233|82:258,1,112.5,10|0,1:2|0:0,0:0:0:0:
150,352,185853,1,8,0:0:0:0:
226,229,186075,1,8,0:0:0:0:
226,229,186297,2,0,P|238:179|234:52,1,168.75,2|0,1:2|0:0,0:0:0:0:
219,21,186741,5,8,0:0:0:0:
145,133,186963,1,2,0:0:0:0:
330,111,187186,1,8,0:0:0:0:
286,285,187408,1,2,0:0:0:0:
457,225,187630,2,0,B|431:120|497:171|473:60,1,168.75,2|0,1:2|0:0,0:0:0:0:
457,14,188074,1,10,0:0:0:0:
334,82,188297,1,0,0:0:0:0:
230,16,188519,1,10,0:0:0:0:
167,200,188741,5,2,1:2:0:0:
208,40,188964,1,2,1:2:0:0:
286,220,189186,1,2,1:2:0:0:
144,96,189408,2,0,L|17:93,1,112.5,10|0,0:0|0:0,0:0:0:0:
189,232,189852,1,2,0:0:0:0:
265,89,190074,1,0,0:0:0:0:
376,263,190297,6,0,P|443:258|494:217,1,112.5,10|0,1:2|0:0,0:0:0:0:
277,377,190741,2,0,P|325:349|380:347,1,112.5,10|0,1:2|0:0,0:0:0:0:
160,281,191186,2,0,P|227:276|278:235,1,112.5,10|0,1:2|0:0,0:0:0:0:
314,143,191630,1,10,1:2:0:0:
203,44,191852,1,2,0:0:0:0:
203,44,192075,6,0,P|146:91|88:84,1,112.5,14|0,1:2|0:0,0:0:0:0:
308,43,192519,2,0,P|347:83|401:91,1,112.5,10|0,1:2|0:0,0:0:0:0:
487,11,192963,1,8,0:0:0:0:
512,213,193185,1,8,0:0:0:0:
512,213,193408,2,0,P|423:187|313:180,1,168.75,2|0,1:2|0:0,0:0:0:0:
297,184,193852,5,8,0:0:0:0:
356,345,194074,1,2,0:0:0:0:
200,337,194297,1,8,0:0:0:0:
312,224,194519,1,2,0:0:0:0:
377,362,194741,2,0,P|300:375|242:272,1,168.75,2|0,1:2|0:0,0:0:0:0:
241,263,195186,1,10,0:0:0:0:
404,138,195408,1,0,0:0:0:0:
282,16,195630,6,0,L|267:147,1,112.5,10|0,1:2|0:0,0:0:0:0:
84,220,196075,2,0,L|194:194,1,112.5,10|0,1:2|0:0,0:0:0:0:
342,335,196519,2,0,L|279:241,1,112.5,10|0,1:2|0:0,0:0:0:0:
176,79,196964,6,0,P|115:48|20:125,1,168.75,10|0,0:0|0:0,0:0:0:0:
10,134,197408,1,10,0:0:0:0:
170,42,197630,1,0,0:0:0:0:
169,205,197852,1,10,0:0:0:0:
31,91,198074,1,0,0:0:0:0:
184,6,198297,5,10,1:2:0:0:
250,133,198519,2,0,L|323:124,1,56.25,2|2,0:0|0:0,0:0:0:0:
418,111,198741,1,10,1:2:0:0:
312,232,198964,1,8,0:0:0:0:
312,232,199186,6,0,P|357:262|412:256,1,112.5,14|0,1:2|0:0,0:0:0:0:
200,232,199630,2,0,P|154:262|99:256,1,112.5,10|0,1:2|0:0,0:0:0:0:
12,158,200075,1,8,0:0:0:0:
177,126,200297,1,8,0:0:0:0:
177,126,200519,2,0,B|241:131|241:131|279:114|279:114|341:119,1,168.75,2|0,1:2|0:0,0:0:0:0:
512,146,200964,5,8,0:0:0:0:
410,51,201186,1,2,0:0:0:0:
429,190,201408,2,0,P|432:243|427:309,1,112.5,8|2,0:0|0:0,0:0:0:0:
207,375,201853,2,0,P|245:297|337:320,1,168.75,2|0,1:2|0:0,0:0:0:0:
346,336,202297,1,10,0:0:0:0:
371,208,202520,1,0,0:0:0:0:
207,279,202742,1,10,0:0:0:0:
141,137,202964,5,2,1:2:0:0:
11,241,203186,2,0,P|65:253|117:235,1,112.5,2|2,1:2|1:2,0:0:0:0:
235,108,203630,1,10,0:0:0:0:
107,131,203853,1,0,0:0:0:0:
231,251,204075,1,2,0:0:0:0:
269,102,204297,1,0,0:0:0:0:
437,183,204519,6,0,L|309:196,1,112.5,10|0,1:2|0:0,0:0:0:0:
150,276,204964,2,0,L|261:287,1,112.5,10|0,1:2|0:0,0:0:0:0:
95,175,205408,2,0,L|206:163,1,112.5,10|0,1:2|0:0,0:0:0:0:
385,206,205853,1,10,1:2:0:0:
261,250,206075,1,2,0:0:0:0:
324,102,206297,6,0,P|369:71|424:77,1,112.5,14|0,1:2|0:0,0:0:0:0:
187,103,206741,2,0,P|141:72|86:78,1,112.5,10|0,1:2|0:0,0:0:0:0:
0,175,207186,1,8,0:0:0:0:
135,269,207408,1,8,0:0:0:0:
135,269,207631,2,0,P|215:291|306:261,1,168.75,2|0,1:2|0:0,0:0:0:0:
329,239,208075,5,8,0:0:0:0:
244,106,208297,1,2,0:0:0:0:
228,258,208520,1,8,0:0:0:0:
361,109,208742,1,2,0:0:0:0:
484,199,208964,2,0,P|425:255|347:235,1,168.75,2|0,1:2|0:0,0:0:0:0:
323,205,209409,1,10,0:0:0:0:
398,94,209631,1,0,0:0:0:0:
263,25,209853,5,2,3:2:0:0:
263,25,209964,1,0,3:0:0:0:
263,25,210076,1,0,3:0:0:0:
263,25,210187,1,0,0:0:0:0:
263,25,210298,2,0,P|248:59|251:117,1,56.25,2|0,3:2|3:0,0:0:0:0:
301,221,210520,5,0,3:0:0:0:
301,221,210630,1,0,3:0:0:0:
301,221,210741,2,0,L|212:212,1,56.25,2|0,3:2|3:0,0:0:0:0:
101,149,210964,2,0,L|156:143,1,56.25,2|0,3:2|3:0,0:0:0:0:
340,113,211187,1,2,3:2:0:0:
375,116,211298,1,0,3:0:0:0:
410,120,211409,1,0,3:0:0:0:
445,124,211520,1,0,3:0:0:0:
481,127,211630,5,10,3:2:0:0:
369,262,211853,1,0,0:0:0:0:
341,84,212075,1,2,0:0:0:0:
456,224,212297,1,2,0:0:0:0:
267,175,212519,5,10,0:0:0:0:
363,305,212741,1,2,0:0:0:0:
363,305,212852,1,2,0:0:0:0:
363,305,212963,1,10,1:2:0:0:
195,279,213185,1,8,0:0:0:0:
195,279,213297,1,8,0:0:0:0:
195,279,213408,5,14,1:2:0:0:
248,163,213630,2,0,P|256:114|245:51,1,90,2|2,0:0|1:2,0:0:0:0:
161,7,214075,1,2,0:0:0:0:
161,7,214186,1,2,0:0:0:0:
161,7,214297,2,0,L|106:4,2,45,2|0|0,1:2|0:0|0:0,0:0:0:0:
251,74,214741,2,0,L|370:67,1,90,2|0,1:2|0:0,0:0:0:0:
463,56,215186,5,2,1:2:0:0:
399,203,215408,1,2,0:0:0:0:
336,36,215630,1,2,1:2:0:0:
336,36,215853,2,0,P|266:0|166:60,1,180,2|2,0:0|0:0,0:0:0:0:
116,136,216519,1,2,1:2:0:0:
263,208,216741,1,2,0:0:0:0:
170,341,216964,2,0,L|154:247,1,90,2|0,1:2|0:0,0:0:0:0:
131,106,217408,6,0,P|189:125|238:120,1,90,2|0,1:2|0:0,0:0:0:0:
344,217,217853,2,0,P|299:218|257:235,1,90,2|0,1:2|0:0,0:0:0:0:
353,318,218297,1,2,1:2:0:0:
378,182,218519,1,2,0:0:0:0:
503,272,218741,1,2,1:2:0:0:
503,272,218964,2,0,L|486:160,1,90,2|0,0:0|1:0,0:0:0:0:
464,57,219408,2,0,P|402:78|305:155,1,180,2|2,0:0|0:0,0:0:0:0:
238,241,220075,1,2,1:2:0:0:
367,312,220297,1,2,0:0:0:0:
408,127,220519,5,6,1:2:0:0:
408,127,220741,2,0,L|488:118,2,80.9999975280763,0|2|0,0:0|0:0|0:0,0:0:0:0:
337,199,221408,2,0,L|204:183,1,121.499996292114,2|0,1:2|0:0,0:0:0:0:
185,202,221853,1,2,0:0:0:0:
135,107,222075,1,0,0:0:0:0:
50,231,222297,5,6,1:2:0:0:
50,231,222519,2,0,L|39:133,2,80.9999975280763,0|2|0,0:0|0:0|0:0,0:0:0:0:
66,336,223186,2,0,P|124:365|203:333,1,121.499996292114,2|0,1:2|0:0,0:0:0:0:
211,325,223630,1,2,0:0:0:0:
255,209,223853,1,0,0:0:0:0:
255,209,223964,1,0,0:0:0:0:
255,209,224075,5,6,1:2:0:0:
325,269,224297,1,0,0:0:0:0:
325,269,224519,2,0,P|383:260|428:264,1,80.9999975280763,2|0,0:0|0:0,0:0:0:0:
499,299,224964,1,6,1:2:0:0:
403,384,225186,1,0,0:0:0:0:
390,230,225408,2,0,L|402:113,1,80.9999975280763,2|0,0:0|0:0,0:0:0:0:
411,24,225853,5,14,1:2:0:0:
417,41,226297,1,2,1:2:0:0:
411,58,226741,1,2,1:2:0:0:
469,142,227075,1,8,0:0:0:0:
469,142,227186,2,0,L|404:180,1,40.4999987640381,10|0,1:2|0:0,0:0:0:0:
308,236,227408,1,8,0:0:0:0:
308,236,227630,6,0,P|360:261|425:251,1,112.5,14|0,1:2|0:0,0:0:0:0:
202,236,228074,2,0,P|150:261|85:251,1,112.5,10|0,1:2|0:0,0:0:0:0:
0,188,228519,1,8,0:0:0:0:
94,65,228741,1,8,0:0:0:0:
94,65,228964,2,0,P|193:55|263:60,1,168.75,2|0,1:2|0:0,0:0:0:0:
303,65,229408,5,8,0:0:0:0:
431,2,229630,1,2,0:0:0:0:
506,119,229853,2,0,P|450:123|400:98,1,112.5,8|2,0:0|0:0,0:0:0:0:
505,246,230297,2,0,P|419:227|324:282,1,168.75,2|0,1:2|0:0,0:0:0:0:
312,289,230741,1,10,0:0:0:0:
257,172,230964,1,0,0:0:0:0:
204,348,231186,1,10,0:0:0:0:
162,226,231408,5,2,1:2:0:0:
49,352,231631,2,0,P|70:290|61:225,1,112.5,2|2,1:2|1:2,0:0:0:0:
8,123,232075,1,10,0:0:0:0:
162,185,232297,1,0,0:0:0:0:
87,53,232519,1,2,0:0:0:0:
65,212,232741,1,0,0:0:0:0:
265,134,232964,6,0,L|141:146,1,112.5,10|0,1:2|0:0,0:0:0:0:
261,252,233408,2,0,L|384:264,1,112.5,10|0,1:2|0:0,0:0:0:0:
499,151,233853,2,0,L|387:162,1,112.5,10|0,1:2|0:0,0:0:0:0:
261,252,234297,1,10,1:2:0:0:
212,115,234519,1,2,0:0:0:0:
212,115,234741,6,0,P|167:81|112:81,1,112.5,14|0,1:2|0:0,0:0:0:0:
301,113,235186,2,0,P|345:79|400:80,1,112.5,10|0,1:2|0:0,0:0:0:0:
494,163,235630,1,8,0:0:0:0:
383,252,235852,1,8,0:0:0:0:
383,252,236075,2,0,B|321:247|321:247|283:264|283:264|219:259,1,168.75,2|0,1:2|0:0,0:0:0:0:
170,257,236519,5,8,0:0:0:0:
222,384,236741,1,2,0:0:0:0:
310,217,236964,1,8,0:0:0:0:
322,370,237186,1,2,0:0:0:0:
139,267,237408,2,0,P|138:187|251:160,1,168.75,2|0,1:2|0:0,0:0:0:0:
255,152,237853,1,10,0:0:0:0:
218,17,238075,1,0,0:0:0:0:
416,51,238297,6,0,P|354:72|305:69,1,112.5,10|0,1:2|0:0,0:0:0:0:
452,190,238741,2,0,P|390:169|341:171,1,112.5,10|0,1:2|0:0,0:0:0:0:
189,242,239186,1,10,1:2:0:0:
322,279,239408,1,0,0:0:0:0:
233,143,239630,2,0,B|128:114|180:190|28:136,1,168.75,10|0,0:0|0:0,0:0:0:0:
26,141,240075,5,10,0:0:0:0:
113,27,240297,1,0,0:0:0:0:
140,191,240519,1,10,0:0:0:0:
270,122,240741,1,0,0:0:0:0:
113,27,240964,1,10,1:2:0:0:
146,197,241186,1,2,0:0:0:0:
146,197,241297,1,2,0:0:0:0:
146,197,241408,1,10,1:2:0:0:
309,112,241630,1,8,0:0:0:0:
309,112,241853,6,0,P|369:97|430:122,1,112.5,14|0,1:2|0:0,0:0:0:0:
203,112,242297,2,0,P|143:97|82:122,1,112.5,10|0,1:2|0:0,0:0:0:0:
3,186,242741,1,8,0:0:0:0:
117,314,242964,1,8,0:0:0:0:
117,314,243186,2,0,P|138:236|141:113,1,168.75,2|0,1:2|0:0,0:0:0:0:
130,99,243630,5,8,0:0:0:0:
244,194,243853,1,2,0:0:0:0:
340,42,244075,2,0,P|350:113|372:188,1,112.5,8|2,0:0|0:0,0:0:0:0:
438,254,244519,2,0,P|369:243|305:334,1,168.75,2|0,1:2|0:0,0:0:0:0:
299,349,244964,1,10,0:0:0:0:
449,224,245187,1,0,0:0:0:0:
345,79,245409,1,10,0:0:0:0:
274,173,245631,5,2,1:2:0:0:
213,26,245853,2,0,P|141:37|88:54,1,112.5,2|2,1:2|1:2,0:0:0:0:
0,112,246297,1,10,0:0:0:0:
104,221,246519,1,0,0:0:0:0:
108,21,246741,1,2,0:0:0:0:
0,149,246964,1,0,0:0:0:0:
199,66,247186,6,0,L|326:55,1,112.5,10|0,1:2|0:0,0:0:0:0:
121,183,247630,2,0,L|248:194,1,112.5,10|0,1:2|0:0,0:0:0:0:
3,47,248075,2,0,L|130:36,1,112.5,10|0,1:2|0:0,0:0:0:0:
292,22,248520,1,10,1:2:0:0:
413,128,248742,1,2,0:0:0:0:
413,128,248964,6,0,P|339:123|290:164,1,112.5,14|0,1:2|0:0,0:0:0:0:
99,128,249408,2,0,P|173:123|222:164,1,112.5,10|0,1:2|0:0,0:0:0:0:
264,264,249853,1,8,0:0:0:0:
90,352,250075,1,8,0:0:0:0:
90,352,250298,2,0,B|119:247|43:299|97:147,1,168.75,2|0,1:2|0:0,0:0:0:0:
94,147,250742,5,8,0:0:0:0:
224,131,250964,1,2,0:0:0:0:
197,338,251187,1,8,0:0:0:0:
78,221,251409,1,2,0:0:0:0:
305,280,251631,2,0,P|334:203|330:109,1,168.75,2|0,1:2|0:0,0:0:0:0:
323,71,252076,1,2,0:0:0:0:
216,161,252298,1,0,0:0:0:0:
89,45,252519,5,2,3:2:0:0:
89,45,252630,1,0,3:0:0:0:
89,45,252741,1,0,3:0:0:0:
89,45,252853,1,0,0:0:0:0:
89,45,252964,6,0,P|28:37|12:37,1,56.25,2|0,3:2|3:0,0:0:0:0:
160,168,253186,1,0,3:0:0:0:
160,168,253297,1,0,3:0:0:0:
160,168,253408,2,0,P|221:160|237:160,1,56.25,2|0,3:2|3:0,0:0:0:0:
330,232,253630,2,0,P|357:229|385:224,1,56.25,2|0,3:2|3:0,0:0:0:0:
500,178,253853,1,2,3:2:0:0:
512,122,253964,1,0,3:0:0:0:
502,66,254075,1,0,3:0:0:0:
448,39,254186,1,0,3:0:0:0:
391,58,254297,5,10,3:2:0:0:
345,247,254519,1,0,0:0:0:0:
280,128,254741,5,2,0:0:0:0:
330,335,254963,1,2,0:0:0:0:
426,216,255186,1,10,0:0:0:0:
205,166,255408,1,2,0:0:0:0:
205,166,255519,1,10,0:0:0:0:
205,166,255630,2,0,L|95:157,1,56.25,10|0,1:2|0:0,0:0:0:0:
12,151,255853,1,0,0:0:0:0:
12,151,255964,1,8,0:0:0:0:
12,151,256075,6,0,P|48:189|68:217,1,80.9999975280763,14|0,1:2|0:0,0:0:0:0:
182,220,256519,2,0,P|146:258|126:286,1,80.9999975280763,2|0,0:0|0:0,0:0:0:0:
79,371,256964,1,10,0:0:0:0:
256,320,257186,1,8,0:0:0:0:
256,320,257297,1,8,0:0:0:0:
256,320,257408,2,0,L|274:247,1,40.4999987640381,10|0,1:2|0:0,0:0:0:0:
288,153,257630,1,8,0:0:0:0:
288,153,257741,1,8,0:0:0:0:
288,153,257853,6,0,P|341:142|382:142,1,80.9999975280763,14|0,1:2|0:0,0:0:0:0:
444,255,258297,2,0,P|403:252|364:243,1,80.9999975280763,2|0,0:0|0:0,0:0:0:0:
261,193,258741,1,10,0:0:0:0:
157,261,258964,1,8,0:0:0:0:
157,261,259075,1,8,0:0:0:0:
157,261,259186,2,0,L|143:193,1,40.4999987640381,10|0,1:2|0:0,0:0:0:0:
122,99,259408,1,8,0:0:0:0:
122,99,259519,1,8,0:0:0:0:
122,99,259630,6,0,P|202:78|222:66,1,80.9999975280763,14|0,1:2|0:0,0:0:0:0:
342,155,260075,2,0,P|302:150|265:136,1,80.9999975280763,2|0,0:0|0:0,0:0:0:0:
370,40,260519,1,10,0:0:0:0:
495,135,260741,1,8,0:0:0:0:
495,135,260853,1,8,0:0:0:0:
495,135,260964,2,0,L|490:208,1,40.4999987640381,10|0,1:2|0:0,0:0:0:0:
483,329,261186,1,8,0:0:0:0:
483,329,261297,1,8,0:0:0:0:
483,329,261408,6,0,B|440:308|400:324|400:324|374:337|350:318|348:293|376:274|401:298,1,168.750006437302,10|0,0:0|0:0,0:0:0:0:
