osu file format v14

[General]
AudioFilename: audio.mp3
AudioLeadIn: 0
PreviewTime: 5865
Countdown: 0
SampleSet: Soft
StackLeniency: 0.7
Mode: 0
LetterboxInBreaks: 0
WidescreenStoryboard: 0

[Editor]
Bookmarks: 5865,12976,20087,23642,30753,38309,39642,53864,68087
DistanceSpacing: 1.7
BeatDivisor: 4
GridSize: 4
TimelineZoom: 1.3

[Metadata]
Title:Tarzan JJayJoker
TitleUnicode:Tarzan JJayJoker
Artist:Perfect & JJayJoker
ArtistUnicode:Perfect & JJayJoker
Creator:XVoIR
Version:ReFallera Trudny
Source:
Tags:disco polo youtube boy polish poland polska Krfawy ReFaller Bathory Witch Joker
BeatmapID:1125648
BeatmapSetID:509350

[Difficulty]
HPDrainRate:5
CircleSize:4
OverallDifficulty:6
ApproachRate:7
SliderMultiplier:1.6
SliderTickRate:1

[Events]
//Background and Video events
0,0,"bg.png",0,0
Video,-35,"tarzan.mp4"
//Break Periods
//Storyboard Layer 0 (Background)
//Storyboard Layer 1 (Fail)
//Storyboard Layer 2 (Pass)
//Storyboard Layer 3 (Foreground)
//Storyboard Sound Samples

[TimingPoints]
5865,444.444444444444,4,2,0,40,1,0
12087,-100,4,3,0,25,0,0
12753,-100,4,2,0,30,0,0
12976,-100,4,2,0,40,0,0
19198,-100,4,3,0,25,0,0
20531,-100,4,2,0,40,0,0
22753,-100,4,2,0,25,0,0
23642,-100,4,2,0,40,0,0
26087,-100,4,2,0,25,0,0
26309,-100,4,2,0,40,0,0
33198,-100,4,2,0,25,0,0
33420,-100,4,2,0,40,0,0
37864,-100,4,1,0,25,0,0
38309,-133.333333333333,4,2,0,30,0,0
39642,-90.9090909090909,4,2,0,45,0,1
40309,-90.9090909090909,4,2,0,35,0,1
40531,-90.9090909090909,4,2,0,45,0,1
40753,-90.9090909090909,4,2,0,35,0,1
40976,-90.9090909090909,4,2,0,45,0,1
41198,-90.9090909090909,4,2,0,35,0,1
41864,-90.9090909090909,4,2,0,45,0,1
42087,-90.9090909090909,4,2,0,35,0,1
42753,-90.9090909090909,4,2,0,45,0,1
44309,-90.9090909090909,4,2,0,35,0,1
44531,-90.9090909090909,4,2,0,45,0,1
44753,-90.9090909090909,4,2,0,35,0,1
45420,-90.9090909090909,4,2,0,45,0,1
45642,-90.9090909090909,4,2,0,35,0,1
45864,-90.9090909090909,4,2,0,45,0,1
46087,-90.9090909090909,4,2,0,35,0,1
46309,-90.9090909090909,4,2,0,45,0,1
47864,-90.9090909090909,4,2,0,35,0,1
48087,-90.9090909090909,4,2,0,45,0,1
48309,-90.9090909090909,4,2,0,35,0,1
48976,-90.9090909090909,4,2,0,45,0,1
49198,-90.9090909090909,4,2,0,35,0,1
49864,-90.9090909090909,4,2,0,45,0,1
50976,-90.9090909090909,4,2,0,35,0,1
51198,-90.9090909090909,4,2,0,45,0,1
51864,-90.9090909090909,4,2,0,35,0,1
52531,-90.9090909090909,4,2,0,45,0,1
52753,-90.9090909090909,4,2,0,40,0,1
52976,-90.9090909090909,4,2,0,50,0,1
53198,-90.9090909090909,4,2,0,45,0,1
53420,-90.9090909090909,4,2,0,55,0,1
53864,-90.9090909090909,4,2,0,45,0,1
54531,-90.9090909090909,4,2,0,35,0,1
54753,-90.9090909090909,4,2,0,45,0,1
54976,-90.9090909090909,4,2,0,35,0,1
55198,-90.9090909090909,4,2,0,45,0,1
55420,-90.9090909090909,4,2,0,35,0,1
56087,-90.9090909090909,4,2,0,45,0,1
56309,-90.9090909090909,4,2,0,35,0,1
56976,-90.9090909090909,4,2,0,45,0,1
58531,-90.9090909090909,4,2,0,35,0,1
58753,-90.9090909090909,4,2,0,45,0,1
58976,-90.9090909090909,4,2,0,35,0,1
59642,-90.9090909090909,4,2,0,45,0,1
59864,-90.9090909090909,4,2,0,35,0,1
60087,-90.9090909090909,4,2,0,45,0,1
60309,-90.9090909090909,4,2,0,35,0,1
60531,-90.9090909090909,4,2,0,45,0,1
62087,-90.9090909090909,4,2,0,35,0,1
62309,-90.9090909090909,4,2,0,45,0,1
62531,-90.9090909090909,4,2,0,35,0,1
63198,-90.9090909090909,4,2,0,45,0,1
63420,-90.9090909090909,4,2,0,35,0,1
64087,-90.9090909090909,4,2,0,45,0,1
64531,-90.9090909090909,4,2,0,45,0,1
65198,-90.9090909090909,4,2,0,35,0,1
65420,-90.9090909090909,4,2,0,45,0,1
66087,-90.9090909090909,4,2,0,35,0,1
66753,-90.9090909090909,4,2,0,45,0,1
66976,-90.9090909090909,4,2,0,40,0,1
67198,-90.9090909090909,4,2,0,50,0,1
67420,-90.9090909090909,4,2,0,45,0,1
67642,-90.9090909090909,4,2,0,55,0,1
68087,-100,4,2,0,50,0,0

[Colours]
Combo1 : 0,191,255
Combo2 : 0,255,168
Combo3 : 244,250,37

[HitObjects]
60,268,5865,6,0,B|47:308|62:346,1,80,4|0,3:1|0:0,0:0:0:0:
139,304,6309,2,0,B|152:264|136:225,1,80,4|0,3:0|0:0,0:0:0:0:
61,179,6753,2,0,B|37:121|57:61,2,120,4|0|0,3:0|0:0|0:0,0:0:0:0:
136,225,7642,5,4,3:0:0:0:
218,195,7864,1,0,0:0:0:0:
295,237,8087,1,4,3:0:0:0:
377,207,8309,1,0,0:0:0:0:
454,249,8531,2,0,B|478:307|458:367,2,120,4|0|4,3:0|0:0|3:0,0:0:0:0:
377,207,9420,6,0,L|404:50,1,160,4|4,3:0|3:0,0:0:0:0:
233,92,10309,2,0,L|219:170,1,80,4|0,3:0|0:0,0:0:0:0:
132,183,10753,2,0,L|145:104,1,80,4|0,3:0|0:0,0:0:0:0:
57,116,11198,6,0,L|29:278,1,160,4|4,3:0|3:0,0:0:0:0:
95,332,11864,1,0,0:0:0:0:
175,295,12087,2,0,L|182:256,4,40,6|2|2|2|2,0:0|2:3|2:3|2:3|2:3,0:0:0:0:
248,343,12753,1,4,3:0:0:0:
331,313,12976,6,0,L|412:305,2,80,4|0|4,3:0|0:0|3:0,0:0:0:0:
258,263,13642,1,0,0:0:0:0:
258,263,13864,2,0,B|235:203|255:145,2,120,4|0|0,3:0|0:0|0:0,0:0:0:0:
170,253,14753,6,0,L|89:263,1,80,4|0,3:0|0:0,0:0:0:0:
126,343,15198,2,0,L|205:333,1,80,4|0,3:0|0:0,0:0:0:0:
258,263,15642,2,0,B|318:240|376:260,2,120,4|0|4,3:0|0:0|3:0,0:0:0:0:
205,333,16531,6,0,B|125:302|47:329,2,160,4|4|4,3:0|3:0|3:0,0:0:0:0:
258,263,17642,1,0,0:0:0:0:
337,300,17864,1,4,3:0:0:0:
284,371,18087,1,0,0:0:0:0:
205,333,18309,6,0,B|156:263|179:179,1,160,4|4,3:0|3:0,0:0:0:0:
260,147,18976,1,0,0:0:0:0:
328,202,19198,2,0,L|373:194,2,40,6|2|2,0:0|0:0|2:0,0:0:0:0:
247,234,19642,1,6,0:0:0:0:
178,180,19864,2,0,L|132:172,2,40,2|2|4,0:0|0:0|0:1,0:0:0:0:
325,83,20531,5,4,3:0:0:0:
325,83,20976,2,0,B|366:66|402:86,1,80,4|0,3:0|0:0,0:0:0:0:
437,167,21420,2,0,B|395:183|359:163,1,80,4|0,3:0|0:0,0:0:0:0:
272,154,21864,6,0,B|239:236|279:308,1,160,4|4,3:0|3:0,0:0:0:0:
191,296,22531,1,0,0:0:0:0:
109,329,22753,2,0,L|100:367,4,40,2|2|2|2|2,3:2|0:0|0:0|0:0|3:2,0:0:0:0:
21,314,23420,1,0,3:0:0:0:
78,247,23642,6,0,B|106:217|101:173,1,80,4|0,3:1|0:0,0:0:0:0:
37,112,24087,2,0,B|8:141|13:185,1,80,4|0,3:0|0:0,0:0:0:0:
78,247,24531,2,0,B|160:214|232:254,1,160,4|4,3:0|3:0,0:0:0:0:
303,306,25198,1,0,0:0:0:0:
374,255,25420,6,0,B|387:211|387:211|359:100,1,160,4|4,3:0|3:0,0:0:0:0:
275,72,26087,2,0,L|265:33,2,40,2|2|4,0:3|0:3|3:0,0:0:0:0:
293,159,26531,1,0,0:0:0:0:
209,132,26753,1,4,3:0:0:0:
123,153,26975,1,4,3:0:0:0:
38,175,27198,6,0,B|12:249|53:330,1,160,4|4,3:0|3:0,0:0:0:0:
131,291,27864,1,0,0:0:0:0:
131,291,28087,2,0,B|160:262|204:267,1,80,4|0,3:0|0:0,0:0:0:0:
273,321,28531,2,0,B|317:326|346:297,1,80,4|0,3:0|0:0,0:0:0:0:
285,232,28976,6,0,B|245:160|277:76,2,160,4|4|4,3:0|3:0|3:0,0:0:0:0:
361,188,30087,1,0,0:0:0:0:
361,188,30309,2,0,B|377:146|357:110,1,80,4|4,3:0|3:0,0:0:0:0:
276,77,30753,6,0,B|231:96|231:96|122:77,1,160,4|4,3:0|3:0,0:0:0:0:
41,113,31420,1,0,0:0:0:0:
41,113,31642,2,0,B|67:187|26:268,1,160,4|4,3:0|3:0,0:0:0:0:
102,311,32309,1,0,0:0:0:0:
102,311,32531,6,0,B|146:291|146:291|256:311,1,160,4|4,3:0|3:0,0:0:0:0:
342,331,33198,1,2,0:0:0:0:
342,331,33309,1,2,0:0:0:0:
342,331,33420,1,4,3:0:0:0:
508,273,33864,1,4,3:0:0:0:
425,302,34087,1,4,3:0:0:0:
342,331,34309,5,4,3:0:0:0:
182,256,34753,2,0,L|99:270,1,80,4|0,3:0|0:0,0:0:0:0:
95,357,35198,2,0,L|173:343,1,80,4|0,3:0|0:0,0:0:0:0:
253,307,35642,1,4,3:0:0:0:
253,307,35864,6,0,L|279:149,1,160
353,197,36531,2,0,B|391:219|430:206,1,80,4|0,3:0|0:0,0:0:0:0:
401,123,36976,2,0,B|422:82|408:43,1,80,4|0,3:0|0:0,0:0:0:0:
327,76,37420,2,0,B|287:52|248:65,1,80,4|4,3:0|3:0,0:0:0:0:
278,149,37864,5,4,0:0:0:0:
278,149,38309,2,0,B|222:165|159:152|159:152|100:140|41:155,1,240.000009155274,4|0,0:0|3:0,0:0:0:0:
202,258,39642,6,0,B|378:248,1,176.000005371094,4|4,3:1|3:0,0:0:0:0:
474,246,40309,1,2,0:0:0:0:
476,343,40531,1,4,3:0:0:0:
379,345,40753,1,2,0:0:0:0:
377,248,40976,1,4,3:0:0:0:
474,246,41198,6,0,B|520:163|486:76,1,176.000005371094,2|2,0:0|0:0,0:0:0:0:
405,128,41864,1,4,3:0:0:0:
405,128,42087,2,0,B|312:138|243:72,1,176.000005371094,2|2,0:0|0:0,0:0:0:0:
150,95,42753,2,0,B|117:129|122:175,1,88.000002685547,4|4,3:0|3:0,0:0:0:0:
208,220,43198,6,0,B|147:204|89:245|29:220,2,176.000005371094,4|4|4,3:0|3:0|3:0,0:0:0:0:
301,245,44309,1,2,0:0:0:0:
233,313,44531,1,4,3:0:0:0:
326,338,44753,1,2,0:0:0:0:
132,338,45198,5,2,0:0:0:0:
132,338,45420,2,0,L|44:348,1,88.000002685547,4|2,3:0|0:0,0:0:0:0:
74,256,45864,2,0,L|162:246,1,88.000002685547,4|2,3:0|0:0,0:0:0:0:
233,313,46309,1,4,3:0:0:0:
329,302,46531,1,4,3:0:0:0:
400,369,46753,6,0,B|446:286|412:199,2,176.000005371094,4|4|4,3:0|3:0|3:0,0:0:0:0:
329,302,47864,1,2,0:0:0:0:
233,313,48086,1,4,3:0:0:0:
233,313,48309,6,0,L|58:332,1,176.000005371094,2|2,0:0|0:0,0:0:0:0:
30,238,48976,1,4,3:0:0:0:
30,238,49198,2,0,L|205:219,1,176.000005371094,2|2,0:0|0:0,0:0:0:0:
298,241,49864,1,4,3:0:0:0:
233,313,50087,1,4,3:0:0:0:
204,219,50309,6,0,B|177:164|177:164|190:50,1,176.000005371094,4|4,3:0|3:0,0:0:0:0:
281,83,50976,1,2,0:0:0:0:
281,83,51198,2,0,B|326:92|363:62,2,88.000002685547,4|0|4,3:0|0:0|3:0,0:0:0:0:
189,50,51864,1,2,0:0:0:0:
197,243,52309,5,2,0:0:0:0:
197,243,52531,2,0,L|106:256,1,88.000002685547,4|2,3:0|0:0,0:0:0:0:
188,338,52976,2,0,L|275:325,1,88.000002685547,4|2,3:0|0:0,0:0:0:0:
388,336,53420,2,0,B|420:301|415:255,1,88.000002685547,4|4,3:0|3:0,0:0:0:0:
287,219,53864,6,0,B|111:209,1,176.000005371094,4|4,3:1|3:0,0:0:0:0:
15,207,54531,1,2,0:0:0:0:
13,304,54753,1,4,3:0:0:0:
110,306,54975,1,2,0:0:0:0:
112,209,55198,1,4,3:0:0:0:
15,207,55420,6,0,B|-31:124|3:37,1,176.000005371094,2|2,0:0|0:0,0:0:0:0:
84,89,56086,1,4,3:0:0:0:
84,89,56309,2,0,B|176:100|245:34,1,176.000005371094,2|2,0:0|0:0,0:0:0:0:
339,56,56975,2,0,B|371:91|366:137,1,88.000002685547,4|4,3:0|3:0,0:0:0:0:
281,181,57420,6,0,B|342:165|400:206|460:181,2,176.000005371094,4|4|4,3:0|3:0|3:0,0:0:0:0:
188,206,58531,1,2,0:0:0:0:
256,274,58753,1,4,3:0:0:0:
163,299,58975,1,2,0:0:0:0:
357,299,59420,5,2,0:0:0:0:
357,299,59642,2,0,L|445:309,1,88.000002685547,4|2,3:0|0:0,0:0:0:0:
415,217,60086,2,0,L|327:207,1,88.000002685547,4|2,3:0|0:0,0:0:0:0:
256,274,60531,1,4,3:0:0:0:
159,264,60753,1,4,3:0:0:0:
89,330,60975,6,0,B|43:247|77:160,2,176.000005371094,4|4|4,3:0|3:0|3:0,0:0:0:0:
159,264,62086,1,2,0:0:0:0:
256,274,62308,1,4,3:0:0:0:
256,274,62531,6,0,L|431:293,1,176.000005371094,2|2,0:0|0:0,0:0:0:0:
459,199,63198,1,4,3:0:0:0:
459,199,63420,2,0,L|284:180,1,176.000005371094,2|2,0:0|0:0,0:0:0:0:
191,202,64086,1,4,3:0:0:0:
256,274,64309,1,4,3:0:0:0:
285,180,64531,6,0,B|312:125|312:125|299:11,1,176.000005371094,4|4,3:0|3:0,0:0:0:0:
208,44,65198,1,2,0:0:0:0:
208,44,65420,2,0,B|162:54|125:24,2,88.000002685547,4|0|4,3:0|0:0|3:0,0:0:0:0:
300,11,66086,1,2,0:0:0:0:
398,177,66531,5,2,0:0:0:0:
398,177,66753,2,0,L|489:190,1,88.000002685547,4|2,3:0|0:0,0:0:0:0:
407,272,67198,2,0,L|320:259,1,88.000002685547,4|2,3:0|0:0,0:0:0:0:
207,270,67642,2,0,B|175:235|180:189,1,88.000002685547,4|4,3:0|3:0,0:0:0:0:
285,102,68087,5,4,3:1:0:0:
