osu file format v14

[General]
AudioFilename: audio.mp3
AudioLeadIn: 0
PreviewTime: 5865
Countdown: 0
SampleSet: Normal
StackLeniency: 0.5
Mode: 0
LetterboxInBreaks: 0
WidescreenStoryboard: 0

[Editor]
DistanceSpacing: 1
BeatDivisor: 2
GridSize: 4
TimelineZoom: 1

[Metadata]
Title:Tarzan JJayJoker
TitleUnicode:Tarzan JJayJoker
Artist:Perfect & JJayJoker
ArtistUnicode:Perfect & JJayJoker
Creator:XVoIR
Version:Krfawego Normalny
Source:
Tags:disco polo youtube boy polish poland polska Krfawy ReFaller Bathory Witch Joker
BeatmapID:1083221
BeatmapSetID:509350

[Difficulty]
HPDrainRate:4
CircleSize:4
OverallDifficulty:4
ApproachRate:5
SliderMultiplier:1.4
SliderTickRate:1

[Events]
//Background and Video events
0,0,"bg.png",0,0
Video,-35,"tarzan.mp4"
//Break Periods
//Storyboard Layer 0 (Background)
//Storyboard Layer 1 (Fail)
//Storyboard Layer 2 (Pass)
//Storyboard Layer 3 (Foreground)
//Storyboard Sound Samples

[TimingPoints]
5865,444.444444444444,4,1,0,55,1,0
39642,-100,4,1,0,55,0,1
68087,-100,4,1,0,55,0,0

[Colours]
Combo1 : 0,191,255
Combo2 : 0,255,168
Combo3 : 244,250,37

[HitObjects]
241,176,5865,6,0,B|184:192|160:160|103:176,2,140,2|8|2,0:2|0:2|0:2,0:0:0:0:
360,157,7198,1,8,0:2:0:0:
461,221,7642,2,0,P|474:287|432:340,1,140,2|10,0:2|0:2,0:0:0:0:
363,355,8309,1,0,0:0:0:0:
320,299,8531,2,0,P|325:231|380:191,2,140,2|12|2,0:2|0:2|0:2,0:0:0:0:
433,341,9864,5,10,0:2:0:0:
475,228,10309,1,2,0:2:0:0:
433,115,10753,1,10,0:2:0:0:
348,28,11198,2,0,B|320:36|292:28|292:28|344:68|328:144|256:184|184:144|168:68|220:28|220:28|192:36|164:28,1,420,0|12,0:0|0:2,0:0:0:0:
94,23,12753,1,0,0:0:0:0:
30,53,12976,6,0,P|22:105|56:184,2,140,2|10|2,0:2|0:2|0:2,0:0:0:0:
164,28,14309,1,10,0:2:0:0:
190,163,14753,2,0,B|198:207|198:207|178:315,1,140,2|10,0:2|0:2,0:0:0:0:
138,357,15420,1,0,0:0:0:0:
95,300,15642,2,0,B|77:206|77:206|85:162,2,140,2|12|2,0:2|0:2|0:2,0:0:0:0:
207,343,16976,5,8,0:2:0:0:
319,300,17420,1,2,0:2:0:0:
362,188,17864,2,0,P|380:116|381:87,2,70,10|0|2,0:2|0:0|0:2,0:0:0:0:
319,300,18753,1,8,0:2:0:0:
207,343,19198,2,0,B|113:361|113:361|69:353,2,140,2|12|2,0:2|0:2|0:2,0:0:0:0:
319,300,20531,5,8,0:2:0:0:
362,188,20976,2,0,P|380:116|381:87,1,70,2|0,0:2|0:0,0:0:0:0:
362,52,21420,2,0,P|434:70|463:71,2,70,10|0|2,0:2|0:0|0:2,0:0:0:0:
256,110,22309,1,8,0:2:0:0:
150,52,22753,2,0,P|82:122|89:166,1,140,4|10,0:2|0:2,0:0:0:0:
106,224,23420,1,0,0:0:0:0:
160,268,23642,6,0,B|256:310|256:310|352:268,2,210,4|0|10,0:2|0:0|0:2,0:0:0:0:
106,224,25198,1,2,0:2:0:0:
85,157,25420,2,0,P|93:89|150:52,2,140,0|10|4,0:0|0:2|0:2,0:0:0:0:
160,268,26753,2,0,P|193:279|227:285,1,70,8|2,0:2|0:2,0:0:0:0:
296,268,27198,6,0,B|353:252|377:284|434:268,1,140,4|8,0:2|0:2,0:0:0:0:
462,130,28087,2,0,B|396:141|396:141|255:115,2,210,2|2|12,0:2|0:2|0:2,0:0:0:0:
510,20,29864,1,4,0:2:0:0:
400,68,30309,2,0,L|317:53,1,70,10|2,0:2|0:2,0:0:0:0:
262,42,30753,6,0,B|217:54|182:25|182:25|184:59|184:59|161:103|181:147,2,210,4|2|10,0:2|0:2|0:2,0:0:0:0:
352,123,32531,2,0,B|372:167|349:211|349:211|351:245|351:245|316:216|271:228,2,210,0|2|12,0:0|0:2|0:2,0:0:0:0:
332,55,34087,1,2,0:2:0:0:
262,42,34309,6,0,P|195:22|128:39,1,140,4|10,0:2|0:2,0:0:0:0:
53,185,35198,2,0,P|38:252|62:317,1,140,2|10,0:2|0:2,0:0:0:0:
94,381,35864,1,0,0:0:0:0:
160,358,36087,2,0,B|256:316|256:316|352:358,2,210,4|4|10,0:2|0:2|0:2,0:0:0:0:
94,381,37642,1,0,0:0:0:0:
62,318,37864,5,0,0:0:0:0:
114,209,38309,1,12,0:2:0:0:
113,209,39642,6,0,P|130:178|130:143,1,70,4|2,0:0|0:2,0:0:0:0:
129,73,40087,2,0,P|163:72|194:56,1,70,8|2,0:0|0:2,0:0:0:0:
256,22,40531,2,0,B|296:22|296:22|324:14|324:14|364:14,2,105,2|4|2,0:2|0:2|0:2,0:0:0:0:
194,56,41420,2,0,P|163:72|129:73,1,70,2|0,0:2|0:0,0:0:0:0:
60,56,41864,2,0,P|60:90|149:140,2,140,8|2|8,0:0|0:2|0:0,0:0:0:0:
129,73,42976,1,2,0:2:0:0:
195,96,43198,6,0,P|210:126|153:211,1,140,4|8,0:0|0:0,0:0:0:0:
93,188,43864,1,2,0:2:0:0:
22,194,44087,2,0,P|22:228|38:259,1,70,2|0,0:2|0:0,0:0:0:0:
107,280,44531,2,0,P|137:297|171:298,1,70,8|0,0:0|0:0,0:0:0:0:
223,249,44976,2,0,P|252:231|266:135,1,140,4|8,0:2|0:0,0:0:0:0:
156,48,45864,2,0,B|121:96|143:129|108:177,1,140,2|8,0:2|0:0,0:0:0:0:
65,233,46531,1,0,0:0:0:0:
122,273,46753,6,0,P|156:273|186:290,1,70,4|2,0:0|0:2,0:0:0:0:
253,316,47198,2,0,P|287:315|317:298,1,70,8|2,0:0|0:2,0:0:0:0:
331,230,47642,2,0,B|302:201|302:201|288:176|288:176|260:147,2,105,2|4|2,0:2|0:2|0:2,0:0:0:0:
399,216,48531,2,0,P|416:186|417:152,1,70,2|2,0:2|0:2,0:0:0:0:
356,115,48976,2,0,P|380:90|478:118,2,140,8|2|8,0:0|0:2|0:0,0:0:0:0:
320,175,50087,1,2,0:2:0:0:
256,205,50309,6,0,P|221:204|191:187,1,70,4|2,0:0|0:2,0:0:0:0:
165,122,50753,1,8,0:0:0:0:
187,54,50976,1,2,0:2:0:0:
258,44,51198,2,0,B|318:48|330:86|390:88,1,140,2|8,0:2|0:0,0:0:0:0:
457,62,51864,1,2,0:2:0:0:
507,192,52309,2,0,P|461:228|380:224,1,140,2|2,0:2|0:2,0:0:0:0:
321,190,52976,2,0,P|281:133|285:65,1,140,2|8,0:2|0:0,0:0:0:0:
162,133,53864,6,0,P|151:166|158:200,1,70,4|2,0:0|0:2,0:0:0:0:
157,272,54309,2,0,P|191:273|222:289,1,70,8|2,0:0|0:2,0:0:0:0:
284,323,54753,2,0,B|324:323|324:323|352:331|352:331|392:331,2,105,2|4|2,0:2|0:2|0:2,0:0:0:0:
222,289,55642,2,0,P|191:273|157:272,1,70,2|0,0:2|0:0,0:0:0:0:
88,289,56087,2,0,P|88:255|177:205,2,140,8|2|8,0:0|0:2|0:0,0:0:0:0:
157,272,57198,1,2,0:2:0:0:
223,249,57420,6,0,P|238:219|181:134,1,140,4|8,0:0|0:0,0:0:0:0:
121,157,58086,1,2,0:2:0:0:
50,151,58309,2,0,P|50:117|66:86,1,70,2|0,0:2|0:0,0:0:0:0:
135,65,58753,2,0,P|165:48|199:47,1,70,8|0,0:0|0:0,0:0:0:0:
251,96,59198,2,0,P|280:114|294:210,1,140,4|8,0:2|0:0,0:0:0:0:
184,297,60086,2,0,B|149:249|171:216|136:168,1,140,2|8,0:2|0:0,0:0:0:0:
93,112,60753,1,0,0:0:0:0:
150,72,60975,6,0,P|184:72|214:55,1,70,4|2,0:0|0:2,0:0:0:0:
281,29,61420,2,0,P|315:29|345:46,1,70,8|2,0:0|0:2,0:0:0:0:
359,115,61864,2,0,B|330:143|330:143|316:168|316:168|288:197,2,105,2|4|2,0:2|0:2|0:2,0:0:0:0:
428,128,62753,2,0,P|444:158|445:192,1,70,2|2,0:2|0:2,0:0:0:0:
385,230,63198,2,0,P|409:254|507:226,2,140,8|2|8,0:0|0:2|0:0,0:0:0:0:
348,170,64309,1,2,0:2:0:0:
284,140,64531,6,0,P|249:140|219:157,1,70,4|2,0:0|0:2,0:0:0:0:
193,223,64975,1,8,0:0:0:0:
215,291,65198,1,2,0:2:0:0:
284,301,65420,2,0,B|344:297|356:259|416:257,1,140,2|8,0:2|0:0,0:0:0:0:
483,283,66086,1,2,0:2:0:0:
507,145,66531,2,0,P|461:109|380:113,1,140,2|2,0:2|0:2,0:0:0:0:
321,147,67198,2,0,P|281:204|285:272,1,140,2|8,0:2|0:0,0:0:0:0:
369,383,68087,5,4,2:1:0:0:
