osu file format v14

[General]
AudioFilename: audio.mp3
AudioLeadIn: 0
PreviewTime: 5865
Countdown: 0
SampleSet: Normal
StackLeniency: 0.5
Mode: 0
LetterboxInBreaks: 0
WidescreenStoryboard: 0

[Editor]
DistanceSpacing: 1.1
BeatDivisor: 4
GridSize: 4
TimelineZoom: 0.9

[Metadata]
Title:Tarzan JJayJoker
TitleUnicode:Tarzan JJayJoker
Artist:Perfect & JJayJoker
ArtistUnicode:Perfect & JJayJoker
Creator:XVoIR
Version:Batorego Prosty
Source:
Tags:disco polo youtube boy polish poland polska Krfawy ReFaller Bathory Witch Joker
BeatmapID:1158520
BeatmapSetID:509350

[Difficulty]
HPDrainRate:3
CircleSize:4
OverallDifficulty:3
ApproachRate:3
SliderMultiplier:1.2
SliderTickRate:1

[Events]
//Background and Video events
0,0,"bg.png",0,0
Video,-35,"tarzan.mp4"
//Break Periods
//Storyboard Layer 0 (Background)
//Storyboard Layer 1 (Fail)
//Storyboard Layer 2 (Pass)
//Storyboard Layer 3 (Foreground)
//Storyboard Sound Samples

[TimingPoints]
5865,444.444444444444,4,1,0,55,1,0
39642,-100,4,1,0,55,0,1
68087,-100,4,1,0,55,0,0

[Colours]
Combo1 : 0,191,255
Combo2 : 0,255,168
Combo3 : 244,250,37

[HitObjects]
148,24,5865,6,0,B|148:136|148:136|152:144|152:144|152:268,1,240,2|2,0:2|0:2,0:0:0:0:
181,367,7198,1,8,0:2:0:0:
285,337,7642,2,0,P|304:282|287:224,1,120,2|8,0:2|0:2,0:0:0:0:
210,150,8531,2,0,P|190:94|208:36,1,120,2|12,0:2|0:2,0:0:0:0:
300,92,9420,6,0,L|90:225,1,240,2|2,0:2|0:2,0:0:0:0:
3,274,10753,1,8,0:2:0:0:
56,368,11198,2,0,L|266:235,1,240
352,185,12531,1,12,0:2:0:0:
356,76,12976,6,0,B|288:76|256:130|256:130|224:76|156:76,1,240,2|2,0:2|0:2,0:0:0:0:
47,60,14309,1,8,0:2:0:0:
31,168,14753,2,0,B|50:286|50:286|154:344,1,240,2|2,0:2|0:2,0:0:0:0:
256,381,16086,1,12,0:2:0:0:
357,344,16531,6,0,B|461:286|461:286|481:168,1,240,2|2,0:2|0:2,0:0:0:0:
465,60,17864,1,8,0:2:0:0:
364,20,18309,2,0,B|350:28|350:28|350:36|350:36|343:32|343:32|235:94,1,120,2|8,0:2|0:2,0:0:0:0:
258,182,19198,2,0,B|271:174|271:174|271:165|271:165|278:170|278:170|386:108,1,120,2|12,0:2|0:2,0:0:0:0:
343,234,20087,6,0,B|329:242|329:242|329:250|329:250|322:246|322:246|214:308,1,120,2|8,0:2|0:2,0:0:0:0:
154,343,20976,1,2,0:2:0:0:
75,270,21420,2,0,P|64:156|161:95,1,240,8|8,0:2|0:2,0:0:0:0:
256,145,22753,1,4,0:2:0:0:
350,94,23198,2,0,P|380:99|407:112,2,60,8|2|4,0:2|0:2|0:2,0:0:0:0:
256,145,24087,6,0,L|46:12,2,240,8|10|8,0:2|0:2|0:2,0:0:0:0:
339,214,26309,1,4,0:2:0:0:
422,283,26753,1,8,0:2:0:0:
372,374,27197,6,0,P|314:388|256:375,1,120,4|8,0:2|0:2,0:0:0:0:
157,329,28087,1,2,0:2:0:0:
57,282,28531,2,0,B|177:282|177:282|289:238,1,240,8|12,0:2|0:2,0:0:0:0:
386,192,29864,1,6,0:2:0:0:
339,94,30309,2,0,P|319:70|294:53,2,60,8|2|4,0:2|0:2|0:2,0:0:0:0:
386,192,31198,6,0,B|274:192|274:192|266:196|266:196|142:196,1,240,8|8,0:2|0:2,0:0:0:0:
42,167,32531,2,0,P|69:115|123:88,1,120,2|8,0:2|0:2,0:0:0:0:
229,93,33420,2,0,P|283:69|313:16,2,120,4|12|4,0:2|0:2|0:2,0:0:0:0:
123,89,34753,6,0,B|123:157|177:189|177:189|123:221|123:289,1,240,10|10,0:2|0:2,0:0:0:0:
191,374,36087,2,0,B|204:366|204:366|212:371|212:371|211:362|211:362|342:286,2,180,2|4|2,0:2|0:2|0:2,0:0:0:0:
123,290,37864,1,0,0:2:0:0:
191,205,38309,1,4,0:2:0:0:
191,205,39642,6,0,L|331:294,1,120,6|10,0:0|0:0,0:0:0:0:
266,164,40531,2,0,L|406:253,1,120,2|10,0:0|0:0,0:0:0:0:
341,123,41420,2,0,L|510:230,2,180,2|2|10,0:0|0:0|0:0,0:0:0:0:
233,107,43198,6,0,P|304:19|415:44,1,240,2|2,0:0|0:0,0:0:0:0:
448,149,44531,1,10,0:0:0:0:
341,123,44976,2,0,B|282:157|281:219|281:219|226:189|167:223,1,240,2|2,0:2|0:0,0:0:0:0:
69,270,46309,1,10,0:0:0:0:
62,162,46753,6,0,B|60:146|60:146|52:143|52:143|59:138|59:138|49:14,1,120,6|10,0:0|0:0,0:0:0:0:
142,111,47642,2,0,B|143:126|143:126|151:129|151:129|144:134|144:134|154:258,1,120,2|10,0:0|0:0,0:0:0:0:
163,328,48531,2,0,B|163:250|240:250|240:173,2,180,2|2|10,0:0|0:0|0:0,0:0:0:0:
269,344,50309,6,0,B|202:385|161:320|96:363,2,180,2|2|10,0:2|0:2|0:0,0:0:0:0:
376,357,52087,2,0,P|468:261|474:157,1,240,2|2,0:2|0:0,0:0:0:0:
376,112,53420,1,8,0:0:0:0:
321,205,53864,6,0,L|180:294,1,120,6|10,0:0|0:0,0:0:0:0:
246,164,54753,2,0,L|105:253,1,120,2|10,0:0|0:0,0:0:0:0:
171,123,55642,2,0,L|1:230,2,180,2|2|10,0:0|0:0|0:0,0:0:0:0:
278,107,57420,6,0,P|207:19|96:44,1,240,2|2,0:0|0:0,0:0:0:0:
64,149,58753,1,10,0:0:0:0:
171,123,59198,2,0,B|229:157|230:219|230:219|285:189|344:223,1,240,2|2,0:2|0:0,0:0:0:0:
443,270,60531,1,10,0:0:0:0:
450,162,60975,6,0,B|451:146|451:146|459:143|459:143|452:138|452:138|462:14,1,120,6|10,0:0|0:0,0:0:0:0:
370,111,61864,2,0,B|368:126|368:126|360:129|360:129|367:134|367:134|357:258,1,120,2|10,0:0|0:0,0:0:0:0:
349,328,62753,2,0,B|349:250|271:250|271:173,2,180,2|2|10,0:0|0:0|0:0,0:0:0:0:
243,344,64531,6,0,B|309:385|350:320|415:363,2,180,2|2|10,0:2|0:2|0:0,0:0:0:0:
136,357,66309,2,0,P|44:261|38:157,1,240,2|2,0:2|0:0,0:0:0:0:
136,112,67642,1,8,0:0:0:0:
191,205,68087,5,4,2:1:0:0:
