osu file format v14

[General]
AudioFilename: audio.mp3
AudioLeadIn: 0
PreviewTime: 71924
Countdown: 0
SampleSet: Soft
StackLeniency: 0.7
Mode: 0
LetterboxInBreaks: 0
WidescreenStoryboard: 0

[Editor]
Bookmarks: 5341,13424,29424,40091,48091,61424,72091,82758,93424,104091,114758,128091,138758
DistanceSpacing: 0.5
BeatDivisor: 4
GridSize: 4
TimelineZoom: 2.3

[Metadata]
Title:eu quero
TitleUnicode:eu quero
Artist:PerdoVanse
ArtistUnicode:PerdoVanse
Creator:Seto Kousuke
Version:O maravilhoso mundo de Net0land
Source:
Tags:
BeatmapID:1913135
BeatmapSetID:916034

[Difficulty]
HPDrainRate:5
CircleSize:4
OverallDifficulty:9
ApproachRate:9.4
SliderMultiplier:1.8
SliderTickRate:1

[Events]
//Background and Video events
0,0,"net0land ultimate.jpg",0,0
//Break Periods
//Storyboard Layer 0 (Background)
//Storyboard Layer 1 (Fail)
//Storyboard Layer 2 (Pass)
//Storyboard Layer 3 (Foreground)
//Storyboard Sound Samples

[TimingPoints]
5425,333.333333333333,4,2,1,70,1,0
7758,-222.222222222221,4,2,1,70,0,0
8091,-100,4,2,1,70,0,0
20091,-66.6666666666667,4,2,1,70,0,0
20758,-100,4,2,1,70,0,0
29424,-66.6666666666667,4,2,1,70,0,1
40091,-100,4,2,1,70,0,0
42758,-50,4,2,1,70,0,0
45424,-117.647058823529,4,2,1,70,0,0
48091,-100,4,2,1,70,0,0
72091,-52.6315789473684,4,2,1,70,0,0
94758,-66.6666666666667,4,2,1,70,0,1
104091,-50,4,2,1,70,0,0
114258,-58.8235294117647,4,2,1,70,0,0
114424,-71.4285714285714,4,2,1,70,0,0
114591,-100,4,2,1,70,0,0
117424,-58.8235294117647,4,2,1,70,0,0

[Colours]
Combo1 : 10,74,182
Combo2 : 196,47,51
Combo3 : 67,165,66
Combo4 : 228,223,20

[HitObjects]
100,238,5424,5,0,0:0:0:0:
216,103,5591,1,0,0:0:0:0:
258,328,5758,1,0,0:0:0:0:
414,215,5924,1,0,0:0:0:0:
397,199,6007,1,0,0:0:0:0:
377,190,6090,1,0,0:0:0:0:
354,188,6173,1,0,0:0:0:0:
333,194,6258,2,0,P|322:220|316:255,1,45
258,328,6424,2,0,P|260:296|251:260,1,45
167,190,6591,2,0,P|177:216|184:251,1,45
249,107,6758,5,0,0:0:0:0:
95,41,6924,1,0,0:0:0:0:
337,7,7091,1,0,0:0:0:0:
151,111,7258,1,0,0:0:0:0:
151,133,7341,1,0,0:0:0:0:
151,155,7424,1,0,0:0:0:0:
151,178,7507,1,0,0:0:0:0:
151,200,7591,2,0,P|164:220|188:235,1,45
332,192,7758,6,0,P|303:201|284:224,1,60.7499981460572
236,347,8091,6,0,P|238:309|227:263,1,45
138,304,8258,2,0,P|137:326|140:348,1,45
325,351,8424,6,0,P|328:329|328:307,1,45
341,357,8591,6,0,P|343:334|343:312,1,45
232,155,8758,5,0,0:0:0:0:
421,207,8924,1,0,0:0:0:0:
421,207,9008,1,0,0:0:0:0:
421,207,9091,2,0,L|421:132,1,45
340,66,9258,2,0,L|340:111,1,45
260,251,9424,5,0,0:0:0:0:
143,150,9591,1,0,0:0:0:0:
139,154,9674,1,0,0:0:0:0:
135,158,9758,2,0,P|112:164|83:166,1,45
160,57,9924,2,0,P|182:65|206:81,1,45
232,155,10091,5,0,0:0:0:0:
79,81,10258,2,0,P|77:57|81:28,1,45
284,86,10424,1,0,0:0:0:0:
15,134,10591,1,0,0:0:0:0:
139,297,10758,6,0,P|166:288|191:261,1,45
315,265,10924,2,0,P|322:286|336:303,1,45
226,386,11091,6,0,P|238:367|243:345,1,45
243,384,11258,6,0,P|254:364|259:342,1,45
57,354,11424,5,0,0:0:0:0:
242,209,11591,1,0,0:0:0:0:
242,209,11674,1,0,0:0:0:0:
242,209,11758,2,0,P|253:187|267:149,1,45
159,61,11924,2,0,P|157:85|161:125,1,45
379,104,12091,6,0,P|379:82|373:53,1,45
360,236,12258,1,0,0:0:0:0:
377,248,12341,1,0,0:0:0:0:
398,253,12424,2,0,P|433:240|452:226,1,45
235,279,12591,1,0,0:0:0:0:
222,296,12674,1,0,0:0:0:0:
218,317,12758,1,0,0:0:0:0:
90,212,12924,6,0,P|68:218|49:229,1,45
171,123,13091,2,0,P|183:142|199:159,1,45
82,73,13258,2,0,P|72:93|58:111,1,45
46,376,13424,5,0,0:0:0:0:
164,249,13591,1,0,0:0:0:0:
348,340,13758,1,0,0:0:0:0:
157,358,13924,1,0,0:0:0:0:
157,358,14008,1,0,0:0:0:0:
157,358,14091,1,0,0:0:0:0:
295,233,14258,1,0,0:0:0:0:
428,379,14424,2,0,P|449:370|468:358,1,45
455,199,14591,2,0,P|450:221|442:241,1,45
254,350,14758,5,0,0:0:0:0:
232,140,14924,1,0,0:0:0:0:
98,237,15091,1,0,0:0:0:0:
303,241,15258,1,0,0:0:0:0:
303,241,15342,1,0,0:0:0:0:
303,241,15425,1,0,0:0:0:0:
121,132,15591,1,0,0:0:0:0:
332,105,15758,2,0,P|327:139|312:171,1,45
186,59,15924,2,0,P|191:37|200:16,1,45
410,12,16091,5,0,0:0:0:0:
255,98,16258,1,0,0:0:0:0:
458,109,16424,1,0,0:0:0:0:
310,14,16591,1,0,0:0:0:0:
310,14,16674,1,0,0:0:0:0:
310,14,16758,1,0,0:0:0:0:
498,24,16924,1,0,0:0:0:0:
322,186,17091,2,0,L|264:176,1,45
439,193,17258,2,0,L|483:185,1,45
377,282,17424,6,0,L|377:327,1,45
385,107,17591,1,0,0:0:0:0:
184,270,17758,5,0,0:0:0:0:
154,260,17924,5,0,0:0:0:0:
154,228,18091,5,0,0:0:0:0:
184,219,18257,5,0,0:0:0:0:
202,244,18424,5,0,0:0:0:0:
78,185,18591,1,0,0:0:0:0:
267,53,18758,2,0,L|321:52,1,45
121,38,18924,5,0,0:0:0:0:
114,68,19091,5,0,0:0:0:0:
109,99,19258,5,0,0:0:0:0:
274,173,19424,2,0,L|367:172,1,90
379,167,19674,1,0,0:0:0:0:
394,162,19758,1,0,0:0:0:0:
267,53,19924,1,0,0:0:0:0:
142,203,20091,6,0,B|89:215|44:195|44:195|104:177,1,135.000005149842
226,246,20341,1,0,0:0:0:0:
230,269,20424,2,0,B|242:322|222:367|222:367|204:307,1,135.000005149842
273,185,20675,1,0,0:0:0:0:
296,181,20758,2,0,P|331:184|362:197,1,45
456,299,20924,1,0,0:0:0:0:
460,126,21091,5,0,0:0:0:0:
459,214,21258,1,0,0:0:0:0:
462,38,21424,5,0,0:0:0:0:
287,32,21591,1,0,0:0:0:0:
340,186,21758,1,0,0:0:0:0:
372,96,21924,5,0,0:0:0:0:
225,190,22091,1,0,0:0:0:0:
357,286,22258,1,0,0:0:0:0:
236,98,22424,5,0,0:0:0:0:
159,268,22591,1,0,0:0:0:0:
340,186,22758,5,0,0:0:0:0:
100,79,22924,1,0,0:0:0:0:
28,316,23091,5,0,0:0:0:0:
236,98,23258,1,0,0:0:0:0:
282,355,23424,5,0,0:0:0:0:
30,179,23591,1,0,0:0:0:0:
337,63,23758,5,0,0:0:0:0:
33,18,23924,1,0,0:0:0:0:
162,221,24091,6,0,L|219:218,1,45
309,210,24341,1,0,0:0:0:0:
236,98,24424,1,0,0:0:0:0:
113,335,24591,5,0,0:0:0:0:
205,334,24758,1,0,0:0:0:0:
26,338,24924,1,0,0:0:0:0:
301,338,25091,1,0,0:0:0:0:
301,338,25424,5,0,0:0:0:0:
191,188,25591,1,0,0:0:0:0:
449,238,25758,1,0,0:0:0:0:
449,238,25841,2,0,L|387:239,1,45
282,125,26008,1,0,0:0:0:0:
282,125,26091,6,0,L|384:123,1,90
123,47,26424,5,0,0:0:0:0:
191,188,26591,1,0,0:0:0:0:
70,290,26758,1,0,0:0:0:0:
84,183,26924,1,0,0:0:0:0:
84,183,27008,1,0,0:0:0:0:
84,183,27091,1,0,0:0:0:0:
209,322,27258,1,0,0:0:0:0:
209,322,27591,5,0,0:0:0:0:
209,322,27674,1,0,0:0:0:0:
209,322,27758,1,0,0:0:0:0:
310,287,27924,1,0,0:0:0:0:
428,358,28091,5,0,0:0:0:0:
428,358,28258,1,0,0:0:0:0:
461,226,28424,1,0,0:0:0:0:
507,308,28591,1,0,0:0:0:0:
371,216,28758,5,0,0:0:0:0:
371,216,28924,1,0,0:0:0:0:
473,134,29091,1,0,0:0:0:0:
461,226,29258,1,0,0:0:0:0:
359,59,29424,6,0,B|361:48|315:24|315:24|256:71|177:53,1,202.500007724762
16,82,29758,2,0,P|90:86|84:171,1,135.000005149842
191,247,30008,1,0,0:0:0:0:
191,247,30091,2,0,P|184:208|205:163,1,67.5000025749208
348,180,30258,2,0,P|355:212|348:245,1,67.5000025749208
268,371,30424,2,0,L|268:303,1,67.5000025749208
270,58,30591,2,0,L|270:125,1,67.5000025749208
176,351,30758,6,0,B|112:356|78:386|78:386|103:333|87:263,1,202.500007724762
105,135,31091,2,0,P|82:113|37:112,1,67.5000025749208
173,255,31258,2,0,P|200:238|212:195,1,67.5000025749208
270,58,31424,2,0,P|237:50|207:63,1,67.5000025749208
336,240,31591,2,0,P|366:228|384:200,1,67.5000025749208
386,24,31758,2,0,P|367:51|369:85,1,67.5000025749208
500,198,31924,2,0,P|495:165|473:140,1,67.5000025749208
246,137,32091,6,0,B|209:179|209:179|232:332,1,202.500007724762
108,384,32424,2,0,L|93:299,1,67.5000025749208
125,147,32591,2,0,L|136:213,1,67.5000025749208
314,290,32758,2,0,L|299:205,1,67.5000025749208
369,85,32925,2,0,L|380:151,1,67.5000025749208
479,325,33091,1,0,0:0:0:0:
466,336,33174,1,0,0:0:0:0:
451,343,33257,1,0,0:0:0:0:
434,344,33341,1,0,0:0:0:0:
418,341,33424,6,0,P|408:304|423:255,1,67.5000025749208
461,139,33591,2,0,P|461:177|433:220,1,67.5000025749208
302,223,33758,2,0,P|289:191|290:158,1,67.5000025749208
374,19,33925,2,0,P|378:52|368:84,1,67.5000025749208
208,200,34091,6,0,L|118:208,1,67.5000025749208
284,70,34258,2,0,L|250:12,1,67.5000025749208
241,290,34424,2,0,L|176:348,1,67.5000025749208
204,101,34591,2,0,L|122:69,1,67.5000025749208
27,326,34758,5,0,0:0:0:0:
27,326,35091,2,0,P|52:301|59:237,1,67.5000025749208
140,205,35258,2,0,P|117:177|54:165,1,67.5000025749208
24,56,35424,2,0,P|57:59|88:47,1,67.5000025749208
233,42,35591,2,0,P|211:67|203:100,1,67.5000025749208
277,206,35758,2,0,P|309:215|342:209,1,67.5000025749208
408,95,35924,2,0,P|394:64|368:42,1,67.5000025749208
211,259,36091,5,0,0:0:0:0:
451,263,36258,1,0,0:0:0:0:
211,259,36424,5,0,0:0:0:0:
451,263,36591,1,0,0:0:0:0:
211,259,36758,5,0,0:0:0:0:
451,263,36925,1,0,0:0:0:0:
211,259,37091,5,0,0:0:0:0:
456,187,37258,2,0,L|449:256,1,67.5000025749208
275,106,37424,5,0,0:0:0:0:
400,72,37591,1,0,0:0:0:0:
330,223,37758,1,0,0:0:0:0:
324,28,37924,1,0,0:0:0:0:
324,28,38008,1,0,0:0:0:0:
324,28,38091,2,0,P|253:46|194:19,1,135.000005149842
20,58,38424,2,0,P|47:80|56:125,1,67.5000025749208
194,129,38591,2,0,P|167:151|158:196,1,67.5000025749208
27,328,38758,5,0,0:0:0:0:
69,225,38924,1,0,0:0:0:0:
196,343,39091,1,0,0:0:0:0:
285,200,39258,1,0,0:0:0:0:
382,372,39424,1,0,0:0:0:0:
215,251,39591,1,0,0:0:0:0:
411,226,39758,1,0,0:0:0:0:
354,61,39924,1,0,0:0:0:0:
352,81,40008,1,0,0:0:0:0:
350,101,40091,5,0,0:0:0:0:
309,71,40174,1,0,0:0:0:0:
259,66,40257,1,0,0:0:0:0:
214,86,40341,1,0,0:0:0:0:
184,126,40424,2,0,L|190:197,1,45
53,106,40591,2,0,L|107:151,1,45
150,300,40758,5,0,0:0:0:0:
52,270,40924,1,0,0:0:0:0:
52,270,41008,1,0,0:0:0:0:
52,270,41091,2,0,P|45:305|47:352,1,45
251,310,41258,2,0,P|248:287|244:265,1,45
142,41,41424,6,0,P|174:70|204:72,1,45
302,39,41590,1,0,0:0:0:0:
302,39,41674,2,0,P|253:73|248:89,1,45
308,151,41841,1,0,0:0:0:0:
308,151,41924,2,0,P|357:117|362:101,1,45
214,147,42091,2,0,P|224:205|236:217,1,45
377,322,42258,5,0,0:0:0:0:
498,296,42424,1,0,0:0:0:0:
449,177,42591,1,0,0:0:0:0:
292,350,42758,6,0,B|168:393|108:296|108:296|138:288|163:248|163:248|194:274|232:272,2,360
85,221,43591,5,0,0:0:0:0:
177,97,43758,1,0,0:0:0:0:
177,97,44091,2,0,B|157:126|110:113|-20:250|-68:14|98:8|110:113|122:170|75:236,2,360
324,30,44924,5,0,0:0:0:0:
288,275,45091,1,0,0:0:0:0:
288,275,45424,6,0,P|290:225|336:190,1,76.5000014591217
427,200,45674,1,0,0:0:0:0:
427,200,45758,2,0,P|446:232|443:269,1,76.5000014591217
365,299,46008,1,0,0:0:0:0:
365,299,46091,2,0,L|367:238,1,38.2500007295609
369,136,46258,1,0,0:0:0:0:
369,136,46341,1,0,0:0:0:0:
369,136,46424,6,0,L|400:98,1,38.2500007295609
248,78,46591,2,0,L|223:48,1,38.2500007295609
131,184,46758,6,0,L|130:293,1,76.5000014591217
134,343,47008,2,0,L|142:368,2,19.1250003647804
33,255,47258,5,0,0:0:0:0:
34,235,47341,1,0,0:0:0:0:
36,216,47424,1,0,0:0:0:0:
221,221,47591,5,0,0:0:0:0:
219,239,47674,2,0,L|218:265,2,19.1250003647804
272,164,47841,1,0,0:0:0:0:
269,145,47925,1,0,0:0:0:0:
363,254,48091,5,0,0:0:0:0:
472,139,48258,1,0,0:0:0:0:
476,368,48424,1,0,0:0:0:0:
388,163,48591,1,0,0:0:0:0:
360,154,48674,1,0,0:0:0:0:
332,157,48757,1,0,0:0:0:0:
307,170,48841,1,0,0:0:0:0:
288,192,48924,2,0,L|271:238,1,45
317,345,49091,2,0,P|314:321|302:298,1,45
182,307,49258,2,0,P|204:309|226:305,1,45
147,179,49424,5,0,0:0:0:0:
26,285,49591,1,0,0:0:0:0:
17,56,49758,1,0,0:0:0:0:
163,186,49924,1,0,0:0:0:0:
181,191,50007,1,0,0:0:0:0:
200,192,50090,1,0,0:0:0:0:
219,191,50174,1,0,0:0:0:0:
237,186,50258,2,0,P|241:157|242:133,1,45
295,69,50424,2,0,L|334:46,1,45
197,63,50591,2,0,L|156:39,1,45
83,159,50758,6,0,P|75:211|136:269,1,135
158,341,51091,2,0,P|176:328|191:311,1,45
241,141,51258,1,0,0:0:0:0:
225,156,51341,1,0,0:0:0:0:
215,176,51424,1,0,0:0:0:0:
213,199,51508,1,0,0:0:0:0:
219,220,51591,2,0,P|244:232|267:231,1,45
416,161,51758,2,0,P|390:170|366:199,1,45
373,321,51924,2,0,P|364:295|335:271,1,45
158,341,52091,6,0,L|310:339,1,135
373,321,52424,2,0,P|364:295|335:271,1,45
219,220,52591,1,0,0:0:0:0:
239,229,52674,1,0,0:0:0:0:
261,231,52757,1,0,0:0:0:0:
283,226,52841,1,0,0:0:0:0:
302,214,52924,2,0,L|299:156,1,45
197,75,53091,2,0,L|199:119,1,45
129,241,53258,2,0,L|126:183,1,45
18,84,53424,6,0,L|26:239,1,135
64,282,53758,2,0,L|70:339,1,45
215,377,53924,1,0,0:0:0:0:
237,376,54007,1,0,0:0:0:0:
258,368,54090,1,0,0:0:0:0:
274,353,54174,1,0,0:0:0:0:
283,333,54258,2,0,P|274:309|259:290,1,45
343,181,54424,2,0,P|336:205|337:229,1,45
399,328,54591,2,0,P|407:306|420:288,1,45
408,119,54758,6,0,P|337:88|262:121,1,135
216,61,55091,2,0,P|206:83|207:114,1,45
73,152,55258,1,0,0:0:0:0:
69,174,55341,1,0,0:0:0:0:
76,195,55424,1,0,0:0:0:0:
90,212,55508,1,0,0:0:0:0:
110,222,55591,1,0,0:0:0:0:
209,202,55758,1,0,0:0:0:0:
112,65,55924,1,0,0:0:0:0:
38,312,56091,6,0,B|67:343|67:343|122:322|168:344,1,135
218,292,56424,2,0,P|230:310|235:332,1,45
333,373,56591,1,0,0:0:0:0:
323,352,56674,1,0,0:0:0:0:
319,330,56757,1,0,0:0:0:0:
323,308,56841,1,0,0:0:0:0:
333,288,56924,1,0,0:0:0:0:
438,225,57091,1,0,0:0:0:0:
368,112,57258,1,0,0:0:0:0:
273,216,57424,6,0,P|231:221|133:213,1,135
83,163,57758,2,0,P|68:183|60:227,1,45
165,140,57924,2,0,P|155:117|121:88,1,45
271,97,58091,2,0,P|257:115|249:136,1,45
353,194,58258,2,0,P|345:173|331:155,1,45
213,301,58424,1,0,0:0:0:0:
376,376,58591,1,0,0:0:0:0:
376,376,58674,1,0,0:0:0:0:
376,376,58758,5,0,0:0:0:0:
318,278,58924,1,0,0:0:0:0:
278,367,59091,1,0,0:0:0:0:
430,278,59258,1,0,0:0:0:0:
430,255,59341,1,0,0:0:0:0:
431,233,59424,1,0,0:0:0:0:
432,210,59508,1,0,0:0:0:0:
433,188,59591,1,0,0:0:0:0:
316,71,59758,1,0,0:0:0:0:
336,175,59924,1,0,0:0:0:0:
479,115,60091,6,0,P|435:100|393:114,1,90
166,133,60424,2,0,P|210:148|252:134,1,90
57,21,60758,2,0,B|41:46|41:46|46:148,1,90
98,302,61091,2,0,B|103:247|94:204|94:204|80:225|53:246,1,135
37,356,61424,5,0,0:0:0:0:
175,262,61591,1,0,0:0:0:0:
293,376,61758,1,0,0:0:0:0:
280,197,61924,1,0,0:0:0:0:
272,218,62007,1,0,0:0:0:0:
265,239,62091,2,0,L|265:297,1,45
386,278,62258,2,0,L|386:233,1,45
326,114,62424,1,0,0:0:0:0:
458,87,62591,1,0,0:0:0:0:
244,26,62758,5,0,0:0:0:0:
375,34,62924,1,0,0:0:0:0:
280,197,63091,1,0,0:0:0:0:
173,89,63258,1,0,0:0:0:0:
165,110,63341,1,0,0:0:0:0:
158,131,63425,2,0,P|156:160|165:188,1,45
303,113,63591,2,0,P|274:111|246:120,1,45
157,272,63758,1,0,0:0:0:0:
33,116,63924,1,0,0:0:0:0:
33,116,64008,1,0,0:0:0:0:
33,116,64091,6,0,L|32:182,1,45
100,22,64258,2,0,L|99:88,1,45
49,250,64424,1,0,0:0:0:0:
201,195,64591,1,0,0:0:0:0:
219,207,64674,1,0,0:0:0:0:
233,224,64758,2,0,P|243:251|240:282,1,45
335,165,64924,2,0,P|326:185|326:208,1,45
240,102,65091,1,0,0:0:0:0:
378,44,65258,1,0,0:0:0:0:
470,192,65424,6,0,P|481:236|455:297,1,90
320,384,65758,2,0,P|309:340|335:279,1,90
176,180,66091,2,0,P|187:224|161:285,1,90
26,372,66425,2,0,P|15:328|41:267,1,90
129,63,66758,5,0,0:0:0:0:
0,60,66924,1,0,0:0:0:0:
102,223,67091,1,0,0:0:0:0:
241,81,67258,1,0,0:0:0:0:
262,75,67341,1,0,0:0:0:0:
285,74,67424,2,0,P|316:79|334:91,1,45
376,206,67591,2,0,P|371:237|359:255,1,45
231,276,67758,1,0,0:0:0:0:
373,363,67924,1,0,0:0:0:0:
483,189,68091,5,0,0:0:0:0:
461,299,68258,1,0,0:0:0:0:
293,202,68424,1,0,0:0:0:0:
373,79,68591,1,0,0:0:0:0:
381,100,68674,1,0,0:0:0:0:
388,121,68758,2,0,L|388:166,1,45
360,304,68924,2,0,L|360:259,1,45
287,116,69091,1,0,0:0:0:0:
219,248,69258,1,0,0:0:0:0:
128,92,69424,6,0,P|129:52|162:-12,1,90
202,150,69758,1,0,0:0:0:0:
102,252,69924,1,0,0:0:0:0:
79,250,70007,1,0,0:0:0:0:
56,248,70091,2,0,P|48:226|50:184,1,45
219,248,70258,2,0,P|217:270|209:291,1,45
66,373,70424,1,0,0:0:0:0:
145,183,70591,1,0,0:0:0:0:
287,352,70758,6,0,P|324:362|378:341,1,90
356,142,71091,2,0,P|319:132|265:153,1,90
437,241,71424,1,0,0:0:0:0:
437,241,71508,1,0,0:0:0:0:
437,241,71591,1,0,0:0:0:0:
328,254,71758,1,0,0:0:0:0:
444,134,71924,1,0,0:0:0:0:
264,38,72091,5,0,0:0:0:0:
450,20,72258,1,0,0:0:0:0:
289,170,72424,1,0,0:0:0:0:
476,152,72591,1,0,0:0:0:0:
168,266,72758,6,0,B|169:355|19:278|92:172|225:189|180:276|246:293|321:272,1,341.999990867615,8|0,0:0|0:0,0:0:0:0:
372,86,73258,5,0,0:0:0:0:
494,282,73424,1,0,0:0:0:0:
466,59,73591,1,0,0:0:0:0:
321,271,73758,1,0,0:0:0:0:
214,69,73924,1,0,0:0:0:0:
52,304,74091,6,0,B|-37:303|40:453|146:380|129:247|42:292|25:226|46:151,1,341.999990867615,8|0,0:0|0:0,0:0:0:0:
102,32,74591,5,0,0:0:0:0:
102,32,74674,1,0,0:0:0:0:
102,32,74758,1,0,0:0:0:0:
152,190,74924,1,0,0:0:0:0:
292,85,75091,1,0,0:0:0:0:
297,302,75258,1,0,0:0:0:0:
451,98,75424,6,0,B|540:99|463:-51|357:22|374:155|460:110|478:176|456:251,1,341.999990867615,8|0,0:0|0:0,0:0:0:0:
402,348,75924,1,0,0:0:0:0:
271,199,76091,1,0,0:0:0:0:
271,199,76258,1,0,0:0:0:0:
213,376,76424,1,0,0:0:0:0:
368,222,76591,1,0,0:0:0:0:
158,93,76758,6,0,B|159:4|9:81|82:187|215:170|170:83|236:66|311:87,1,341.999990867615,8|0,0:0|0:0,0:0:0:0:
444,115,77258,5,0,0:0:0:0:
444,115,77341,1,0,0:0:0:0:
444,115,77424,1,0,0:0:0:0:
417,316,77591,1,0,0:0:0:0:
277,172,77758,1,0,0:0:0:0:
492,217,77924,1,0,0:0:0:0:
263,310,78091,6,0,B|264:399|114:322|187:216|320:233|275:320|341:337|416:316,1,341.999990867615,8|0,0:0|0:0,0:0:0:0:
461,110,78591,5,0,0:0:0:0:
277,172,78758,1,0,0:0:0:0:
287,4,78924,1,0,0:0:0:0:
383,177,79091,1,0,0:0:0:0:
420,14,79258,1,0,0:0:0:0:
171,76,79424,6,0,B|172:165|22:88|95:-18|228:-1|183:86|249:103|324:82,1,341.999990867615,8|0,0:0|0:0,0:0:0:0:
464,106,79924,5,0,0:0:0:0:
464,106,80008,1,0,0:0:0:0:
464,106,80091,1,0,0:0:0:0:
339,268,80258,1,0,0:0:0:0:
510,224,80424,1,0,0:0:0:0:
268,148,80591,1,0,0:0:0:0:
442,349,80758,6,0,B|441:438|591:361|518:255|385:272|430:359|364:376|289:355,1,341.999990867615,8|0,0:0|0:0,0:0:0:0:
160,254,81258,5,0,0:0:0:0:
344,186,81424,1,0,0:0:0:0:
344,186,81591,1,0,0:0:0:0:
213,76,81758,1,0,0:0:0:0:
75,216,81924,5,0,0:0:0:0:
76,237,82007,1,0,0:0:0:0:
78,258,82090,1,0,0:0:0:0:
80,279,82173,1,0,0:0:0:0:
82,301,82257,1,0,0:0:0:0:
198,182,82424,1,0,0:0:0:0:
64,74,82591,1,0,0:0:0:0:
64,74,82674,1,0,0:0:0:0:
64,74,82758,5,0,0:0:0:0:
159,94,82924,1,0,0:0:0:0:
275,21,83091,1,0,0:0:0:0:
49,91,83258,5,0,0:0:0:0:
29,186,83424,1,0,0:0:0:0:
102,302,83591,1,0,0:0:0:0:
70,116,83758,5,0,0:0:0:0:
151,185,83924,1,0,0:0:0:0:
112,108,84091,5,0,0:0:0:0:
208,101,84258,1,0,0:0:0:0:
309,4,84424,1,0,0:0:0:0:
429,92,84591,1,0,0:0:0:0:
356,215,84758,1,0,0:0:0:0:
426,288,84924,1,0,0:0:0:0:
262,365,85091,1,0,0:0:0:0:
225,171,85258,1,0,0:0:0:0:
225,171,85341,1,0,0:0:0:0:
225,171,85424,5,0,0:0:0:0:
241,270,85591,1,0,0:0:0:0:
138,328,85758,1,0,0:0:0:0:
199,198,85924,5,0,0:0:0:0:
111,246,86091,1,0,0:0:0:0:
21,168,86258,1,0,0:0:0:0:
171,189,86424,5,0,0:0:0:0:
108,109,86591,1,0,0:0:0:0:
189,148,86758,5,0,0:0:0:0:
240,69,86924,5,0,0:0:0:0:
257,67,87008,1,0,0:0:0:0:
274,65,87091,1,0,0:0:0:0:
365,148,87258,5,0,0:0:0:0:
348,150,87341,1,0,0:0:0:0:
331,152,87425,1,0,0:0:0:0:
403,67,87591,5,0,0:0:0:0:
437,92,87674,1,0,0:0:0:0:
456,129,87757,1,0,0:0:0:0:
457,172,87840,1,0,0:0:0:0:
438,210,87924,1,0,0:0:0:0:
405,236,88007,1,0,0:0:0:0:
364,245,88090,5,0,0:0:0:0:
267,205,88258,1,0,0:0:0:0:
138,147,88424,1,0,0:0:0:0:
355,268,88591,5,0,0:0:0:0:
257,308,88759,1,0,0:0:0:0:
125,358,88925,1,0,0:0:0:0:
328,247,89091,5,0,0:0:0:0:
230,206,89259,1,0,0:0:0:0:
299,266,89424,5,0,0:0:0:0:
201,306,89592,1,0,0:0:0:0:
72,364,89758,1,0,0:0:0:0:
2,234,89924,1,0,0:0:0:0:
109,123,90091,1,0,0:0:0:0:
27,41,90258,1,0,0:0:0:0:
229,14,90424,1,0,0:0:0:0:
196,220,90591,1,0,0:0:0:0:
196,220,90674,1,0,0:0:0:0:
196,220,90758,5,0,0:0:0:0:
284,162,90924,1,0,0:0:0:0:
289,296,91091,1,0,0:0:0:0:
174,223,91258,5,0,0:0:0:0:
278,207,91424,1,0,0:0:0:0:
226,331,91591,1,0,0:0:0:0:
143,227,91758,5,0,0:0:0:0:
244,256,91924,1,0,0:0:0:0:
109,229,92091,5,0,0:0:0:0:
109,207,92174,1,0,0:0:0:0:
110,186,92257,1,0,0:0:0:0:
111,164,92340,1,0,0:0:0:0:
30,167,92424,5,0,0:0:0:0:
31,188,92507,1,0,0:0:0:0:
32,209,92590,1,0,0:0:0:0:
33,231,92673,1,0,0:0:0:0:
69,299,92758,5,0,0:0:0:0:
90,308,92841,1,0,0:0:0:0:
111,298,92924,1,0,0:0:0:0:
133,307,93007,1,0,0:0:0:0:
154,297,93091,1,0,0:0:0:0:
175,306,93174,1,0,0:0:0:0:
197,296,93257,1,0,0:0:0:0:
218,305,93341,1,0,0:0:0:0:
239,295,93424,5,0,0:0:0:0:
317,82,94758,6,0,B|284:66|270:44|270:44|242:117|271:205,1,202.500007724762
396,49,95091,2,0,P|402:82|394:115,1,67.5000025749208
476,139,95258,2,0,P|462:170|437:192,1,67.5000025749208
493,257,95424,2,0,P|463:274|430:278,1,67.5000025749208
272,275,95591,2,0,P|301:257|334:253,1,67.5000025749208
427,359,95758,2,0,P|394:350|368:329,1,67.5000025749208
260,117,95924,2,0,P|269:149|264:182,1,67.5000025749208
161,358,96091,6,0,P|75:356|109:238,1,202.500007724762
127,204,96424,2,0,P|149:230|154:263,1,67.5000025749208
50,171,96591,2,0,P|68:143|98:130,1,67.5000025749208
129,57,96758,2,0,P|157:75|171:105,1,67.5000025749208
275,258,96924,2,0,P|260:228|263:194,1,67.5000025749208
389,56,97091,2,0,P|361:74|347:104,1,67.5000025749208
230,325,97258,2,0,P|259:339|293:335,1,67.5000025749208
492,125,97424,6,0,L|403:129,1,67.5000025749208
393,291,97591,2,0,L|482:287,1,67.5000025749208
465,206,97758,2,0,L|376:210,1,67.5000025749208
365,379,97925,2,0,L|454:375,1,67.5000025749208
312,211,98091,6,0,L|244:214,1,67.5000025749208
212,384,98258,2,0,L|279:380,1,67.5000025749208
339,130,98425,2,0,L|271:133,1,67.5000025749208
240,296,98592,2,0,L|307:292,1,67.5000025749208
389,56,98758,1,0,0:0:0:0:
389,56,99091,6,0,P|349:41|307:50,1,67.5000025749208
123,56,99258,2,0,P|163:41|205:50,1,67.5000025749208
367,142,99424,2,0,P|334:129|299:137,1,67.5000025749208
148,142,99591,2,0,P|180:129|215:137,1,67.5000025749208
357,229,99758,2,0,P|326:218|294:225,1,67.5000025749208
151,229,99925,2,0,P|182:218|215:225,1,67.5000025749208
254,306,100091,5,0,0:0:0:0:
256,67,100258,1,0,0:0:0:0:
258,310,100424,5,0,0:0:0:0:
260,71,100591,1,0,0:0:0:0:
262,314,100758,5,0,0:0:0:0:
264,75,100925,1,0,0:0:0:0:
266,318,101091,5,0,0:0:0:0:
268,79,101258,1,0,0:0:0:0:
76,199,101424,5,0,0:0:0:0:
112,70,101591,1,0,0:0:0:0:
260,195,101758,1,0,0:0:0:0:
106,289,101924,1,0,0:0:0:0:
106,289,102008,1,0,0:0:0:0:
106,289,102091,2,0,P|153:249|146:149,1,135.000005149842
16,109,102424,1,0,0:0:0:0:
198,11,102591,1,0,0:0:0:0:
308,193,102758,5,0,0:0:0:0:
389,44,102924,1,0,0:0:0:0:
389,44,103008,1,0,0:0:0:0:
389,44,103091,1,0,0:0:0:0:
467,237,103258,1,0,0:0:0:0:
477,36,103425,1,0,0:0:0:0:
396,156,103591,1,0,0:0:0:0:
297,42,103758,1,0,0:0:0:0:
224,233,103924,1,0,0:0:0:0:
224,233,104008,1,0,0:0:0:0:
224,233,104091,5,0,0:0:0:0:
116,102,104258,1,0,0:0:0:0:
54,285,104424,1,0,0:0:0:0:
54,285,104508,1,0,0:0:0:0:
54,285,104591,1,0,0:0:0:0:
172,163,104758,1,0,0:0:0:0:
218,350,104924,1,0,0:0:0:0:
218,350,105008,1,0,0:0:0:0:
218,350,105091,1,0,0:0:0:0:
300,201,105258,1,0,0:0:0:0:
80,197,105424,5,0,0:0:0:0:
216,90,105591,1,0,0:0:0:0:
259,279,105758,1,0,0:0:0:0:
309,105,105924,1,0,0:0:0:0:
167,242,106091,1,0,0:0:0:0:
127,64,106258,1,0,0:0:0:0:
383,227,106424,1,0,0:0:0:0:
440,45,106591,1,0,0:0:0:0:
440,45,106674,1,0,0:0:0:0:
440,45,106758,5,0,0:0:0:0:
266,24,106924,1,0,0:0:0:0:
424,136,107091,1,0,0:0:0:0:
424,136,107174,1,0,0:0:0:0:
424,136,107258,1,0,0:0:0:0:
240,153,107424,1,0,0:0:0:0:
398,265,107591,1,0,0:0:0:0:
398,265,107674,1,0,0:0:0:0:
398,265,107758,1,0,0:0:0:0:
214,282,107924,1,0,0:0:0:0:
352,384,108091,5,0,0:0:0:0:
312,194,108258,1,0,0:0:0:0:
496,265,108424,1,0,0:0:0:0:
252,365,108591,1,0,0:0:0:0:
247,104,108758,1,0,0:0:0:0:
398,265,108924,1,0,0:0:0:0:
93,168,109091,1,0,0:0:0:0:
69,361,109258,1,0,0:0:0:0:
69,361,109341,1,0,0:0:0:0:
69,361,109424,6,0,P|107:331|111:255,1,90
24,117,109591,2,0,P|54:155|130:159,1,90
287,221,109758,2,0,P|242:203|174:237,1,90
122,375,109924,6,0,P|151:336|135:262,1,90
15,151,110091,2,0,P|54:180|128:164,1,90
296,183,110258,2,0,P|248:178|191:229,1,90
176,380,110424,6,0,P|194:335|160:267,1,90
15,191,110591,2,0,P|60:209|128:175,1,90
230,370,110758,6,0,P|235:321|184:265,1,90
25,229,110924,2,0,P|73:234|129:183,1,90
209,35,111091,2,0,P|180:73|195:148,1,90
375,214,111257,2,0,P|340:186|295:183,1,90
276,370,111424,6,0,P|269:322|206:281,1,90
42,287,111590,2,0,P|90:280|131:216,1,90
264,104,111758,1,0,0:0:0:0:
58,34,111924,1,0,0:0:0:0:
211,213,112091,6,0,L|329:170,1,90
494,212,112258,2,0,L|376:169,1,90
360,25,112424,2,0,L|355:130,1,90
232,248,112591,6,0,L|335:176,1,90
505,173,112758,2,0,L|380:162,1,90
327,27,112924,2,0,L|349:130,1,90
261,276,113091,6,0,L|342:180,1,90
506,134,113258,2,0,L|382:155,1,90
173,57,113424,5,0,0:0:0:0:
130,44,113507,1,0,0:0:0:0:
90,61,113590,1,0,0:0:0:0:
69,100,113673,1,0,0:0:0:0:
78,144,113758,1,0,0:0:0:0:
122,182,113841,1,0,0:0:0:0:
180,176,113924,1,0,0:0:0:0:
214,129,114008,1,0,0:0:0:0:
264,111,114091,6,0,P|313:119|356:157,1,90
338,305,114258,2,0,P|331:263|299:227,1,76.5000014591217
159,276,114424,6,0,P|203:254|260:260,1,62.9999980773926
262,378,114591,6,0,P|240:346|200:328,1,45
68,97,116258,5,0,0:0:0:0:
250,39,116424,1,0,0:0:0:0:
243,64,116591,1,0,0:0:0:0:
403,57,116758,5,0,0:0:0:0:
236,89,116924,1,0,0:0:0:0:
396,82,117092,5,0,0:0:0:0:
229,114,117258,1,0,0:0:0:0:
486,91,117424,5,0,0:0:0:0:
471,286,117591,1,0,0:0:0:0:
471,286,117674,1,0,0:0:0:0:
471,286,117758,1,0,0:0:0:0:
316,146,117924,1,0,0:0:0:0:
316,146,118008,1,0,0:0:0:0:
316,146,118091,2,0,P|340:217|308:301,1,153.000002918243
302,301,118341,1,0,0:0:0:0:
284,303,118424,2,0,P|336:299|413:374,1,153.000002918243
129,369,118758,6,0,L|132:191,1,153.000002918243
135,12,119091,1,0,0:0:0:0:
17,132,119258,1,0,0:0:0:0:
17,132,119341,1,0,0:0:0:0:
17,132,119424,2,0,L|151:117,1,76.5000014591217
278,126,119591,2,0,L|202:118,1,76.5000014591217
33,30,119758,1,0,0:0:0:0:
131,216,119924,1,0,0:0:0:0:
297,40,120091,6,0,P|350:69|339:184,1,153.000002918243
140,347,120424,2,0,P|104:298|162:198,1,153.000002918243
356,282,120758,1,0,0:0:0:0:
356,282,120841,1,0,0:0:0:0:
356,282,120924,1,0,0:0:0:0:
215,280,121091,1,0,0:0:0:0:
279,199,121258,1,0,0:0:0:0:
429,354,121424,5,0,0:0:0:0:
422,184,121591,1,0,0:0:0:0:
289,370,121758,1,0,0:0:0:0:
176,187,121924,1,0,0:0:0:0:
56,382,122091,6,0,P|13:343|32:237,1,153.000002918243
277,46,122424,2,0,L|279:211,1,153.000002918243
32,90,122758,6,0,P|101:66|192:134,1,153.000002918243
181,115,123008,1,0,0:0:0:0:
189,131,123091,2,0,P|204:62|283:48,1,153.000002918243
478,46,123424,1,0,0:0:0:0:
357,174,123591,1,0,0:0:0:0:
485,323,123758,1,0,0:0:0:0:
491,184,123924,1,0,0:0:0:0:
491,184,124008,1,0,0:0:0:0:
491,184,124091,6,0,P|409:148|348:187,1,153.000002918243
253,366,124424,1,0,0:0:0:0:
144,224,124591,1,0,0:0:0:0:
144,224,124674,1,0,0:0:0:0:
144,224,124758,2,0,L|156:309,1,76.5000014591217
263,161,124924,2,0,L|251:246,1,76.5000014591217
62,282,125091,1,0,0:0:0:0:
171,123,125258,1,0,0:0:0:0:
374,288,125424,6,0,P|451:242|396:145,1,153.000002918243
435,170,125674,1,0,0:0:0:0:
415,160,125758,2,0,L|252:160,1,153.000002918243
97,40,126091,1,0,0:0:0:0:
97,40,126174,1,0,0:0:0:0:
97,40,126258,1,0,0:0:0:0:
232,41,126424,1,0,0:0:0:0:
23,207,126591,1,0,0:0:0:0:
204,295,126758,5,0,0:0:0:0:
150,139,126924,1,0,0:0:0:0:
89,348,127091,1,0,0:0:0:0:
240,185,127258,1,0,0:0:0:0:
398,345,127424,6,0,P|453:271|337:245,1,229.500004377365
340,249,127758,2,0,P|416:182|318:136,1,229.500004377365
291,137,128091,5,0,0:0:0:0:
373,29,128258,1,0,0:0:0:0:
157,34,128424,1,0,0:0:0:0:
184,223,128591,1,0,0:0:0:0:
184,223,128674,1,0,0:0:0:0:
184,223,128758,1,0,0:0:0:0:
263,45,128924,1,0,0:0:0:0:
57,62,129091,1,0,0:0:0:0:
179,123,129258,1,0,0:0:0:0:
31,299,129424,5,0,0:0:0:0:
69,164,129591,1,0,0:0:0:0:
199,360,129758,2,0,P|236:352|273:303,1,76.5000014591217
313,177,129924,2,0,P|301:213|325:269,1,76.5000014591217
415,365,130091,1,0,0:0:0:0:
398,222,130258,1,0,0:0:0:0:
206,229,130424,1,0,0:0:0:0:
368,92,130591,1,0,0:0:0:0:
368,92,130674,1,0,0:0:0:0:
368,92,130758,6,0,P|267:87|224:133,1,153.000002918243
45,220,131091,1,0,0:0:0:0:
80,84,131258,1,0,0:0:0:0:
146,308,131424,1,0,0:0:0:0:
146,308,131508,1,0,0:0:0:0:
146,308,131591,1,0,0:0:0:0:
120,169,131757,1,0,0:0:0:0:
299,337,131924,1,0,0:0:0:0:
356,157,132091,6,0,P|267:145|239:201,1,153.000002918243
470,315,132424,2,0,L|464:144,1,153.000002918243
249,40,132758,5,0,0:0:0:0:
446,19,132924,1,0,0:0:0:0:
229,70,133091,5,0,0:0:0:0:
426,49,133257,1,0,0:0:0:0:
151,18,133424,6,0,P|134:85|182:147,1,153.000002918243
377,179,133758,1,0,0:0:0:0:
248,281,133924,1,0,0:0:0:0:
248,281,134008,1,0,0:0:0:0:
248,281,134091,1,0,0:0:0:0:
381,328,134258,1,0,0:0:0:0:
275,166,134424,1,0,0:0:0:0:
130,299,134591,1,0,0:0:0:0:
22,139,134758,6,0,P|47:58|160:65,1,153.000002918243
347,124,135091,2,0,P|363:159|338:217,1,76.5000014591217
187,148,135258,2,0,P|200:111|259:88,1,76.5000014591217
251,260,135424,1,0,0:0:0:0:
310,46,135591,1,0,0:0:0:0:
471,152,135758,1,0,0:0:0:0:
422,23,135924,1,0,0:0:0:0:
331,241,136091,6,0,P|404:273|477:230,1,153.000002918243
256,145,136424,1,0,0:0:0:0:
198,311,136591,1,0,0:0:0:0:
82,156,136758,1,0,0:0:0:0:
82,156,136841,1,0,0:0:0:0:
82,156,136924,1,0,0:0:0:0:
68,358,137091,1,0,0:0:0:0:
164,212,137258,1,0,0:0:0:0:
318,358,137424,5,0,0:0:0:0:
438,247,137591,1,0,0:0:0:0:
438,247,137674,1,0,0:0:0:0:
438,247,137758,1,0,0:0:0:0:
321,194,137924,1,0,0:0:0:0:
436,72,138091,1,0,0:0:0:0:
441,90,138174,1,0,0:0:0:0:
447,108,138257,1,0,0:0:0:0:
453,126,138341,1,0,0:0:0:0:
459,144,138424,1,0,0:0:0:0:
295,60,138591,1,0,0:0:0:0:
187,296,138758,5,0,0:0:0:0:
