osu file format v14

[General]
AudioFilename: audio.mp3
AudioLeadIn: 0
PreviewTime: 27375
Countdown: 1
SampleSet: Normal
StackLeniency: 0.7
Mode: 1
LetterboxInBreaks: 0
WidescreenStoryboard: 0

[Editor]
DistanceSpacing: 1
BeatDivisor: 16
GridSize: 32
TimelineZoom: 5.599996

[Metadata]
Title:Yuwan to Janken
TitleUnicode:Yuwan to Janken
Artist:Pepsi feat. Honda Keisuke vs MC Yuwan
ArtistUnicode:Pepsi feat. Honda Keisuke vs MC Yuwan
Creator:-[ ix Ishida xi ]-
Version:Yuwan to Shoubushite Kattara Ippon Agemasuyo !
Source:
Tags:
BeatmapID:2015848
BeatmapSetID:962750

[Difficulty]
HPDrainRate:10
CircleSize:7
OverallDifficulty:10
ApproachRate:10
SliderMultiplier:2.79999990463257
SliderTickRate:1

[Events]
//Background and Video events
0,0,"YWTJK.png",0,0
//Break Periods
//Storyboard Layer 0 (Background)
//Storyboard Layer 1 (Fail)
//Storyboard Layer 2 (Pass)
//Storyboard Layer 3 (Foreground)
//Storyboard Sound Samples

[TimingPoints]
0,600,4,1,0,50,1,0
2100,6,4,3,0,5,1,0
2100,-25,4,3,0,5,0,0
3375,600,4,1,0,50,1,1
3375,-50,4,1,0,50,0,1
4800,-100,4,1,0,50,0,0
25800,-50,4,1,0,50,0,0
27600,-100,4,1,0,50,0,0
31050,6,4,3,0,5,1,0
31050,-25,4,3,0,5,0,0

[HitObjects]
256,192,1050,5,8,0:0:0:0:
256,192,1612,1,0,0:0:0:0:
256,192,2208,2,4,L|352:192,1,0.01
256,192,2211,2,4,L|352:192,1,0.01
256,192,2212,2,4,L|352:192,1,0.01
256,192,2212,2,4,L|352:192,1,0.01
256,192,2212,2,4,L|352:192,1,0.01
256,192,2212,2,4,L|352:192,1,0.01
256,192,2212,2,4,L|352:192,1,0.01
256,192,2212,2,4,L|352:192,1,0.01
256,192,2212,2,4,L|352:192,1,0.01
256,192,2212,2,4,L|352:192,1,0.01
256,192,2212,2,4,L|352:192,1,0.01
256,192,2212,2,4,L|352:192,1,0.01
256,192,2212,2,4,L|352:192,1,0.01
256,192,2212,2,4,L|352:192,1,0.01
256,192,2212,2,4,L|352:192,1,0.01
256,192,2212,2,4,L|352:192,1,0.01
256,192,2212,2,4,L|352:192,1,0.01
256,192,2212,2,4,L|352:192,1,0.01
256,192,2212,2,4,L|352:192,1,0.01
256,192,2212,2,4,L|352:192,1,0.01
256,192,2212,2,4,L|352:192,1,0.01
256,192,2212,2,4,L|352:192,1,0.01
256,192,2212,2,4,L|352:192,1,0.01
256,192,2212,2,4,L|352:192,1,0.01
256,192,2212,2,4,L|352:192,1,0.01
256,192,2212,2,4,L|352:192,1,0.01
256,192,2212,2,4,L|352:192,1,0.01
256,192,2212,2,4,L|352:192,1,0.01
256,192,2212,2,4,L|352:192,1,0.01
256,192,2212,2,4,L|352:192,1,0.01
256,192,2212,2,4,L|352:192,1,0.01
256,192,2212,2,4,L|352:192,1,0.01
256,192,2212,2,4,L|352:192,1,0.01
256,192,2212,2,4,L|352:192,1,0.01
256,192,2212,2,4,L|352:192,1,0.01
256,192,2212,2,4,L|352:192,1,0.01
256,192,2212,2,4,L|352:192,1,0.01
256,192,2212,2,4,L|352:192,1,0.01
256,192,2212,2,4,L|352:192,1,0.01
256,192,2212,2,4,L|352:192,1,0.01
256,192,2212,2,4,L|352:192,1,0.01
256,192,2212,2,4,L|352:192,1,0.01
256,192,2212,2,4,L|352:192,1,0.01
256,192,2212,2,4,L|352:192,1,0.01
256,192,2212,2,4,L|352:192,1,0.01
256,192,2212,2,4,L|352:192,1,0.01
256,192,2212,2,4,L|352:192,1,0.01
256,192,2212,2,4,L|352:192,1,0.01
256,192,2212,2,4,L|352:192,1,0.01
256,192,2212,2,4,L|352:192,1,0.01
256,192,2212,2,4,L|352:192,1,0.01
256,192,2212,2,4,L|352:192,1,0.01
256,192,2212,2,4,L|352:192,1,0.01
256,192,2212,2,4,L|352:192,1,0.01
256,192,2212,2,4,L|352:192,1,0.01
256,192,2212,2,4,L|352:192,1,0.01
256,192,2212,2,4,L|352:192,1,0.01
256,192,2212,2,4,L|352:192,1,0.01
256,192,2212,2,4,L|352:192,1,0.01
256,192,2212,2,4,L|352:192,1,0.01
256,192,2212,2,4,L|352:192,1,0.01
256,192,2212,2,4,L|352:192,1,0.01
256,192,2212,2,4,L|352:192,1,0.01
256,192,2212,2,4,L|352:192,1,0.01
256,192,2212,2,4,L|352:192,1,0.01
256,192,2212,2,4,L|352:192,1,0.01
256,192,2212,2,4,L|352:192,1,0.01
256,192,2212,2,4,L|352:192,1,0.01
256,192,2212,2,4,L|352:192,1,0.01
256,192,2212,2,4,L|352:192,1,0.01
256,192,2212,2,4,L|352:192,1,0.01
256,192,2212,2,4,L|352:192,1,0.01
256,192,2212,2,4,L|352:192,1,0.01
256,192,2212,2,4,L|352:192,1,0.01
256,192,2212,2,4,L|352:192,1,0.01
256,192,2212,2,4,L|352:192,1,0.01
256,192,2212,2,4,L|352:192,1,0.01
256,192,2212,2,4,L|352:192,1,0.01
256,192,2212,2,4,L|352:192,1,0.01
256,192,2212,2,4,L|352:192,1,0.01
256,192,2212,2,4,L|352:192,1,0.01
256,192,2212,2,4,L|352:192,1,0.01
256,192,2212,2,4,L|352:192,1,0.01
256,192,2212,2,4,L|352:192,1,0.01
256,192,2212,2,4,L|352:192,1,0.01
256,192,2212,2,4,L|352:192,1,0.01
256,192,2212,2,4,L|352:192,1,0.01
256,192,2212,2,4,L|352:192,1,0.01
256,192,2212,2,4,L|352:192,1,0.01
256,192,2212,2,4,L|352:192,1,0.01
256,192,2212,2,4,L|352:192,1,0.01
256,192,2212,2,4,L|352:192,1,0.01
256,192,2212,2,4,L|352:192,1,0.01
256,192,2212,2,4,L|352:192,1,0.01
256,192,2212,2,4,L|352:192,1,0.01
256,192,2212,2,4,L|352:192,1,0.01
256,192,2212,2,4,L|352:192,1,0.01
256,192,2214,2,4,L|352:192,1,0.01
256,192,2214,2,4,L|352:192,1,0.01
256,192,3356,12,0,4800,0:0:0:0:
256,192,3375,5,8,0:0:0:0:
256,192,3412,1,8,0:0:0:0:
256,192,3450,1,0,0:0:0:0:
256,192,3487,1,0,0:0:0:0:
256,192,3525,1,8,0:0:0:0:
256,192,3543,1,8,0:0:0:0:
256,192,3600,1,0,0:0:0:0:
256,192,3618,1,0,0:0:0:0:
256,192,3675,1,8,0:0:0:0:
256,192,3693,1,8,0:0:0:0:
256,192,3750,1,8,0:0:0:0:
256,192,3768,1,8,0:0:0:0:
256,192,3825,1,0,0:0:0:0:
256,192,3843,1,0,0:0:0:0:
256,192,3900,1,8,0:0:0:0:
256,192,3918,1,8,0:0:0:0:
256,192,3975,1,0,0:0:0:0:
256,192,4012,1,0,0:0:0:0:
256,192,4050,1,0,0:0:0:0:
256,192,4087,1,0,0:0:0:0:
256,192,4125,1,8,0:0:0:0:
256,192,4143,1,8,0:0:0:0:
256,192,4200,1,0,0:0:0:0:
256,192,4218,1,0,0:0:0:0:
256,192,4275,1,8,0:0:0:0:
256,192,4293,1,8,0:0:0:0:
256,192,4350,1,8,0:0:0:0:
256,192,4368,1,8,0:0:0:0:
256,192,4425,1,0,0:0:0:0:
256,192,4443,1,0,0:0:0:0:
256,192,4500,1,0,0:0:0:0:
256,192,5700,5,0,0:0:0:0:
256,192,5775,1,8,0:0:0:0:
256,192,5850,1,8,0:0:0:0:
256,192,5962,1,8,0:0:0:0:
256,192,6112,1,0,0:0:0:0:
256,192,7387,1,0,0:0:0:0:
256,192,7537,1,8,0:0:0:0:
256,192,7612,1,0,0:0:0:0:
256,192,7800,1,0,0:0:0:0:
256,192,7912,1,8,0:0:0:0:
256,192,7987,1,8,0:0:0:0:
256,192,8137,1,0,0:0:0:0:
256,192,8212,1,8,0:0:0:0:
256,192,8287,1,8,0:0:0:0:
256,192,8362,1,0,0:0:0:0:
256,192,8512,1,8,0:0:0:0:
256,192,8662,1,0,0:0:0:0:
256,192,8737,1,0,0:0:0:0:
256,192,8850,1,0,0:0:0:0:
256,192,9450,1,8,0:0:0:0:
256,192,9525,1,8,0:0:0:0:
256,192,9675,1,8,0:0:0:0:
256,192,9750,1,0,0:0:0:0:
256,192,9825,1,8,0:0:0:0:
256,192,9956,1,0,0:0:0:0:
256,192,11475,1,0,0:0:0:0:
256,192,11625,1,8,0:0:0:0:
256,192,11718,1,0,0:0:0:0:
256,192,11831,1,0,0:0:0:0:
256,192,12075,1,0,0:0:0:0:
256,192,12525,1,0,0:0:0:0:
256,192,12543,1,0,0:0:0:0:
256,192,12656,1,0,0:0:0:0:
256,192,12768,1,0,0:0:0:0:
256,192,12881,1,8,0:0:0:0:
256,192,12975,1,0,0:0:0:0:
256,192,13012,1,0,0:0:0:0:
256,192,13050,1,0,0:0:0:0:
256,192,13087,1,0,0:0:0:0:
256,192,13200,1,0,0:0:0:0:
256,192,14250,1,0,0:0:0:0:
256,192,14306,1,0,0:0:0:0:
256,192,14400,1,8,0:0:0:0:
256,192,14437,1,0,0:0:0:0:
256,192,14475,1,0,0:0:0:0:
256,192,14512,1,8,0:0:0:0:
256,192,14587,1,0,0:0:0:0:
256,192,14775,1,0,0:0:0:0:
256,192,14850,1,8,0:0:0:0:
256,192,14943,1,0,0:0:0:0:
256,192,15300,1,0,0:0:0:0:
256,192,15375,1,0,0:0:0:0:
256,192,15450,1,8,0:0:0:0:
256,192,15562,1,8,0:0:0:0:
256,192,15637,1,0,0:0:0:0:
256,192,15675,1,0,0:0:0:0:
256,192,15731,1,8,0:0:0:0:
256,192,15825,1,0,0:0:0:0:
256,192,15900,1,8,0:0:0:0:
256,192,17343,1,8,0:0:0:0:
256,192,17475,1,0,0:0:0:0:
256,192,17568,1,0,0:0:0:0:
256,192,17681,1,8,0:0:0:0:
256,192,17775,1,8,0:0:0:0:
256,192,17887,1,0,0:0:0:0:
256,192,18543,1,0,0:0:0:0:
256,192,18637,1,8,0:0:0:0:
256,192,18750,1,8,0:0:0:0:
256,192,18825,1,8,0:0:0:0:
256,192,18900,1,0,0:0:0:0:
256,192,19125,1,8,0:0:0:0:
256,192,19256,1,8,0:0:0:0:
256,192,19312,1,8,0:0:0:0:
256,192,19387,1,8,0:0:0:0:
256,192,19443,1,8,0:0:0:0:
256,192,19500,1,0,0:0:0:0:
256,192,19612,1,0,0:0:0:0:
256,192,19650,1,8,0:0:0:0:
256,192,19687,1,8,0:0:0:0:
256,192,19725,1,0,0:0:0:0:
256,192,20643,1,0,0:0:0:0:
256,192,20737,1,8,0:0:0:0:
256,192,20831,1,8,0:0:0:0:
256,192,20906,1,0,0:0:0:0:
256,192,21075,1,8,0:0:0:0:
256,192,21150,1,0,0:0:0:0:
256,192,21225,1,0,0:0:0:0:
256,192,21300,1,0,0:0:0:0:
256,192,21450,1,8,0:0:0:0:
256,192,21525,1,0,0:0:0:0:
256,192,21600,1,0,0:0:0:0:
256,192,21675,1,0,0:0:0:0:
256,192,21750,1,0,0:0:0:0:
256,192,21825,1,0,0:0:0:0:
256,192,21900,1,8,0:0:0:0:
256,192,21975,1,0,0:0:0:0:
256,192,22106,1,8,0:0:0:0:
256,192,23137,1,8,0:0:0:0:
256,192,23212,1,0,0:0:0:0:
256,192,23962,1,0,0:0:0:0:
256,192,24075,1,8,0:0:0:0:
256,192,24168,1,8,0:0:0:0:
256,192,24318,1,8,0:0:0:0:
256,192,24393,1,8,0:0:0:0:
256,192,24525,1,0,0:0:0:0:
256,192,25875,1,8,0:0:0:0:
256,192,25875,1,8,0:0:0:0:
256,192,25912,1,8,0:0:0:0:
256,192,25912,1,8,0:0:0:0:
256,192,25950,1,0,0:0:0:0:
256,192,25950,1,0,0:0:0:0:
256,192,25987,1,0,0:0:0:0:
256,192,25987,1,0,0:0:0:0:
256,192,26025,1,8,0:0:0:0:
256,192,26025,1,8,0:0:0:0:
256,192,26043,1,8,0:0:0:0:
256,192,26043,1,8,0:0:0:0:
256,192,26100,1,0,0:0:0:0:
256,192,26100,1,0,0:0:0:0:
256,192,26118,1,0,0:0:0:0:
256,192,26118,1,0,0:0:0:0:
256,192,26175,1,8,0:0:0:0:
256,192,26175,1,8,0:0:0:0:
256,192,26193,1,8,0:0:0:0:
256,192,26193,1,8,0:0:0:0:
256,192,26250,1,8,0:0:0:0:
256,192,26250,1,8,0:0:0:0:
256,192,26268,1,8,0:0:0:0:
256,192,26268,1,8,0:0:0:0:
256,192,26325,1,0,0:0:0:0:
256,192,26325,1,0,0:0:0:0:
256,192,26343,1,0,0:0:0:0:
256,192,26343,1,0,0:0:0:0:
256,192,26400,1,8,0:0:0:0:
256,192,26400,1,8,0:0:0:0:
256,192,26418,1,8,0:0:0:0:
256,192,26418,1,8,0:0:0:0:
256,192,26475,1,0,0:0:0:0:
256,192,26475,1,0,0:0:0:0:
256,192,26512,1,0,0:0:0:0:
256,192,26512,1,0,0:0:0:0:
256,192,26550,1,0,0:0:0:0:
256,192,26550,1,0,0:0:0:0:
256,192,26587,1,0,0:0:0:0:
256,192,26587,1,0,0:0:0:0:
256,192,26625,1,8,0:0:0:0:
256,192,26625,1,8,0:0:0:0:
256,192,26643,1,8,0:0:0:0:
256,192,26643,1,8,0:0:0:0:
256,192,26700,1,0,0:0:0:0:
256,192,26700,1,0,0:0:0:0:
256,192,26718,1,0,0:0:0:0:
256,192,26718,1,0,0:0:0:0:
256,192,26775,1,8,0:0:0:0:
256,192,26775,1,8,0:0:0:0:
256,192,26793,1,8,0:0:0:0:
256,192,26793,1,8,0:0:0:0:
256,192,26850,1,8,0:0:0:0:
256,192,26850,1,8,0:0:0:0:
256,192,26868,1,8,0:0:0:0:
256,192,26868,1,8,0:0:0:0:
256,192,26925,1,0,0:0:0:0:
256,192,26925,1,0,0:0:0:0:
256,192,26943,1,0,0:0:0:0:
256,192,26943,1,0,0:0:0:0:
256,192,27000,1,0,0:0:0:0:
256,192,27000,1,0,0:0:0:0:
256,192,27918,1,0,0:0:0:0:
256,192,28031,1,8,0:0:0:0:
256,192,28125,1,8,0:0:0:0:
256,192,28256,1,8,0:0:0:0:
256,192,28462,1,0,0:0:0:0:
256,192,28612,1,8,0:0:0:0:
256,192,28818,1,8,0:0:0:0:
256,192,29025,1,0,0:0:0:0:
256,192,29737,1,8,0:0:0:0:
256,192,29756,1,0,0:0:0:0:
256,192,29775,1,0,0:0:0:0:
256,192,29793,1,0,0:0:0:0:
256,192,30225,1,0,0:0:0:0:
256,192,30356,1,8,0:0:0:0:
256,192,30450,1,0,0:0:0:0:
256,192,30525,1,8,0:0:0:0:
256,192,30618,1,8,0:0:0:0:
256,192,32175,2,4,L|352:192,1,0.01
256,192,32178,2,4,L|352:192,1,0.01
256,192,32179,2,4,L|352:192,1,0.01
256,192,32179,2,4,L|352:192,1,0.01
256,192,32179,2,4,L|352:192,1,0.01
256,192,32179,2,4,L|352:192,1,0.01
256,192,32179,2,4,L|352:192,1,0.01
256,192,32179,2,4,L|352:192,1,0.01
256,192,32179,2,4,L|352:192,1,0.01
256,192,32179,2,4,L|352:192,1,0.01
256,192,32179,2,4,L|352:192,1,0.01
256,192,32179,2,4,L|352:192,1,0.01
256,192,32179,2,4,L|352:192,1,0.01
256,192,32179,2,4,L|352:192,1,0.01
256,192,32179,2,4,L|352:192,1,0.01
256,192,32179,2,4,L|352:192,1,0.01
256,192,32179,2,4,L|352:192,1,0.01
256,192,32179,2,4,L|352:192,1,0.01
256,192,32179,2,4,L|352:192,1,0.01
256,192,32179,2,4,L|352:192,1,0.01
256,192,32179,2,4,L|352:192,1,0.01
256,192,32179,2,4,L|352:192,1,0.01
256,192,32179,2,4,L|352:192,1,0.01
256,192,32179,2,4,L|352:192,1,0.01
256,192,32179,2,4,L|352:192,1,0.01
256,192,32179,2,4,L|352:192,1,0.01
256,192,32179,2,4,L|352:192,1,0.01
256,192,32179,2,4,L|352:192,1,0.01
256,192,32179,2,4,L|352:192,1,0.01
256,192,32179,2,4,L|352:192,1,0.01
256,192,32179,2,4,L|352:192,1,0.01
256,192,32179,2,4,L|352:192,1,0.01
256,192,32179,2,4,L|352:192,1,0.01
256,192,32179,2,4,L|352:192,1,0.01
256,192,32179,2,4,L|352:192,1,0.01
256,192,32179,2,4,L|352:192,1,0.01
256,192,32179,2,4,L|352:192,1,0.01
256,192,32179,2,4,L|352:192,1,0.01
256,192,32179,2,4,L|352:192,1,0.01
256,192,32179,2,4,L|352:192,1,0.01
256,192,32179,2,4,L|352:192,1,0.01
256,192,32179,2,4,L|352:192,1,0.01
256,192,32179,2,4,L|352:192,1,0.01
256,192,32179,2,4,L|352:192,1,0.01
256,192,32179,2,4,L|352:192,1,0.01
256,192,32179,2,4,L|352:192,1,0.01
256,192,32179,2,4,L|352:192,1,0.01
256,192,32179,2,4,L|352:192,1,0.01
256,192,32179,2,4,L|352:192,1,0.01
256,192,32179,2,4,L|352:192,1,0.01
256,192,32179,2,4,L|352:192,1,0.01
256,192,32179,2,4,L|352:192,1,0.01
256,192,32179,2,4,L|352:192,1,0.01
256,192,32179,2,4,L|352:192,1,0.01
256,192,32179,2,4,L|352:192,1,0.01
256,192,32179,2,4,L|352:192,1,0.01
256,192,32179,2,4,L|352:192,1,0.01
256,192,32179,2,4,L|352:192,1,0.01
256,192,32179,2,4,L|352:192,1,0.01
256,192,32179,2,4,L|352:192,1,0.01
256,192,32179,2,4,L|352:192,1,0.01
256,192,32179,2,4,L|352:192,1,0.01
256,192,32179,2,4,L|352:192,1,0.01
256,192,32179,2,4,L|352:192,1,0.01
256,192,32179,2,4,L|352:192,1,0.01
256,192,32179,2,4,L|352:192,1,0.01
256,192,32179,2,4,L|352:192,1,0.01
256,192,32179,2,4,L|352:192,1,0.01
256,192,32179,2,4,L|352:192,1,0.01
256,192,32179,2,4,L|352:192,1,0.01
256,192,32179,2,4,L|352:192,1,0.01
256,192,32179,2,4,L|352:192,1,0.01
256,192,32179,2,4,L|352:192,1,0.01
256,192,32179,2,4,L|352:192,1,0.01
256,192,32179,2,4,L|352:192,1,0.01
256,192,32179,2,4,L|352:192,1,0.01
256,192,32179,2,4,L|352:192,1,0.01
256,192,32179,2,4,L|352:192,1,0.01
256,192,32179,2,4,L|352:192,1,0.01
256,192,32179,2,4,L|352:192,1,0.01
256,192,32179,2,4,L|352:192,1,0.01
256,192,32179,2,4,L|352:192,1,0.01
256,192,32179,2,4,L|352:192,1,0.01
256,192,32179,2,4,L|352:192,1,0.01
256,192,32179,2,4,L|352:192,1,0.01
256,192,32179,2,4,L|352:192,1,0.01
256,192,32179,2,4,L|352:192,1,0.01
256,192,32179,2,4,L|352:192,1,0.01
256,192,32179,2,4,L|352:192,1,0.01
256,192,32179,2,4,L|352:192,1,0.01
256,192,32179,2,4,L|352:192,1,0.01
256,192,32179,2,4,L|352:192,1,0.01
256,192,32179,2,4,L|352:192,1,0.01
256,192,32179,2,4,L|352:192,1,0.01
256,192,32179,2,4,L|352:192,1,0.01
256,192,32179,2,4,L|352:192,1,0.01
256,192,32179,2,4,L|352:192,1,0.01
256,192,32181,2,4,L|352:192,1,0.01
256,192,32181,2,4,L|352:192,1,0.01
256,192,32212,2,4,L|352:192,1,0.01
256,192,32215,2,4,L|352:192,1,0.01
256,192,32216,2,4,L|352:192,1,0.01
256,192,32216,2,4,L|352:192,1,0.01
256,192,32216,2,4,L|352:192,1,0.01
256,192,32216,2,4,L|352:192,1,0.01
256,192,32216,2,4,L|352:192,1,0.01
256,192,32216,2,4,L|352:192,1,0.01
256,192,32216,2,4,L|352:192,1,0.01
256,192,32216,2,4,L|352:192,1,0.01
256,192,32216,2,4,L|352:192,1,0.01
256,192,32216,2,4,L|352:192,1,0.01
256,192,32216,2,4,L|352:192,1,0.01
256,192,32216,2,4,L|352:192,1,0.01
256,192,32216,2,4,L|352:192,1,0.01
256,192,32216,2,4,L|352:192,1,0.01
256,192,32216,2,4,L|352:192,1,0.01
256,192,32216,2,4,L|352:192,1,0.01
256,192,32216,2,4,L|352:192,1,0.01
256,192,32216,2,4,L|352:192,1,0.01
256,192,32216,2,4,L|352:192,1,0.01
256,192,32216,2,4,L|352:192,1,0.01
256,192,32216,2,4,L|352:192,1,0.01
256,192,32216,2,4,L|352:192,1,0.01
256,192,32216,2,4,L|352:192,1,0.01
256,192,32216,2,4,L|352:192,1,0.01
256,192,32216,2,4,L|352:192,1,0.01
256,192,32216,2,4,L|352:192,1,0.01
256,192,32216,2,4,L|352:192,1,0.01
256,192,32216,2,4,L|352:192,1,0.01
256,192,32216,2,4,L|352:192,1,0.01
256,192,32216,2,4,L|352:192,1,0.01
256,192,32216,2,4,L|352:192,1,0.01
256,192,32216,2,4,L|352:192,1,0.01
256,192,32216,2,4,L|352:192,1,0.01
256,192,32216,2,4,L|352:192,1,0.01
256,192,32216,2,4,L|352:192,1,0.01
256,192,32216,2,4,L|352:192,1,0.01
256,192,32216,2,4,L|352:192,1,0.01
256,192,32216,2,4,L|352:192,1,0.01
256,192,32216,2,4,L|352:192,1,0.01
256,192,32216,2,4,L|352:192,1,0.01
256,192,32216,2,4,L|352:192,1,0.01
256,192,32216,2,4,L|352:192,1,0.01
256,192,32216,2,4,L|352:192,1,0.01
256,192,32216,2,4,L|352:192,1,0.01
256,192,32216,2,4,L|352:192,1,0.01
256,192,32216,2,4,L|352:192,1,0.01
256,192,32216,2,4,L|352:192,1,0.01
256,192,32216,2,4,L|352:192,1,0.01
256,192,32216,2,4,L|352:192,1,0.01
256,192,32216,2,4,L|352:192,1,0.01
256,192,32216,2,4,L|352:192,1,0.01
256,192,32216,2,4,L|352:192,1,0.01
256,192,32216,2,4,L|352:192,1,0.01
256,192,32216,2,4,L|352:192,1,0.01
256,192,32216,2,4,L|352:192,1,0.01
256,192,32216,2,4,L|352:192,1,0.01
256,192,32216,2,4,L|352:192,1,0.01
256,192,32216,2,4,L|352:192,1,0.01
256,192,32216,2,4,L|352:192,1,0.01
256,192,32216,2,4,L|352:192,1,0.01
256,192,32216,2,4,L|352:192,1,0.01
256,192,32216,2,4,L|352:192,1,0.01
256,192,32216,2,4,L|352:192,1,0.01
256,192,32216,2,4,L|352:192,1,0.01
256,192,32216,2,4,L|352:192,1,0.01
256,192,32216,2,4,L|352:192,1,0.01
256,192,32216,2,4,L|352:192,1,0.01
256,192,32216,2,4,L|352:192,1,0.01
256,192,32216,2,4,L|352:192,1,0.01
256,192,32216,2,4,L|352:192,1,0.01
256,192,32216,2,4,L|352:192,1,0.01
256,192,32216,2,4,L|352:192,1,0.01
256,192,32216,2,4,L|352:192,1,0.01
256,192,32216,2,4,L|352:192,1,0.01
256,192,32216,2,4,L|352:192,1,0.01
256,192,32216,2,4,L|352:192,1,0.01
256,192,32216,2,4,L|352:192,1,0.01
256,192,32216,2,4,L|352:192,1,0.01
256,192,32216,2,4,L|352:192,1,0.01
256,192,32216,2,4,L|352:192,1,0.01
256,192,32216,2,4,L|352:192,1,0.01
256,192,32216,2,4,L|352:192,1,0.01
256,192,32216,2,4,L|352:192,1,0.01
256,192,32216,2,4,L|352:192,1,0.01
256,192,32216,2,4,L|352:192,1,0.01
256,192,32216,2,4,L|352:192,1,0.01
256,192,32216,2,4,L|352:192,1,0.01
256,192,32216,2,4,L|352:192,1,0.01
256,192,32216,2,4,L|352:192,1,0.01
256,192,32216,2,4,L|352:192,1,0.01
256,192,32216,2,4,L|352:192,1,0.01
256,192,32216,2,4,L|352:192,1,0.01
256,192,32216,2,4,L|352:192,1,0.01
256,192,32216,2,4,L|352:192,1,0.01
256,192,32216,2,4,L|352:192,1,0.01
256,192,32218,2,4,L|352:192,1,0.01
256,192,32218,2,4,L|352:192,1,0.01
256,192,32250,2,4,L|352:192,1,0.01
256,192,32253,2,4,L|352:192,1,0.01
256,192,32254,2,4,L|352:192,1,0.01
256,192,32254,2,4,L|352:192,1,0.01
256,192,32254,2,4,L|352:192,1,0.01
256,192,32254,2,4,L|352:192,1,0.01
256,192,32254,2,4,L|352:192,1,0.01
256,192,32254,2,4,L|352:192,1,0.01
256,192,32254,2,4,L|352:192,1,0.01
256,192,32254,2,4,L|352:192,1,0.01
256,192,32254,2,4,L|352:192,1,0.01
256,192,32254,2,4,L|352:192,1,0.01
256,192,32254,2,4,L|352:192,1,0.01
256,192,32254,2,4,L|352:192,1,0.01
256,192,32254,2,4,L|352:192,1,0.01
256,192,32254,2,4,L|352:192,1,0.01
256,192,32254,2,4,L|352:192,1,0.01
256,192,32254,2,4,L|352:192,1,0.01
256,192,32254,2,4,L|352:192,1,0.01
256,192,32254,2,4,L|352:192,1,0.01
256,192,32254,2,4,L|352:192,1,0.01
256,192,32254,2,4,L|352:192,1,0.01
256,192,32254,2,4,L|352:192,1,0.01
256,192,32254,2,4,L|352:192,1,0.01
256,192,32254,2,4,L|352:192,1,0.01
256,192,32254,2,4,L|352:192,1,0.01
256,192,32254,2,4,L|352:192,1,0.01
256,192,32254,2,4,L|352:192,1,0.01
256,192,32254,2,4,L|352:192,1,0.01
256,192,32254,2,4,L|352:192,1,0.01
256,192,32254,2,4,L|352:192,1,0.01
256,192,32254,2,4,L|352:192,1,0.01
256,192,32254,2,4,L|352:192,1,0.01
256,192,32254,2,4,L|352:192,1,0.01
256,192,32254,2,4,L|352:192,1,0.01
256,192,32254,2,4,L|352:192,1,0.01
256,192,32254,2,4,L|352:192,1,0.01
256,192,32254,2,4,L|352:192,1,0.01
256,192,32254,2,4,L|352:192,1,0.01
256,192,32254,2,4,L|352:192,1,0.01
256,192,32254,2,4,L|352:192,1,0.01
256,192,32254,2,4,L|352:192,1,0.01
256,192,32254,2,4,L|352:192,1,0.01
256,192,32254,2,4,L|352:192,1,0.01
256,192,32254,2,4,L|352:192,1,0.01
256,192,32254,2,4,L|352:192,1,0.01
256,192,32254,2,4,L|352:192,1,0.01
256,192,32254,2,4,L|352:192,1,0.01
256,192,32254,2,4,L|352:192,1,0.01
256,192,32254,2,4,L|352:192,1,0.01
256,192,32254,2,4,L|352:192,1,0.01
256,192,32254,2,4,L|352:192,1,0.01
256,192,32254,2,4,L|352:192,1,0.01
256,192,32254,2,4,L|352:192,1,0.01
256,192,32254,2,4,L|352:192,1,0.01
256,192,32254,2,4,L|352:192,1,0.01
256,192,32254,2,4,L|352:192,1,0.01
256,192,32254,2,4,L|352:192,1,0.01
256,192,32254,2,4,L|352:192,1,0.01
256,192,32254,2,4,L|352:192,1,0.01
256,192,32254,2,4,L|352:192,1,0.01
256,192,32254,2,4,L|352:192,1,0.01
256,192,32254,2,4,L|352:192,1,0.01
256,192,32254,2,4,L|352:192,1,0.01
256,192,32254,2,4,L|352:192,1,0.01
256,192,32254,2,4,L|352:192,1,0.01
256,192,32254,2,4,L|352:192,1,0.01
256,192,32254,2,4,L|352:192,1,0.01
256,192,32254,2,4,L|352:192,1,0.01
256,192,32254,2,4,L|352:192,1,0.01
256,192,32254,2,4,L|352:192,1,0.01
256,192,32254,2,4,L|352:192,1,0.01
256,192,32254,2,4,L|352:192,1,0.01
256,192,32254,2,4,L|352:192,1,0.01
256,192,32254,2,4,L|352:192,1,0.01
256,192,32254,2,4,L|352:192,1,0.01
256,192,32254,2,4,L|352:192,1,0.01
256,192,32254,2,4,L|352:192,1,0.01
256,192,32254,2,4,L|352:192,1,0.01
256,192,32254,2,4,L|352:192,1,0.01
256,192,32254,2,4,L|352:192,1,0.01
256,192,32254,2,4,L|352:192,1,0.01
256,192,32254,2,4,L|352:192,1,0.01
256,192,32254,2,4,L|352:192,1,0.01
256,192,32254,2,4,L|352:192,1,0.01
256,192,32254,2,4,L|352:192,1,0.01
256,192,32254,2,4,L|352:192,1,0.01
256,192,32254,2,4,L|352:192,1,0.01
256,192,32254,2,4,L|352:192,1,0.01
256,192,32254,2,4,L|352:192,1,0.01
256,192,32254,2,4,L|352:192,1,0.01
256,192,32254,2,4,L|352:192,1,0.01
256,192,32254,2,4,L|352:192,1,0.01
256,192,32254,2,4,L|352:192,1,0.01
256,192,32254,2,4,L|352:192,1,0.01
256,192,32254,2,4,L|352:192,1,0.01
256,192,32254,2,4,L|352:192,1,0.01
256,192,32256,2,4,L|352:192,1,0.01
256,192,32256,2,4,L|352:192,1,0.01
256,192,32287,2,4,L|352:192,1,0.01
256,192,32290,2,4,L|352:192,1,0.01
256,192,32291,2,4,L|352:192,1,0.01
256,192,32291,2,4,L|352:192,1,0.01
256,192,32291,2,4,L|352:192,1,0.01
256,192,32291,2,4,L|352:192,1,0.01
256,192,32291,2,4,L|352:192,1,0.01
256,192,32291,2,4,L|352:192,1,0.01
256,192,32291,2,4,L|352:192,1,0.01
256,192,32291,2,4,L|352:192,1,0.01
256,192,32291,2,4,L|352:192,1,0.01
256,192,32291,2,4,L|352:192,1,0.01
256,192,32291,2,4,L|352:192,1,0.01
256,192,32291,2,4,L|352:192,1,0.01
256,192,32291,2,4,L|352:192,1,0.01
256,192,32291,2,4,L|352:192,1,0.01
256,192,32291,2,4,L|352:192,1,0.01
256,192,32291,2,4,L|352:192,1,0.01
256,192,32291,2,4,L|352:192,1,0.01
256,192,32291,2,4,L|352:192,1,0.01
256,192,32291,2,4,L|352:192,1,0.01
256,192,32291,2,4,L|352:192,1,0.01
256,192,32291,2,4,L|352:192,1,0.01
256,192,32291,2,4,L|352:192,1,0.01
256,192,32291,2,4,L|352:192,1,0.01
256,192,32291,2,4,L|352:192,1,0.01
256,192,32291,2,4,L|352:192,1,0.01
256,192,32291,2,4,L|352:192,1,0.01
256,192,32291,2,4,L|352:192,1,0.01
256,192,32291,2,4,L|352:192,1,0.01
256,192,32291,2,4,L|352:192,1,0.01
256,192,32291,2,4,L|352:192,1,0.01
256,192,32291,2,4,L|352:192,1,0.01
256,192,32291,2,4,L|352:192,1,0.01
256,192,32291,2,4,L|352:192,1,0.01
256,192,32291,2,4,L|352:192,1,0.01
256,192,32291,2,4,L|352:192,1,0.01
256,192,32291,2,4,L|352:192,1,0.01
256,192,32291,2,4,L|352:192,1,0.01
256,192,32291,2,4,L|352:192,1,0.01
256,192,32291,2,4,L|352:192,1,0.01
256,192,32291,2,4,L|352:192,1,0.01
256,192,32291,2,4,L|352:192,1,0.01
256,192,32291,2,4,L|352:192,1,0.01
256,192,32291,2,4,L|352:192,1,0.01
256,192,32291,2,4,L|352:192,1,0.01
256,192,32291,2,4,L|352:192,1,0.01
256,192,32291,2,4,L|352:192,1,0.01
256,192,32291,2,4,L|352:192,1,0.01
256,192,32291,2,4,L|352:192,1,0.01
256,192,32291,2,4,L|352:192,1,0.01
256,192,32291,2,4,L|352:192,1,0.01
256,192,32291,2,4,L|352:192,1,0.01
256,192,32291,2,4,L|352:192,1,0.01
256,192,32291,2,4,L|352:192,1,0.01
256,192,32291,2,4,L|352:192,1,0.01
256,192,32291,2,4,L|352:192,1,0.01
256,192,32291,2,4,L|352:192,1,0.01
256,192,32291,2,4,L|352:192,1,0.01
256,192,32291,2,4,L|352:192,1,0.01
256,192,32291,2,4,L|352:192,1,0.01
256,192,32291,2,4,L|352:192,1,0.01
256,192,32291,2,4,L|352:192,1,0.01
256,192,32291,2,4,L|352:192,1,0.01
256,192,32291,2,4,L|352:192,1,0.01
256,192,32291,2,4,L|352:192,1,0.01
256,192,32291,2,4,L|352:192,1,0.01
256,192,32291,2,4,L|352:192,1,0.01
256,192,32291,2,4,L|352:192,1,0.01
256,192,32291,2,4,L|352:192,1,0.01
256,192,32291,2,4,L|352:192,1,0.01
256,192,32291,2,4,L|352:192,1,0.01
256,192,32291,2,4,L|352:192,1,0.01
256,192,32291,2,4,L|352:192,1,0.01
256,192,32291,2,4,L|352:192,1,0.01
256,192,32291,2,4,L|352:192,1,0.01
256,192,32291,2,4,L|352:192,1,0.01
256,192,32291,2,4,L|352:192,1,0.01
256,192,32291,2,4,L|352:192,1,0.01
256,192,32291,2,4,L|352:192,1,0.01
256,192,32291,2,4,L|352:192,1,0.01
256,192,32291,2,4,L|352:192,1,0.01
256,192,32291,2,4,L|352:192,1,0.01
256,192,32291,2,4,L|352:192,1,0.01
256,192,32291,2,4,L|352:192,1,0.01
256,192,32291,2,4,L|352:192,1,0.01
256,192,32291,2,4,L|352:192,1,0.01
256,192,32291,2,4,L|352:192,1,0.01
256,192,32291,2,4,L|352:192,1,0.01
256,192,32291,2,4,L|352:192,1,0.01
256,192,32291,2,4,L|352:192,1,0.01
256,192,32291,2,4,L|352:192,1,0.01
256,192,32291,2,4,L|352:192,1,0.01
256,192,32291,2,4,L|352:192,1,0.01
256,192,32291,2,4,L|352:192,1,0.01
256,192,32291,2,4,L|352:192,1,0.01
256,192,32291,2,4,L|352:192,1,0.01
256,192,32293,2,4,L|352:192,1,0.01
256,192,32293,2,4,L|352:192,1,0.01
256,192,32322,2,4,L|352:192,1,0.01
256,192,32325,2,4,L|352:192,1,0.01
256,192,32326,2,4,L|352:192,1,0.01
256,192,32326,2,4,L|352:192,1,0.01
256,192,32326,2,4,L|352:192,1,0.01
256,192,32326,2,4,L|352:192,1,0.01
256,192,32326,2,4,L|352:192,1,0.01
256,192,32326,2,4,L|352:192,1,0.01
256,192,32326,2,4,L|352:192,1,0.01
256,192,32326,2,4,L|352:192,1,0.01
256,192,32326,2,4,L|352:192,1,0.01
256,192,32326,2,4,L|352:192,1,0.01
256,192,32326,2,4,L|352:192,1,0.01
256,192,32326,2,4,L|352:192,1,0.01
256,192,32326,2,4,L|352:192,1,0.01
256,192,32326,2,4,L|352:192,1,0.01
256,192,32326,2,4,L|352:192,1,0.01
256,192,32326,2,4,L|352:192,1,0.01
256,192,32326,2,4,L|352:192,1,0.01
256,192,32326,2,4,L|352:192,1,0.01
256,192,32326,2,4,L|352:192,1,0.01
256,192,32326,2,4,L|352:192,1,0.01
256,192,32326,2,4,L|352:192,1,0.01
256,192,32326,2,4,L|352:192,1,0.01
256,192,32326,2,4,L|352:192,1,0.01
256,192,32326,2,4,L|352:192,1,0.01
256,192,32326,2,4,L|352:192,1,0.01
256,192,32326,2,4,L|352:192,1,0.01
256,192,32326,2,4,L|352:192,1,0.01
256,192,32326,2,4,L|352:192,1,0.01
256,192,32326,2,4,L|352:192,1,0.01
256,192,32326,2,4,L|352:192,1,0.01
256,192,32326,2,4,L|352:192,1,0.01
256,192,32326,2,4,L|352:192,1,0.01
256,192,32326,2,4,L|352:192,1,0.01
256,192,32326,2,4,L|352:192,1,0.01
256,192,32326,2,4,L|352:192,1,0.01
256,192,32326,2,4,L|352:192,1,0.01
256,192,32326,2,4,L|352:192,1,0.01
256,192,32326,2,4,L|352:192,1,0.01
256,192,32326,2,4,L|352:192,1,0.01
256,192,32326,2,4,L|352:192,1,0.01
256,192,32326,2,4,L|352:192,1,0.01
256,192,32326,2,4,L|352:192,1,0.01
256,192,32326,2,4,L|352:192,1,0.01
256,192,32326,2,4,L|352:192,1,0.01
256,192,32326,2,4,L|352:192,1,0.01
256,192,32326,2,4,L|352:192,1,0.01
256,192,32326,2,4,L|352:192,1,0.01
256,192,32326,2,4,L|352:192,1,0.01
256,192,32326,2,4,L|352:192,1,0.01
256,192,32326,2,4,L|352:192,1,0.01
256,192,32326,2,4,L|352:192,1,0.01
256,192,32326,2,4,L|352:192,1,0.01
256,192,32326,2,4,L|352:192,1,0.01
256,192,32326,2,4,L|352:192,1,0.01
256,192,32326,2,4,L|352:192,1,0.01
256,192,32326,2,4,L|352:192,1,0.01
256,192,32326,2,4,L|352:192,1,0.01
256,192,32326,2,4,L|352:192,1,0.01
256,192,32326,2,4,L|352:192,1,0.01
256,192,32326,2,4,L|352:192,1,0.01
256,192,32326,2,4,L|352:192,1,0.01
256,192,32326,2,4,L|352:192,1,0.01
256,192,32326,2,4,L|352:192,1,0.01
256,192,32326,2,4,L|352:192,1,0.01
256,192,32326,2,4,L|352:192,1,0.01
256,192,32326,2,4,L|352:192,1,0.01
256,192,32326,2,4,L|352:192,1,0.01
256,192,32326,2,4,L|352:192,1,0.01
256,192,32326,2,4,L|352:192,1,0.01
256,192,32326,2,4,L|352:192,1,0.01
256,192,32326,2,4,L|352:192,1,0.01
256,192,32326,2,4,L|352:192,1,0.01
256,192,32326,2,4,L|352:192,1,0.01
256,192,32326,2,4,L|352:192,1,0.01
256,192,32326,2,4,L|352:192,1,0.01
256,192,32326,2,4,L|352:192,1,0.01
256,192,32326,2,4,L|352:192,1,0.01
256,192,32326,2,4,L|352:192,1,0.01
256,192,32326,2,4,L|352:192,1,0.01
256,192,32326,2,4,L|352:192,1,0.01
256,192,32326,2,4,L|352:192,1,0.01
256,192,32326,2,4,L|352:192,1,0.01
256,192,32326,2,4,L|352:192,1,0.01
256,192,32326,2,4,L|352:192,1,0.01
256,192,32326,2,4,L|352:192,1,0.01
256,192,32326,2,4,L|352:192,1,0.01
256,192,32326,2,4,L|352:192,1,0.01
256,192,32326,2,4,L|352:192,1,0.01
256,192,32326,2,4,L|352:192,1,0.01
256,192,32326,2,4,L|352:192,1,0.01
256,192,32326,2,4,L|352:192,1,0.01
256,192,32326,2,4,L|352:192,1,0.01
256,192,32326,2,4,L|352:192,1,0.01
256,192,32326,2,4,L|352:192,1,0.01
256,192,32326,2,4,L|352:192,1,0.01
256,192,32328,2,4,L|352:192,1,0.01
256,192,32328,2,4,L|352:192,1,0.01
256,192,32359,2,4,L|352:192,1,0.01
256,192,32362,2,4,L|352:192,1,0.01
256,192,32363,2,4,L|352:192,1,0.01
256,192,32363,2,4,L|352:192,1,0.01
256,192,32363,2,4,L|352:192,1,0.01
256,192,32363,2,4,L|352:192,1,0.01
256,192,32363,2,4,L|352:192,1,0.01
256,192,32363,2,4,L|352:192,1,0.01
256,192,32363,2,4,L|352:192,1,0.01
256,192,32363,2,4,L|352:192,1,0.01
256,192,32363,2,4,L|352:192,1,0.01
256,192,32363,2,4,L|352:192,1,0.01
256,192,32363,2,4,L|352:192,1,0.01
256,192,32363,2,4,L|352:192,1,0.01
256,192,32363,2,4,L|352:192,1,0.01
256,192,32363,2,4,L|352:192,1,0.01
256,192,32363,2,4,L|352:192,1,0.01
256,192,32363,2,4,L|352:192,1,0.01
256,192,32363,2,4,L|352:192,1,0.01
256,192,32363,2,4,L|352:192,1,0.01
256,192,32363,2,4,L|352:192,1,0.01
256,192,32363,2,4,L|352:192,1,0.01
256,192,32363,2,4,L|352:192,1,0.01
256,192,32363,2,4,L|352:192,1,0.01
256,192,32363,2,4,L|352:192,1,0.01
256,192,32363,2,4,L|352:192,1,0.01
256,192,32363,2,4,L|352:192,1,0.01
256,192,32363,2,4,L|352:192,1,0.01
256,192,32363,2,4,L|352:192,1,0.01
256,192,32363,2,4,L|352:192,1,0.01
256,192,32363,2,4,L|352:192,1,0.01
256,192,32363,2,4,L|352:192,1,0.01
256,192,32363,2,4,L|352:192,1,0.01
256,192,32363,2,4,L|352:192,1,0.01
256,192,32363,2,4,L|352:192,1,0.01
256,192,32363,2,4,L|352:192,1,0.01
256,192,32363,2,4,L|352:192,1,0.01
256,192,32363,2,4,L|352:192,1,0.01
256,192,32363,2,4,L|352:192,1,0.01
256,192,32363,2,4,L|352:192,1,0.01
256,192,32363,2,4,L|352:192,1,0.01
256,192,32363,2,4,L|352:192,1,0.01
256,192,32363,2,4,L|352:192,1,0.01
256,192,32363,2,4,L|352:192,1,0.01
256,192,32363,2,4,L|352:192,1,0.01
256,192,32363,2,4,L|352:192,1,0.01
256,192,32363,2,4,L|352:192,1,0.01
256,192,32363,2,4,L|352:192,1,0.01
256,192,32363,2,4,L|352:192,1,0.01
256,192,32363,2,4,L|352:192,1,0.01
256,192,32363,2,4,L|352:192,1,0.01
256,192,32363,2,4,L|352:192,1,0.01
256,192,32363,2,4,L|352:192,1,0.01
256,192,32363,2,4,L|352:192,1,0.01
256,192,32363,2,4,L|352:192,1,0.01
256,192,32363,2,4,L|352:192,1,0.01
256,192,32363,2,4,L|352:192,1,0.01
256,192,32363,2,4,L|352:192,1,0.01
256,192,32363,2,4,L|352:192,1,0.01
256,192,32363,2,4,L|352:192,1,0.01
256,192,32363,2,4,L|352:192,1,0.01
256,192,32363,2,4,L|352:192,1,0.01
256,192,32363,2,4,L|352:192,1,0.01
256,192,32363,2,4,L|352:192,1,0.01
256,192,32363,2,4,L|352:192,1,0.01
256,192,32363,2,4,L|352:192,1,0.01
256,192,32363,2,4,L|352:192,1,0.01
256,192,32363,2,4,L|352:192,1,0.01
256,192,32363,2,4,L|352:192,1,0.01
256,192,32363,2,4,L|352:192,1,0.01
256,192,32363,2,4,L|352:192,1,0.01
256,192,32363,2,4,L|352:192,1,0.01
256,192,32363,2,4,L|352:192,1,0.01
256,192,32363,2,4,L|352:192,1,0.01
256,192,32363,2,4,L|352:192,1,0.01
256,192,32363,2,4,L|352:192,1,0.01
256,192,32363,2,4,L|352:192,1,0.01
256,192,32363,2,4,L|352:192,1,0.01
256,192,32363,2,4,L|352:192,1,0.01
256,192,32363,2,4,L|352:192,1,0.01
256,192,32363,2,4,L|352:192,1,0.01
256,192,32363,2,4,L|352:192,1,0.01
256,192,32363,2,4,L|352:192,1,0.01
256,192,32363,2,4,L|352:192,1,0.01
256,192,32363,2,4,L|352:192,1,0.01
256,192,32363,2,4,L|352:192,1,0.01
256,192,32363,2,4,L|352:192,1,0.01
256,192,32363,2,4,L|352:192,1,0.01
256,192,32363,2,4,L|352:192,1,0.01
256,192,32363,2,4,L|352:192,1,0.01
256,192,32363,2,4,L|352:192,1,0.01
256,192,32363,2,4,L|352:192,1,0.01
256,192,32363,2,4,L|352:192,1,0.01
256,192,32363,2,4,L|352:192,1,0.01
256,192,32363,2,4,L|352:192,1,0.01
256,192,32363,2,4,L|352:192,1,0.01
256,192,32363,2,4,L|352:192,1,0.01
256,192,32365,2,4,L|352:192,1,0.01
256,192,32365,2,4,L|352:192,1,0.01
