osu file format v14

[General]
AudioFilename: audio.mp3
AudioLeadIn: 0
PreviewTime: -1
Countdown: 0
SampleSet: None
StackLeniency: 0.5
Mode: 1
LetterboxInBreaks: 0
WidescreenStoryboard: 1

[Editor]
DistanceSpacing: 0.5
BeatDivisor: 4
GridSize: 4
TimelineZoom: 2.599999

[Metadata]
Title:Dien May Xanh
TitleUnicode:Dien May Xanh
Artist:People who run the company
ArtistUnicode:People who run the company
Creator:Asrielly
Version:Ri's Fridge Oni
Source:The depths of meme hell
Tags:devilchilly
BeatmapID:1151284
BeatmapSetID:541859

[Difficulty]
HPDrainRate:6
CircleSize:5
OverallDifficulty:6
ApproachRate:6
SliderMultiplier:1.4
SliderTickRate:1

[Events]
//Background and Video events
Video,0,"en ien may XANH mua ien may tra gop 0.mp4"
0,0,"photo.jpg",0,0
//Break Periods
//Storyboard Layer 0 (Background)
//Storyboard Layer 1 (Fail)
//Storyboard Layer 2 (Pass)
//Storyboard Layer 3 (Foreground)
//Storyboard Sound Samples

[TimingPoints]
2345,400,4,2,0,70,1,0
2345,-71.4285714285714,4,2,0,70,0,0
3945,-33.3333333333333,4,2,0,70,0,0
5545,-62.5,4,2,0,70,0,0
7145,-25,4,2,0,70,0,0
8745,-55.5555555555556,4,2,0,70,0,0
10345,-20,4,2,0,70,0,0
11945,-55.5555555555556,4,2,0,70,0,0
13545,-16.6666666666666,4,2,0,70,0,0
15145,-50,4,2,0,70,0,0
16745,-12.5,4,2,0,70,0,0
18345,-45.4545454545455,4,2,0,70,0,0
19945,-11.1111111111111,4,2,0,70,0,0
21545,-10,4,2,0,70,0,1
29545,-10000000,4,2,0,70,0,0

[HitObjects]
256,192,2345,5,4,0:0:0:0:
256,192,2745,1,8,0:0:0:0:
256,192,2945,1,0,0:0:0:0:
256,192,3045,1,0,0:0:0:0:
256,192,3145,1,8,0:0:0:0:
256,192,3345,1,0,0:0:0:0:
256,192,3545,1,8,0:0:0:0:
256,192,3945,1,4,0:0:0:0:
256,192,5545,1,12,0:0:0:0:
256,192,5945,1,8,0:0:0:0:
256,192,6045,1,8,0:0:0:0:
256,192,6145,1,8,0:0:0:0:
256,192,6245,1,0,0:0:0:0:
256,192,6345,1,8,0:0:0:0:
256,192,6545,1,8,0:0:0:0:
256,192,6645,1,0,0:0:0:0:
256,192,6745,1,8,0:0:0:0:
256,192,6945,1,8,0:0:0:0:
256,192,7145,1,4,0:0:0:0:
256,192,8745,1,12,0:0:0:0:
256,192,9145,1,8,0:0:0:0:
256,192,9245,1,8,0:0:0:0:
256,192,9345,1,0,0:0:0:0:
256,192,9445,1,0,0:0:0:0:
256,192,9545,1,8,0:0:0:0:
256,192,9745,1,8,0:0:0:0:
256,192,9845,1,0,0:0:0:0:
256,192,9945,1,8,0:0:0:0:
256,192,10145,1,0,0:0:0:0:
256,192,10345,1,4,0:0:0:0:
256,192,11945,1,4,0:0:0:0:
256,192,12145,1,0,0:0:0:0:
256,192,12345,1,8,0:0:0:0:
256,192,12445,1,8,0:0:0:0:
256,192,12545,1,0,0:0:0:0:
256,192,12645,1,0,0:0:0:0:
256,192,12745,1,8,0:0:0:0:
256,192,12845,1,0,0:0:0:0:
256,192,12945,1,8,0:0:0:0:
256,192,13045,1,8,0:0:0:0:
256,192,13145,1,0,0:0:0:0:
256,192,13345,1,8,0:0:0:0:
256,192,13545,1,12,0:0:0:0:
256,192,15145,1,4,0:0:0:0:
256,192,15345,1,0,0:0:0:0:
256,192,15545,1,8,0:0:0:0:
256,192,15645,1,0,0:0:0:0:
256,192,15745,1,8,0:0:0:0:
256,192,15845,1,8,0:0:0:0:
256,192,15945,1,0,0:0:0:0:
256,192,16145,1,8,0:0:0:0:
256,192,16245,1,8,0:0:0:0:
256,192,16345,1,0,0:0:0:0:
256,192,16545,1,8,0:0:0:0:
256,192,16745,1,4,0:0:0:0:
256,192,18345,1,4,0:0:0:0:
256,192,18545,1,0,0:0:0:0:
256,192,18745,1,8,0:0:0:0:
256,192,18945,1,0,0:0:0:0:
256,192,19145,1,8,0:0:0:0:
256,192,19245,1,0,0:0:0:0:
256,192,19345,1,8,0:0:0:0:
256,192,19445,1,0,0:0:0:0:
256,192,19545,1,8,0:0:0:0:
256,192,19945,1,12,0:0:0:0:
256,192,21545,1,4,0:0:0:0:
256,192,21745,1,0,0:0:0:0:
256,192,21945,1,8,0:0:0:0:
256,192,21995,1,8,0:0:0:0:
256,192,22145,1,8,0:0:0:0:
256,192,22195,1,8,0:0:0:0:
256,192,22345,1,0,0:0:0:0:
256,192,22395,1,0,0:0:0:0:
256,192,22545,1,8,0:0:0:0:
256,192,22595,1,8,0:0:0:0:
256,192,22745,1,8,0:0:0:0:
256,192,22795,1,8,0:0:0:0:
256,192,22945,1,8,0:0:0:0:
256,192,22995,1,8,0:0:0:0:
256,192,23145,1,12,0:0:0:0:
256,192,23345,1,8,0:0:0:0:
256,192,23411,1,8,0:0:0:0:
256,192,23478,1,8,0:0:0:0:
256,192,23545,1,0,0:0:0:0:
256,192,23745,1,0,0:0:0:0:
256,192,23945,1,8,0:0:0:0:
256,192,24145,1,0,0:0:0:0:
256,192,24345,1,8,0:0:0:0:
256,192,24545,1,8,0:0:0:0:
256,192,24745,1,4,0:0:0:0:
256,192,24945,1,0,0:0:0:0:
256,192,25145,1,8,0:0:0:0:
256,192,25195,1,0,0:0:0:0:
256,192,25345,1,0,0:0:0:0:
256,192,25395,1,8,0:0:0:0:
256,192,25545,1,0,0:0:0:0:
256,192,25745,1,8,0:0:0:0:
256,192,25795,1,8,0:0:0:0:
256,192,25945,1,8,0:0:0:0:
256,192,25995,1,8,0:0:0:0:
256,192,26145,1,8,0:0:0:0:
256,192,26195,1,8,0:0:0:0:
256,192,26345,1,12,0:0:0:0:
256,192,26545,1,0,0:0:0:0:
256,192,26645,1,0,0:0:0:0:
256,192,26745,1,8,0:0:0:0:
256,192,26945,1,8,0:0:0:0:
256,192,27145,1,0,0:0:0:0:
256,192,27345,1,0,0:0:0:0:
256,192,27545,1,0,0:0:0:0:
256,192,27745,1,0,0:0:0:0:
256,192,27945,1,0,0:0:0:0:
256,192,28145,1,0,0:0:0:0:
256,192,28345,1,0,0:0:0:0:
256,192,28545,1,0,0:0:0:0:
256,192,28745,1,0,0:0:0:0:
256,192,28945,1,4,0:0:0:0:
256,192,29145,1,4,0:0:0:0:
256,192,29345,1,4,0:0:0:0:
256,192,29545,1,4,0:0:0:0:
