osu file format v14

[General]
AudioFilename: audio.mp3
AudioLeadIn: 0
PreviewTime: -1
Countdown: 0
SampleSet: None
StackLeniency: 0.5
Mode: 0
LetterboxInBreaks: 0
WidescreenStoryboard: 1

[Editor]
DistanceSpacing: 1.5
BeatDivisor: 4
GridSize: 32
TimelineZoom: 2.599999

[Metadata]
Title:Dien May Xanh
TitleUnicode:Dien May Xanh
Artist:People who run the company
ArtistUnicode:People who run the company
Creator:Asrielly
Version:Hikan's DMX
Source:The depths of meme hell
Tags:devilchilly
BeatmapID:1156315
BeatmapSetID:541859

[Difficulty]
HPDrainRate:1
CircleSize:4
OverallDifficulty:8
ApproachRate:9
SliderMultiplier:3.59999990463257
SliderTickRate:1

[Events]
//Background and Video events
Video,0,"en ien may XANH mua ien may tra gop 0.mp4"
0,0,"photo.jpg",0,0
//Break Periods
//Storyboard Layer 0 (Background)
//Storyboard Layer 1 (Fail)
//Storyboard Layer 2 (Pass)
//Storyboard Layer 3 (Foreground)
//Storyboard Sound Samples

[TimingPoints]
745,400,4,2,0,70,1,0
1145,-100,4,2,0,70,0,0
1245,-100,4,2,0,5,0,0
1345,-100,4,2,0,70,0,0
1445,-100,4,2,0,5,0,0
1545,-100,4,2,0,70,0,0
1945,-1,4,2,0,70,0,0
2345,-100,4,2,0,70,0,0
4345,160,4,2,0,70,1,0
4345,-1.11111111111111,4,2,0,70,0,0
4385,-1.11111111111111,4,2,0,5,0,0
4745,200,4,2,0,70,1,0
4745,-1,4,2,0,70,0,0
4795,-1,4,2,0,5,0,0
5145,400,4,2,0,70,1,0
5145,-1,4,2,0,70,0,0
5170,-1,4,2,0,5,0,0
5545,-100,4,2,0,70,0,0
7645,-100,4,2,0,5,0,0
7745,-100,4,2,0,70,0,0
7845,-100,4,2,0,5,0,0
7945,-100,4,2,0,70,0,0
8345,-1,4,2,0,70,0,0
8445,-1,4,2,0,5,0,0
8745,-100,4,2,0,70,0,0
10245,-100,4,2,0,5,0,0
10345,-100,4,2,0,70,0,0
10745,160,4,2,0,70,1,0
10745,-1.11111111111111,4,2,0,70,0,0
10825,-1.11111111111111,4,2,0,5,0,0
11145,200,4,2,0,70,1,0
11145,-1,4,2,0,70,0,0
11195,-1,4,2,0,5,0,0
11545,400,4,2,0,70,1,0
11545,-1,4,2,0,70,0,0
11570,-1,4,2,0,5,0,0
11945,-100,4,2,0,70,0,0
13945,-54.6448087431694,4,2,0,70,0,0
14345,160,4,2,0,70,1,0
14345,-1,4,2,0,70,0,0
14385,-1,4,2,0,5,0,0
15145,400,4,2,0,70,1,0
15145,-80,4,2,0,70,0,0
17145,160,4,2,0,70,1,0
17145,-1,4,2,0,70,0,0
17185,-1,4,2,0,5,0,0
17545,200,4,2,0,70,1,0
17545,-1,4,2,0,70,0,0
17595,-1,4,2,0,5,0,0
17945,400,4,2,0,70,1,0
17945,-1,4,2,0,70,0,0
17970,-1,4,2,0,5,0,0
18345,-100,4,2,0,70,0,0
20745,-40,4,2,0,70,0,0
21445,-40,4,2,0,5,0,0
21545,-1,4,2,0,70,0,0
21645,-1,4,2,0,5,0,0
21945,-1,4,2,0,70,0,0
21970,-1,4,2,0,5,0,0
22145,-1,4,2,0,70,0,0
22245,-1,4,2,0,5,0,0
22545,-1,4,2,0,70,0,0
22570,-1,4,2,0,5,0,0
22745,-1,4,2,0,70,0,0
22845,-1,4,2,0,5,0,0
22945,-1,4,2,0,70,0,0
22995,-1,4,2,0,5,0,0
23145,-1,4,2,0,70,0,0
23245,-1,4,2,0,5,0,0
23945,-40,4,2,0,70,0,0
24645,-40,4,2,0,5,0,0
24745,-1,4,2,0,70,0,0
24845,-1,4,2,0,5,0,0
25145,-1,4,2,0,70,0,0
25195,-1,4,2,0,5,0,0
25345,-1,4,2,0,70,0,0
25445,-1,4,2,0,5,0,0
25745,-1,4,2,0,70,0,0
25795,-1,4,2,0,5,0,0
25945,-1,4,2,0,70,0,0
26045,-1,4,2,0,5,0,0
26145,-1,4,2,0,70,0,0
26195,-1,4,2,0,5,0,0
26345,-1,4,2,0,70,0,0
26445,-1,4,2,0,70,0,0
27545,-100,4,2,0,70,0,0
27945,-200,4,2,0,70,0,0
28245,-200,4,2,0,5,0,0
28345,-66.6666666666667,4,2,0,70,0,0
28445,-66.6666666666667,4,2,0,5,0,0
28545,-200,4,2,0,70,0,0
28845,-200,4,2,0,5,0,0
28945,-200,4,2,0,70,0,0
29145,-100,4,2,0,70,0,0

[HitObjects]
46,24,1145,6,0,L|152:12,1,89.9999976158142
255,93,1345,2,0,L|149:81,1,89.9999976158142
106,183,1545,1,0,0:0:0:0:
246,63,1945,6,0,B|396:52|396:52|99:74|99:74|246:64|246:64|270:403,1,899.999976158142
35,47,2345,6,0,B|230:365|230:365|392:34|392:34|231:367|231:367|35:47,1,1439.99996185303
52,303,4345,6,0,B|26:117|26:117|201:125|145:304|52:307|52:307|39:214|39:214|-10:222|-10:222|180:191|180:191|305:169|305:169|258:107|201:130|156:206|199:258|267:288|329:245|329:245|268:288|199:258|204:186|204:186|385:154|385:154|407:262|407:262|387:165|414:147|473:128|505:169|505:169|529:301,1,2024.99994635582
104,55,4745,2,0,B|96:145|96:145|111:-39|111:-39|222:-58|277:43|248:160|96:146|96:146|104:55|104:55|41:48|41:48|177:58,1,899.999976158142
203,353,5145,2,0,B|181:254|181:254|194:194|259:193|294:228|294:228|318:334|318:334|294:228|294:228|316:183|365:170|400:208|400:208|423:315|423:315|430:350|480:382|556:347,1,809.999978542328
397,28,5545,6,0,B|61:351|61:351|232:188|232:188|89:-14|89:-14|384:401,1,1439.99996185303
466,360,7545,6,0,L|360:372,1,89.9999976158142
257,291,7745,2,0,L|363:303,1,89.9999976158142
406,201,7945,1,0,0:0:0:0:
266,63,8345,6,0,B|116:52|116:52|413:74|413:74|266:64|266:64|242:403,1,899.999976158142
24,129,8745,6,0,B|46:315|46:315|191:296|191:296|119:295|105:221|139:185|202:176|212:213|212:213|225:289|225:289|228:224|260:195|342:191|351:286|351:286|330:90|330:90|343:195|340:193|358:153|401:150|448:156|464:213|464:213|481:309,1,1349.99996423721
208,373,10345,5,0,0:0:0:0:
34,262,10745,6,0,B|44:74|44:74|214:115|125:280|33:265|33:265|38:172|38:172|-10:170|-10:170|181:176|181:176|308:178|308:178|274:108|213:120|155:186|187:245|248:288|317:257|317:257|249:288|187:245|206:176|206:176|389:179|389:179|390:289|390:289|389:190|419:177|481:170|504:216|504:216|503:351,1,2024.99994635582
28,108,11145,2,0,B|36:198|36:198|19:15|19:15|125:-23|196:66|188:186|36:199|36:199|28:108|28:108|-35:112|-35:112|101:98,1,899.999976158142
219,280,11545,2,0,B|223:178|223:178|251:124|314:139|339:182|339:182|334:291|334:291|339:182|339:182|372:145|422:145|446:190|446:190|441:300|441:300|439:335|479:379|561:365,1,809.999978542328
115,28,11945,6,0,B|451:351|451:351|280:188|280:188|423:-14|423:-14|128:401,1,1439.99996185303
0,140,13945,6,0,B|-18:7|-18:7|-9:73|-9:73|-2:12|97:-15|110:98|110:98|86:12|143:-20|223:-18|220:96|220:96|193:62|204:14|220:-5|300:5|300:5|310:89|310:89|267:125|223:100|223:100|265:125|308:82|308:82|343:107|389:89|389:89|380:7|380:7|392:78|440:92|501:71|501:71|501:-1|501:-1|503:168|503:168|479:218|405:213|369:163,1,1811.69991952423
82,152,14345,2,0,B|69:342|69:342|182:326|182:326|212:358|251:358|296:347|251:358|212:358|182:327|182:327|156:263|225:202|286:265|286:265|277:374|277:374|281:297|393:290|382:384|382:384|402:227|402:227|391:316|391:316|439:290|504:308|495:392,1,1349.99996423721
102,189,15145,6,0,B|47:156|-16:217|-1:271|88:299|116:245|116:245|111:184|111:184|141:337|141:337|90:369|47:349|47:349|91:369|141:337|141:337|184:350|222:329|222:329|206:244|206:244|221:322|279:337|344:324|344:324|310:320|274:285|303:203|383:233|383:233|400:317|400:317|445:322|474:298|493:268|493:268|476:144|476:144|481:178|481:178|443:187|443:187|510:173|510:173|481:178|481:178|495:280|521:340|565:337,1,1799.99995231629
0,305,17145,6,0,B|-16:117|-16:117|157:134|92:310|0:308|0:308|-8:215|-8:215|-56:220|-56:220|133:199|133:199|259:183|259:183|216:119|157:139|109:212|149:266|215:300|279:260|279:260|216:300|149:266|158:195|158:195|339:173|339:173|356:282|356:282|341:184|369:167|429:151|459:194|459:194|476:327,1,2024.99994635582
39,80,17545,2,0,B|36:171|36:171|42:-12|42:-12|152:-37|211:59|189:177|36:172|36:172|39:80|39:80|-23:77|-23:77|113:79,1,899.999976158142
230,283,17945,2,0,B|221:182|221:182|242:125|307:132|337:171|337:171|345:280|345:280|337:171|337:171|365:131|415:125|444:166|444:166|452:276|452:276|455:311|500:350|579:326,1,809.999978542328
120,23,18345,6,0,B|445:357|445:357|280:188|280:188|430:-8|430:-8|120:396,1,1439.99996185303
58,242,20745,6,0,B|33:54|33:54|107:60|196:88|218:203|158:288|67:314|67:314|51:188|51:188|-14:198|-14:198|228:162|228:162|245:264|245:264|228:171|307:142|352:176|370:237|370:237|377:146|510:149|486:286,1,1574.99995827675
397,330,21545,2,0,B|241:105|241:105|320:218|320:218|204:330|204:330|464:75,1,899.999976158142
0,72,21945,6,0,B|28:223|28:223|41:288|162:301|203:243|203:202|203:202|182:15,1,539.999985694885
88,140,22145,2,0,B|123:257|123:257|176:207|176:207|219:263|219:263|286:140|286:140|252:204|252:204|263:263|327:283|384:265|364:161|305:177|261:225|277:264|370:283|370:283|396:287|424:275|424:275|372:277|366:226|403:181|445:213|445:213|452:299|536:276,1,1079.99997138977
74,63,22545,6,0,B|127:206|127:206|151:268|273:260|303:196|296:155|296:155|243:-24,1,539.999985694885
0,229,22745,2,0,B|55:338|55:338|99:279|99:279|151:327|151:327|195:194|195:194|173:264|173:264|194:320|260:328|314:301|276:202|221:228|185:282|208:318|303:321|303:321|329:320|354:304|354:304|304:315|288:266|317:215|365:239|365:239|386:322|465:285,1,1079.99997138977
129,8,22945,6,0,B|130:162|130:162|131:228|248:262|299:212|306:171|306:171|318:-15,1,539.999985694885
46,128,23145,2,0,B|60:249|60:249|121:209|121:209|154:272|154:272|241:162|241:162|196:220|196:220|197:280|257:310|316:303|314:197|253:202|201:241|211:283|299:318|299:318|324:327|353:319|353:319|302:313|304:261|349:223|385:262|385:262|377:348|464:340,1,1079.99997138977
63,259,23945,6,0,B|21:73|21:73|96:73|187:93|219:206|166:296|78:330|78:330|51:205|51:205|-12:221|-12:221|225:164|225:164|251:264|251:264|226:173|302:137|350:167|373:226|373:226|372:135|505:127|493:265,1,1574.99995827675
408,317,24745,6,0,B|233:106|233:106|322:212|322:212|216:334|216:334|453:57,1,899.999976158142
0,94,25145,6,0,B|31:242|31:242|50:306|171:308|207:247|204:206|204:206|166:22,1,539.999985694885
84,154,25345,2,0,B|129:268|129:268|177:213|177:213|225:265|225:265|281:137|281:137|253:204|253:204|269:262|334:276|389:253|360:151|303:172|263:224|283:261|377:272|377:272|403:274|430:260|430:260|378:266|368:216|401:168|446:196|446:196|460:281|542:251,1,1079.99997138977
63,79,25745,2,0,B|128:217|128:217|158:276|278:258|303:191|292:151|292:151|224:-22,1,539.999985694885
4,251,25945,2,0,B|68:354|68:354|107:292|107:292|163:335|163:335|195:199|195:199|179:270|179:270|205:324|271:327|323:295|276:200|224:230|193:287|219:321|314:316|314:316|339:313|363:295|363:295|314:310|294:262|318:209|368:229|368:229|396:310|472:266,1,1079.99997138977
113,19,26145,6,0,B|127:173|127:173|134:238|254:262|300:208|303:166|303:166|299:-19,1,539.999985694885
41,146,26345,2,0,B|65:265|65:265|122:220|122:220|161:280|161:280|238:163|238:163|198:225|198:225|204:284|267:309|325:297|314:191|253:202|205:245|219:286|309:313|309:313|335:320|363:310|363:310|312:308|309:256|351:214|390:250|390:250|390:336|476:321,1,1079.99997138977
295,384,26745,5,0,0:0:0:0:
303,291,26945,1,0,0:0:0:0:
311,198,27145,1,0,0:0:0:0:
319,105,27345,1,0,0:0:0:0:
327,12,27545,2,0,L|349:210,1,179.999995231629
252,275,27945,6,0,P|207:237|128:253,1,134.999996423721
206,159,28345,6,0,P|195:216|248:277,1,134.999996423721
129,257,28545,6,0,P|184:237|210:160,1,134.999996423721
178,83,28945,5,0,0:0:0:0:
252,275,29145,6,0,B|202:232|130:256|130:256|199:225|206:158|206:158|206:225|251:277,1,359.999990463257
