osu file format v14

[General]
AudioFilename: audio.mp3
AudioLeadIn: 0
PreviewTime: -1
Countdown: 0
SampleSet: Soft
StackLeniency: 0.7
Mode: 3
LetterboxInBreaks: 0
SpecialStyle: 0
WidescreenStoryboard: 0

[Editor]
DistanceSpacing: 0.5
BeatDivisor: 16
GridSize: 16
TimelineZoom: 2.999999

[Metadata]
Title:Dien May Xanh
TitleUnicode:Dien May Xanh
Artist:People who run the company
ArtistUnicode:People who run the company
Creator:Asrielly
Version:shocking meme
Source:The depths of meme hell
Tags:devilchilly memes vietnamese commercial điện máy xanh
BeatmapID:1150739
BeatmapSetID:541859

[Difficulty]
HPDrainRate:10
CircleSize:4
OverallDifficulty:10
ApproachRate:5
SliderMultiplier:1.6
SliderTickRate:1

[Events]
//Background and Video events
Video,0,"en ien may XANH mua ien may tra gop 0.mp4"
0,0,"photo.jpg",0,0
//Break Periods
//Storyboard Layer 0 (Background)
//Storyboard Layer 1 (Fail)
//Storyboard Layer 2 (Pass)
//Storyboard Layer 3 (Foreground)
//Storyboard Sound Samples

[TimingPoints]
2345,400,4,2,0,5,1,0
19945,-400,4,2,0,5,0,0
20370,-40,4,2,0,5,0,0
20645,-400,4,2,0,5,0,0
20745,-100,4,2,0,5,0,0

[HitObjects]
192,192,945,128,0,1145:0:0:0:0:
320,192,1145,1,0,0:0:0:0:
448,192,1145,1,0,0:0:0:0:
320,192,1345,1,0,0:0:0:0:
448,192,1345,1,0,0:0:0:0:
64,192,1545,1,0,0:0:0:0:
192,192,1545,1,0,0:0:0:0:
64,192,1945,1,0,0:0:0:0:
192,192,1945,1,0,0:0:0:0:
448,192,1945,1,0,0:0:0:0:
64,192,2345,1,0,0:0:0:0:
320,192,2345,1,0,0:0:0:0:
448,192,2345,1,0,0:0:0:0:
192,192,2411,1,0,0:0:0:0:
320,192,2478,1,0,0:0:0:0:
448,192,2478,1,0,0:0:0:0:
64,192,2545,1,0,0:0:0:0:
192,192,2611,1,0,0:0:0:0:
448,192,2611,1,0,0:0:0:0:
320,192,2678,1,0,0:0:0:0:
64,192,2745,1,0,0:0:0:0:
448,192,2745,1,0,0:0:0:0:
192,192,2811,1,0,0:0:0:0:
64,192,2878,1,0,0:0:0:0:
320,192,2878,1,0,0:0:0:0:
448,192,2878,1,0,0:0:0:0:
192,192,2945,1,0,0:0:0:0:
320,192,3011,1,0,0:0:0:0:
64,192,3011,1,0,0:0:0:0:
448,192,3011,1,0,0:0:0:0:
192,192,3078,1,0,0:0:0:0:
448,192,3145,1,0,0:0:0:0:
64,192,3211,1,0,0:0:0:0:
192,192,3211,1,0,0:0:0:0:
320,192,3211,1,0,0:0:0:0:
448,192,3278,1,0,0:0:0:0:
320,192,3345,1,0,0:0:0:0:
64,192,3411,1,0,0:0:0:0:
320,192,3478,1,0,0:0:0:0:
64,192,3545,1,0,0:0:0:0:
192,192,3545,1,0,0:0:0:0:
448,192,3545,1,0,0:0:0:0:
320,192,3611,1,0,0:0:0:0:
192,192,3678,1,0,0:0:0:0:
448,192,3678,1,0,0:0:0:0:
320,192,3745,1,0,0:0:0:0:
64,192,3811,1,0,0:0:0:0:
448,192,3811,1,0,0:0:0:0:
192,192,3878,1,0,0:0:0:0:
320,192,3945,128,0,4345:0:0:0:0:
448,192,3945,128,0,4345:0:0:0:0:
64,192,4345,128,0,4745:0:0:0:0:
192,192,4745,128,0,5145:0:0:0:0:
320,192,5145,128,0,5545:0:0:0:0:
448,192,5545,1,0,0:0:0:0:
64,192,5545,1,0,0:0:0:0:
192,192,5611,1,0,0:0:0:0:
320,192,5678,1,0,0:0:0:0:
448,192,5678,1,0,0:0:0:0:
192,192,5745,1,0,0:0:0:0:
64,192,5811,1,0,0:0:0:0:
448,192,5811,1,0,0:0:0:0:
320,192,5878,1,0,0:0:0:0:
192,192,5945,1,0,0:0:0:0:
448,192,6011,1,0,0:0:0:0:
320,192,6011,1,0,0:0:0:0:
64,192,6011,1,0,0:0:0:0:
192,192,6078,1,0,0:0:0:0:
64,192,6145,1,0,0:0:0:0:
320,192,6145,1,0,0:0:0:0:
192,192,6211,1,0,0:0:0:0:
320,192,6278,1,0,0:0:0:0:
64,192,6345,1,0,0:0:0:0:
192,192,6345,1,0,0:0:0:0:
448,192,6345,1,0,0:0:0:0:
320,192,6411,1,0,0:0:0:0:
448,192,6478,1,0,0:0:0:0:
192,192,6478,1,0,0:0:0:0:
64,192,6545,1,0,0:0:0:0:
320,192,6611,1,0,0:0:0:0:
64,192,6678,1,0,0:0:0:0:
192,192,6745,1,0,0:0:0:0:
320,192,6745,1,0,0:0:0:0:
448,192,6745,1,0,0:0:0:0:
64,192,6811,1,0,0:0:0:0:
320,192,6878,1,0,0:0:0:0:
448,192,6878,1,0,0:0:0:0:
192,192,6945,1,0,0:0:0:0:
64,192,7011,1,0,0:0:0:0:
320,192,7011,1,0,0:0:0:0:
448,192,7078,1,0,0:0:0:0:
320,192,7145,1,0,0:0:0:0:
64,192,7145,128,0,7545:0:0:0:0:
192,192,7145,128,0,7545:0:0:0:0:
320,192,7545,128,0,7695:0:0:0:0:
192,192,7695,128,0,7945:0:0:0:0:
320,192,7945,128,0,8345:0:0:0:0:
448,192,8345,128,0,8745:0:0:0:0:
320,192,8745,1,0,0:0:0:0:
64,192,8745,1,0,0:0:0:0:
192,192,8811,1,0,0:0:0:0:
320,192,8878,1,0,0:0:0:0:
448,192,8878,1,0,0:0:0:0:
64,192,8945,1,0,0:0:0:0:
192,192,9011,1,0,0:0:0:0:
448,192,9011,1,0,0:0:0:0:
320,192,9078,1,0,0:0:0:0:
64,192,9145,1,0,0:0:0:0:
448,192,9145,1,0,0:0:0:0:
192,192,9145,1,0,0:0:0:0:
320,192,9211,1,0,0:0:0:0:
64,192,9278,1,0,0:0:0:0:
320,192,9345,1,0,0:0:0:0:
192,192,9345,1,0,0:0:0:0:
448,192,9345,1,0,0:0:0:0:
64,192,9411,1,0,0:0:0:0:
192,192,9478,1,0,0:0:0:0:
320,192,9478,1,0,0:0:0:0:
448,192,9545,1,0,0:0:0:0:
192,192,9611,1,0,0:0:0:0:
64,192,9611,1,0,0:0:0:0:
320,192,9611,1,0,0:0:0:0:
448,192,9678,1,0,0:0:0:0:
64,192,9745,1,0,0:0:0:0:
192,192,9745,1,0,0:0:0:0:
320,192,9811,1,0,0:0:0:0:
192,192,9878,1,0,0:0:0:0:
448,192,9878,1,0,0:0:0:0:
64,192,9945,1,0,0:0:0:0:
320,192,10011,1,0,0:0:0:0:
448,192,10011,1,0,0:0:0:0:
192,192,10011,1,0,0:0:0:0:
64,192,10078,1,0,0:0:0:0:
320,192,10145,1,0,0:0:0:0:
448,192,10145,1,0,0:0:0:0:
192,192,10211,1,0,0:0:0:0:
320,192,10278,1,0,0:0:0:0:
192,192,10345,1,0,0:0:0:0:
64,192,10345,128,0,10745:0:0:0:0:
448,192,10345,128,0,10745:0:0:0:0:
192,192,10745,128,0,11145:0:0:0:0:
320,192,11145,128,0,11545:0:0:0:0:
192,192,11545,128,0,11945:0:0:0:0:
64,192,11945,1,0,0:0:0:0:
320,192,11945,1,0,0:0:0:0:
448,192,12011,1,0,0:0:0:0:
64,192,12078,1,0,0:0:0:0:
192,192,12078,1,0,0:0:0:0:
320,192,12145,1,0,0:0:0:0:
64,192,12211,1,0,0:0:0:0:
448,192,12211,1,0,0:0:0:0:
192,192,12278,1,0,0:0:0:0:
64,192,12345,1,0,0:0:0:0:
320,192,12345,1,0,0:0:0:0:
448,192,12345,1,0,0:0:0:0:
192,192,12411,1,0,0:0:0:0:
320,192,12478,1,0,0:0:0:0:
448,192,12478,1,0,0:0:0:0:
192,192,12545,1,0,0:0:0:0:
320,192,12611,1,0,0:0:0:0:
64,192,12611,1,0,0:0:0:0:
448,192,12678,1,0,0:0:0:0:
64,192,12745,1,0,0:0:0:0:
192,192,12745,1,0,0:0:0:0:
320,192,12745,1,0,0:0:0:0:
448,192,12811,1,0,0:0:0:0:
64,192,12878,1,0,0:0:0:0:
192,192,12878,1,0,0:0:0:0:
320,192,12945,1,0,0:0:0:0:
192,192,13011,1,0,0:0:0:0:
448,192,13011,1,0,0:0:0:0:
64,192,13078,1,0,0:0:0:0:
320,192,13145,1,0,0:0:0:0:
448,192,13145,1,0,0:0:0:0:
192,192,13145,1,0,0:0:0:0:
64,192,13211,1,0,0:0:0:0:
320,192,13278,1,0,0:0:0:0:
448,192,13278,1,0,0:0:0:0:
192,192,13345,1,0,0:0:0:0:
64,192,13411,1,0,0:0:0:0:
320,192,13411,1,0,0:0:0:0:
192,192,13478,1,0,0:0:0:0:
320,192,13545,1,0,0:0:0:0:
64,192,13545,128,0,13945:0:0:0:0:
448,192,13545,128,0,13945:0:0:0:0:
192,192,13945,128,0,14345:0:0:0:0:
320,192,14345,128,0,14745:0:0:0:0:
64,192,14745,128,0,15145:0:0:0:0:
448,192,15145,1,0,0:0:0:0:
320,192,15145,1,0,0:0:0:0:
192,192,15211,1,0,0:0:0:0:
320,192,15278,1,0,0:0:0:0:
64,192,15278,1,0,0:0:0:0:
448,192,15345,1,0,0:0:0:0:
64,192,15411,1,0,0:0:0:0:
192,192,15411,1,0,0:0:0:0:
320,192,15478,1,0,0:0:0:0:
64,192,15545,1,0,0:0:0:0:
448,192,15545,1,0,0:0:0:0:
192,192,15545,1,0,0:0:0:0:
320,192,15611,1,0,0:0:0:0:
192,192,15678,1,0,0:0:0:0:
448,192,15678,1,0,0:0:0:0:
64,192,15745,1,0,0:0:0:0:
320,192,15811,1,0,0:0:0:0:
448,192,15811,1,0,0:0:0:0:
192,192,15878,1,0,0:0:0:0:
64,192,15945,1,0,0:0:0:0:
320,192,15945,1,0,0:0:0:0:
448,192,15945,1,0,0:0:0:0:
192,192,16011,1,0,0:0:0:0:
64,192,16078,1,0,0:0:0:0:
320,192,16078,1,0,0:0:0:0:
448,192,16145,1,0,0:0:0:0:
64,192,16211,1,0,0:0:0:0:
192,192,16211,1,0,0:0:0:0:
448,192,16278,1,0,0:0:0:0:
64,192,16345,1,0,0:0:0:0:
192,192,16345,1,0,0:0:0:0:
320,192,16345,1,0,0:0:0:0:
448,192,16411,1,0,0:0:0:0:
64,192,16478,1,0,0:0:0:0:
192,192,16478,1,0,0:0:0:0:
320,192,16545,1,0,0:0:0:0:
448,192,16611,1,0,0:0:0:0:
192,192,16611,1,0,0:0:0:0:
64,192,16678,1,0,0:0:0:0:
448,192,16745,1,0,0:0:0:0:
192,192,16745,128,0,17145:0:0:0:0:
320,192,16745,128,0,17145:0:0:0:0:
64,192,17145,128,0,17545:0:0:0:0:
448,192,17545,128,0,17945:0:0:0:0:
64,192,17945,128,0,18345:0:0:0:0:
320,192,18345,1,0,0:0:0:0:
192,192,18345,1,0,0:0:0:0:
448,192,18411,1,0,0:0:0:0:
64,192,18478,1,0,0:0:0:0:
192,192,18478,1,0,0:0:0:0:
320,192,18545,1,0,0:0:0:0:
64,192,18611,1,0,0:0:0:0:
448,192,18611,1,0,0:0:0:0:
192,192,18678,1,0,0:0:0:0:
320,192,18745,1,0,0:0:0:0:
448,192,18745,1,0,0:0:0:0:
64,192,18745,1,0,0:0:0:0:
192,192,18811,1,0,0:0:0:0:
320,192,18878,1,0,0:0:0:0:
448,192,18878,1,0,0:0:0:0:
64,192,18945,1,0,0:0:0:0:
192,192,19011,1,0,0:0:0:0:
320,192,19011,1,0,0:0:0:0:
448,192,19078,1,0,0:0:0:0:
64,192,19145,1,0,0:0:0:0:
192,192,19145,1,0,0:0:0:0:
320,192,19145,1,0,0:0:0:0:
448,192,19211,1,0,0:0:0:0:
320,192,19278,1,0,0:0:0:0:
64,192,19345,1,0,0:0:0:0:
192,192,19345,1,0,0:0:0:0:
448,192,19345,1,0,0:0:0:0:
320,192,19411,1,0,0:0:0:0:
64,192,19478,1,0,0:0:0:0:
192,192,19478,1,0,0:0:0:0:
320,192,19545,1,0,0:0:0:0:
448,192,19611,1,0,0:0:0:0:
192,192,19611,1,0,0:0:0:0:
64,192,19678,1,0,0:0:0:0:
192,192,19745,1,0,0:0:0:0:
448,192,19745,1,0,0:0:0:0:
320,192,19745,128,0,19945:0:0:0:0:
64,192,19945,1,0,0:0:0:0:
192,192,19945,1,0,0:0:0:0:
64,192,20745,1,0,0:0:0:0:
448,192,20745,1,0,0:0:0:0:
320,192,20745,128,0,21145:0:0:0:0:
192,192,20745,1,0,0:0:0:0:
192,192,21145,128,0,21545:0:0:0:0:
64,192,21545,1,0,0:0:0:0:
448,192,21545,1,0,0:0:0:0:
320,192,21611,1,0,0:0:0:0:
64,192,21678,1,0,0:0:0:0:
192,192,21678,1,0,0:0:0:0:
448,192,21745,1,0,0:0:0:0:
64,192,21811,1,0,0:0:0:0:
320,192,21811,1,0,0:0:0:0:
192,192,21878,1,0,0:0:0:0:
64,192,21945,1,0,0:0:0:0:
448,192,21945,1,0,0:0:0:0:
320,192,21945,1,0,0:0:0:0:
192,192,22011,1,0,0:0:0:0:
320,192,22078,1,0,0:0:0:0:
64,192,22145,1,0,0:0:0:0:
192,192,22145,1,0,0:0:0:0:
448,192,22145,1,0,0:0:0:0:
320,192,22211,1,0,0:0:0:0:
64,192,22278,1,0,0:0:0:0:
192,192,22278,1,0,0:0:0:0:
448,192,22345,1,0,0:0:0:0:
192,192,22411,1,0,0:0:0:0:
320,192,22411,1,0,0:0:0:0:
64,192,22478,1,0,0:0:0:0:
192,192,22545,1,0,0:0:0:0:
320,192,22545,1,0,0:0:0:0:
448,192,22545,1,0,0:0:0:0:
64,192,22611,1,0,0:0:0:0:
448,192,22678,1,0,0:0:0:0:
64,192,22745,1,0,0:0:0:0:
192,192,22745,1,0,0:0:0:0:
320,192,22745,1,0,0:0:0:0:
448,192,22811,1,0,0:0:0:0:
192,192,22878,1,0,0:0:0:0:
64,192,22945,1,0,0:0:0:0:
320,192,22945,1,0,0:0:0:0:
448,192,22945,1,0,0:0:0:0:
192,192,23011,1,0,0:0:0:0:
320,192,23078,1,0,0:0:0:0:
64,192,23145,1,0,0:0:0:0:
192,192,23145,1,0,0:0:0:0:
448,192,23145,1,0,0:0:0:0:
192,192,23545,1,0,0:0:0:0:
320,192,23545,1,0,0:0:0:0:
192,192,23745,1,0,0:0:0:0:
320,192,23745,1,0,0:0:0:0:
192,192,23945,128,0,24345:0:0:0:0:
448,192,24345,128,0,24745:0:0:0:0:
320,192,24345,1,0,0:0:0:0:
192,192,24745,1,0,0:0:0:0:
64,192,24745,1,0,0:0:0:0:
320,192,24811,1,0,0:0:0:0:
192,192,24878,1,0,0:0:0:0:
448,192,24878,1,0,0:0:0:0:
64,192,24945,1,0,0:0:0:0:
320,192,25011,1,0,0:0:0:0:
448,192,25011,1,0,0:0:0:0:
192,192,25078,1,0,0:0:0:0:
64,192,25145,1,0,0:0:0:0:
448,192,25145,1,0,0:0:0:0:
320,192,25145,1,0,0:0:0:0:
192,192,25211,1,0,0:0:0:0:
448,192,25278,1,0,0:0:0:0:
64,192,25345,1,0,0:0:0:0:
192,192,25345,1,0,0:0:0:0:
320,192,25345,1,0,0:0:0:0:
448,192,25411,1,0,0:0:0:0:
192,192,25478,1,0,0:0:0:0:
64,192,25478,1,0,0:0:0:0:
320,192,25545,1,0,0:0:0:0:
448,192,25611,1,0,0:0:0:0:
192,192,25611,1,0,0:0:0:0:
64,192,25678,1,0,0:0:0:0:
192,192,25745,1,0,0:0:0:0:
320,192,25745,1,0,0:0:0:0:
448,192,25745,1,0,0:0:0:0:
64,192,25811,1,0,0:0:0:0:
320,192,25878,1,0,0:0:0:0:
64,192,25945,1,0,0:0:0:0:
192,192,25945,1,0,0:0:0:0:
448,192,25945,1,0,0:0:0:0:
320,192,26011,1,0,0:0:0:0:
192,192,26078,1,0,0:0:0:0:
64,192,26145,1,0,0:0:0:0:
320,192,26145,1,0,0:0:0:0:
448,192,26145,1,0,0:0:0:0:
192,192,26211,1,0,0:0:0:0:
320,192,26278,1,0,0:0:0:0:
64,192,26345,1,0,0:0:0:0:
192,192,26345,1,0,0:0:0:0:
448,192,26345,1,0,0:0:0:0:
320,192,26545,1,0,0:0:0:0:
448,192,26545,1,0,0:0:0:0:
320,192,26645,1,0,0:0:0:0:
448,192,26645,1,0,0:0:0:0:
64,192,26745,1,0,0:0:0:0:
192,192,26745,1,0,0:0:0:0:
64,192,26945,1,0,0:0:0:0:
192,192,26945,1,0,0:0:0:0:
64,192,27145,1,0,0:0:0:0:
192,192,27145,1,0,0:0:0:0:
64,192,27345,1,0,0:0:0:0:
320,192,27345,1,0,0:0:0:0:
448,192,27345,1,0,0:0:0:0:
64,192,27545,1,0,0:0:0:0:
320,192,27545,1,0,0:0:0:0:
448,192,27545,1,0,0:0:0:0:
64,192,27745,1,0,0:0:0:0:
192,192,27745,1,0,0:0:0:0:
320,192,27745,1,0,0:0:0:0:
448,192,27745,1,0,0:0:0:0:
64,192,27945,128,0,28245:0:0:0:0:
192,192,27945,128,0,28845:0:0:0:0:
64,192,28345,1,0,0:0:0:0:
64,192,28545,128,0,29570:0:0:0:0:
192,192,28945,1,0,0:0:0:0:
192,192,29145,128,0,29570:0:0:0:0:
320,192,29570,128,0,30020:0:0:0:0:
448,192,29570,128,0,30020:0:0:0:0:
