osu file format v14

[General]
AudioFilename: output.ogg
AudioLeadIn: 0
PreviewTime: 78172
Countdown: 0
SampleSet: Soft
StackLeniency: 0.7
Mode: 3
LetterboxInBreaks: 0
SpecialStyle: 0
WidescreenStoryboard: 1

[Editor]
DistanceSpacing: 0.8
BeatDivisor: 4
GridSize: 8
TimelineZoom: 1.5

[Metadata]
Title:Perfume Medley
TitleUnicode:Perfume Medley
Artist:Pentatonix
ArtistUnicode:Pentatonix
Creator:Rivals_7
Version:Standard
Source:
Tags:a cappella japanese pop spending all my time pick me up chocolate disco polyrhythm english vocals beatbox Scott Hoying Scott Richard Hoying Kirstin Taylor Maldonado Mitch Grassi Mitchell Coby Michael Grassi Messer Kevin Olusola Kevin "K.O." Olusola Avriel Benjamin Kaplan Avi Kaplan cover remix arrange
BeatmapID:3468078
BeatmapSetID:1697474

[Difficulty]
HPDrainRate:7
CircleSize:5
OverallDifficulty:6.9
ApproachRate:5
SliderMultiplier:1.4
SliderTickRate:1

[Events]
//Background and Video events
0,0,"perfume.jpg",0,0
//Break Periods
//Storyboard Layer 0 (Background)
//Storyboard Layer 1 (Fail)
//Storyboard Layer 2 (Pass)
//Storyboard Layer 3 (Foreground)
//Storyboard Layer 4 (Overlay)
//Storyboard Sound Samples

[TimingPoints]
485,468.75,4,2,1,32,1,0
485,-102.459016393443,4,2,1,32,0,0
45485,480,4,2,1,32,1,0
76205,480,5,2,1,32,1,0
78171,480,4,2,1,32,1,0

[HitObjects]
51,192,485,128,0,953:0:0:0:0:
358,192,953,1,0,0:0:0:0:
460,192,953,1,0,0:0:0:0:
256,192,1188,1,0,0:0:0:0:
358,192,1891,1,0,0:0:0:0:
460,192,1891,1,0,0:0:0:0:
153,192,2360,128,0,2828:0:0:0:0:
358,192,2828,1,0,0:0:0:0:
460,192,2828,1,0,0:0:0:0:
256,192,3063,1,0,0:0:0:0:
153,192,3766,1,0,0:0:0:0:
51,192,3766,1,0,0:0:0:0:
460,192,4235,128,0,4703:0:0:0:0:
153,192,4703,1,0,0:0:0:0:
51,192,4703,1,0,0:0:0:0:
256,192,4938,1,0,0:0:0:0:
358,192,5641,1,0,0:0:0:0:
460,192,5641,1,0,0:0:0:0:
153,192,6110,128,0,6578:0:0:0:0:
358,192,6578,1,0,0:0:0:0:
460,192,6578,1,0,0:0:0:0:
256,192,6813,1,0,0:0:0:0:
153,192,7516,1,0,0:0:0:0:
51,192,7516,1,0,0:0:0:0:
358,192,7985,1,0,0:0:0:0:
460,192,7985,128,0,8453:0:0:0:0:
153,192,8453,128,0,8922:0:0:0:0:
256,192,8453,1,0,0:0:0:0:
358,192,8688,1,0,0:0:0:0:
460,192,8922,128,0,9391:0:0:0:0:
153,192,9391,1,0,0:0:0:0:
51,192,9391,1,0,0:0:0:0:
256,192,9625,1,0,0:0:0:0:
358,192,9860,128,0,10328:0:0:0:0:
153,192,10328,1,0,0:0:0:0:
51,192,10328,1,0,0:0:0:0:
256,192,10563,1,0,0:0:0:0:
358,192,10797,1,0,0:0:0:0:
153,192,11031,1,0,0:0:0:0:
256,192,11266,128,0,11735:0:0:0:0:
460,192,11735,128,0,12203:0:0:0:0:
51,192,11735,1,0,0:0:0:0:
256,192,12203,1,0,0:0:0:0:
153,192,12203,128,0,12672:0:0:0:0:
358,192,12438,1,0,0:0:0:0:
460,192,12672,128,0,13141:0:0:0:0:
153,192,13141,1,0,0:0:0:0:
51,192,13141,1,0,0:0:0:0:
358,192,13375,1,0,0:0:0:0:
256,192,13610,1,0,0:0:0:0:
153,192,13844,1,0,0:0:0:0:
358,192,14078,1,0,0:0:0:0:
460,192,14078,1,0,0:0:0:0:
51,192,14313,128,0,14547:0:0:0:0:
460,192,14547,128,0,15016:0:0:0:0:
153,192,15016,128,0,15485:0:0:0:0:
256,192,15016,1,0,0:0:0:0:
358,192,15485,1,0,0:0:0:0:
460,192,15485,1,0,0:0:0:0:
51,192,15953,128,0,16422:0:0:0:0:
256,192,15953,1,0,0:0:0:0:
358,192,16188,1,0,0:0:0:0:
460,192,16422,128,0,16891:0:0:0:0:
153,192,16891,128,0,17360:0:0:0:0:
256,192,16891,1,0,0:0:0:0:
358,192,17360,128,0,17828:0:0:0:0:
51,192,17828,128,0,18297:0:0:0:0:
153,192,17828,1,0,0:0:0:0:
460,192,18063,1,0,0:0:0:0:
256,192,18297,128,0,18766:0:0:0:0:
460,192,18766,128,0,19235:0:0:0:0:
358,192,18766,1,0,0:0:0:0:
51,192,19235,1,0,0:0:0:0:
358,192,19703,128,0,20172:0:0:0:0:
256,192,19703,1,0,0:0:0:0:
51,192,19938,1,0,0:0:0:0:
153,192,20172,128,0,20641:0:0:0:0:
460,192,20641,128,0,21110:0:0:0:0:
358,192,20641,1,0,0:0:0:0:
256,192,21110,128,0,21578:0:0:0:0:
51,192,21578,128,0,22047:0:0:0:0:
153,192,21578,1,0,0:0:0:0:
358,192,21813,1,0,0:0:0:0:
460,192,22047,128,0,22516:0:0:0:0:
153,192,22516,128,0,22985:0:0:0:0:
51,192,22516,1,0,0:0:0:0:
358,192,22985,1,0,0:0:0:0:
460,192,22985,1,0,0:0:0:0:
256,192,23453,128,0,23922:0:0:0:0:
51,192,23453,1,0,0:0:0:0:
153,192,23922,1,0,0:0:0:0:
460,192,23922,128,0,24391:0:0:0:0:
358,192,24391,1,0,0:0:0:0:
51,192,24391,128,0,24860:0:0:0:0:
153,192,24860,128,0,25328:0:0:0:0:
256,192,24860,1,0,0:0:0:0:
358,192,25328,1,0,0:0:0:0:
460,192,25328,128,0,25797:0:0:0:0:
153,192,25797,1,0,0:0:0:0:
51,192,25797,128,0,26266:0:0:0:0:
256,192,26266,1,0,0:0:0:0:
358,192,26266,128,0,26735:0:0:0:0:
153,192,26735,1,0,0:0:0:0:
51,192,26735,1,0,0:0:0:0:
256,192,26969,1,0,0:0:0:0:
358,192,27203,1,0,0:0:0:0:
460,192,27203,1,0,0:0:0:0:
51,192,27438,1,0,0:0:0:0:
153,192,27672,1,0,0:0:0:0:
256,192,27672,1,0,0:0:0:0:
358,192,27906,1,0,0:0:0:0:
460,192,28141,1,0,0:0:0:0:
51,192,28141,1,0,0:0:0:0:
153,192,28375,1,0,0:0:0:0:
256,192,28610,1,0,0:0:0:0:
460,192,28610,1,0,0:0:0:0:
51,192,29781,128,0,30016:0:0:0:0:
460,192,30016,1,0,0:0:0:0:
256,192,30016,1,0,0:0:0:0:
153,192,30485,1,0,0:0:0:0:
51,192,30485,1,0,0:0:0:0:
358,192,30719,1,0,0:0:0:0:
256,192,30836,1,0,0:0:0:0:
153,192,30953,1,0,0:0:0:0:
460,192,31188,1,0,0:0:0:0:
256,192,31422,1,0,0:0:0:0:
51,192,31422,1,0,0:0:0:0:
153,192,31656,1,0,0:0:0:0:
358,192,31774,1,0,0:0:0:0:
460,192,31891,1,0,0:0:0:0:
51,192,32125,1,0,0:0:0:0:
358,192,32360,1,0,0:0:0:0:
460,192,32360,1,0,0:0:0:0:
256,192,32594,1,0,0:0:0:0:
153,192,32711,1,0,0:0:0:0:
51,192,32828,1,0,0:0:0:0:
460,192,33063,1,0,0:0:0:0:
256,192,33297,1,0,0:0:0:0:
51,192,33297,128,0,33766:0:0:0:0:
358,192,33531,1,0,0:0:0:0:
460,192,33766,128,0,34235:0:0:0:0:
153,192,34000,1,0,0:0:0:0:
256,192,34235,1,0,0:0:0:0:
51,192,34235,1,0,0:0:0:0:
358,192,34469,1,0,0:0:0:0:
256,192,34586,1,0,0:0:0:0:
153,192,34703,1,0,0:0:0:0:
460,192,34938,1,0,0:0:0:0:
153,192,35172,1,0,0:0:0:0:
51,192,35172,1,0,0:0:0:0:
256,192,35406,1,0,0:0:0:0:
358,192,35524,1,0,0:0:0:0:
460,192,35641,1,0,0:0:0:0:
51,192,35875,1,0,0:0:0:0:
358,192,36110,1,0,0:0:0:0:
460,192,36110,1,0,0:0:0:0:
256,192,36344,1,0,0:0:0:0:
153,192,36461,1,0,0:0:0:0:
51,192,36578,1,0,0:0:0:0:
358,192,36813,128,0,37047:0:0:0:0:
51,192,37047,128,0,37516:0:0:0:0:
153,192,37047,1,0,0:0:0:0:
256,192,37281,1,0,0:0:0:0:
460,192,37516,128,0,37985:0:0:0:0:
256,192,37750,1,0,0:0:0:0:
51,192,37985,1,0,0:0:0:0:
358,192,37985,1,0,0:0:0:0:
153,192,38219,1,0,0:0:0:0:
256,192,38336,1,0,0:0:0:0:
358,192,38453,1,0,0:0:0:0:
153,192,38688,1,0,0:0:0:0:
460,192,38922,1,0,0:0:0:0:
256,192,38922,1,0,0:0:0:0:
358,192,39156,1,0,0:0:0:0:
153,192,39274,1,0,0:0:0:0:
51,192,39391,1,0,0:0:0:0:
358,192,39625,1,0,0:0:0:0:
51,192,39860,1,0,0:0:0:0:
153,192,39860,1,0,0:0:0:0:
256,192,40094,1,0,0:0:0:0:
358,192,40211,1,0,0:0:0:0:
460,192,40328,1,0,0:0:0:0:
51,192,40563,1,0,0:0:0:0:
460,192,40797,128,0,41266:0:0:0:0:
256,192,40797,1,0,0:0:0:0:
153,192,41031,1,0,0:0:0:0:
51,192,41266,128,0,41735:0:0:0:0:
358,192,41500,1,0,0:0:0:0:
460,192,41735,1,0,0:0:0:0:
256,192,41735,1,0,0:0:0:0:
153,192,41969,1,0,0:0:0:0:
256,192,42086,1,0,0:0:0:0:
358,192,42203,1,0,0:0:0:0:
153,192,42438,1,0,0:0:0:0:
460,192,42672,1,0,0:0:0:0:
358,192,42672,1,0,0:0:0:0:
256,192,42906,1,0,0:0:0:0:
153,192,43024,1,0,0:0:0:0:
51,192,43141,1,0,0:0:0:0:
358,192,43375,1,0,0:0:0:0:
51,192,43610,1,0,0:0:0:0:
153,192,43610,1,0,0:0:0:0:
256,192,43844,1,0,0:0:0:0:
358,192,43961,1,0,0:0:0:0:
460,192,44078,1,0,0:0:0:0:
153,192,44313,128,0,44547:0:0:0:0:
358,192,44547,1,0,0:0:0:0:
460,192,44547,128,0,45016:0:0:0:0:
51,192,44781,1,0,0:0:0:0:
51,192,45016,128,0,45485:0:0:0:0:
358,192,45250,1,0,0:0:0:0:
256,192,45485,1,0,0:0:0:0:
460,192,45485,1,0,0:0:0:0:
153,192,45725,128,0,45965:0:0:0:0:
358,192,45965,128,0,46205:0:0:0:0:
460,192,46205,128,0,46445:0:0:0:0:
51,192,46445,128,0,46805:0:0:0:0:
256,192,46805,128,0,47165:0:0:0:0:
460,192,47165,128,0,47405:0:0:0:0:
153,192,47405,128,0,47645:0:0:0:0:
358,192,47645,128,0,47885:0:0:0:0:
460,192,47885,128,0,48125:0:0:0:0:
256,192,48125,1,0,0:0:0:0:
51,192,48245,1,0,0:0:0:0:
153,192,48725,1,0,0:0:0:0:
256,192,48845,1,0,0:0:0:0:
358,192,48965,1,0,0:0:0:0:
460,192,49085,128,0,49325:0:0:0:0:
51,192,49325,1,0,0:0:0:0:
256,192,49565,128,0,49805:0:0:0:0:
358,192,49805,128,0,50045:0:0:0:0:
153,192,50045,128,0,50285:0:0:0:0:
460,192,50285,128,0,50645:0:0:0:0:
51,192,50645,128,0,51005:0:0:0:0:
358,192,51005,128,0,51245:0:0:0:0:
153,192,51245,1,0,0:0:0:0:
153,192,51485,1,0,0:0:0:0:
358,192,51725,1,0,0:0:0:0:
358,192,51965,1,0,0:0:0:0:
51,192,52085,1,0,0:0:0:0:
358,192,52685,1,0,0:0:0:0:
460,192,52685,1,0,0:0:0:0:
153,192,53165,1,0,0:0:0:0:
51,192,53165,1,0,0:0:0:0:
256,192,53405,128,0,53645:0:0:0:0:
358,192,53645,1,0,0:0:0:0:
460,192,53645,128,0,53885:0:0:0:0:
153,192,53885,128,0,54125:0:0:0:0:
51,192,54125,128,0,54485:0:0:0:0:
358,192,54125,1,0,0:0:0:0:
256,192,54485,128,0,54845:0:0:0:0:
358,192,54845,128,0,55085:0:0:0:0:
51,192,55085,128,0,55325:0:0:0:0:
153,192,55085,1,0,0:0:0:0:
460,192,55325,128,0,55565:0:0:0:0:
256,192,55565,128,0,55805:0:0:0:0:
153,192,55565,1,0,0:0:0:0:
358,192,55805,1,0,0:0:0:0:
51,192,55925,1,0,0:0:0:0:
460,192,56045,1,0,0:0:0:0:
153,192,56045,1,0,0:0:0:0:
256,192,56285,1,0,0:0:0:0:
153,192,56525,1,0,0:0:0:0:
51,192,56525,1,0,0:0:0:0:
358,192,56765,1,0,0:0:0:0:
256,192,57005,1,0,0:0:0:0:
460,192,57005,1,0,0:0:0:0:
153,192,57245,128,0,57485:0:0:0:0:
358,192,57485,128,0,57725:0:0:0:0:
460,192,57485,1,0,0:0:0:0:
51,192,57725,128,0,57965:0:0:0:0:
256,192,57965,1,0,0:0:0:0:
460,192,57965,128,0,58325:0:0:0:0:
153,192,58325,128,0,58685:0:0:0:0:
460,192,58685,128,0,58925:0:0:0:0:
256,192,58925,1,0,0:0:0:0:
51,192,58925,1,0,0:0:0:0:
358,192,59165,1,0,0:0:0:0:
460,192,59165,1,0,0:0:0:0:
153,192,59405,1,0,0:0:0:0:
51,192,59405,1,0,0:0:0:0:
358,192,59645,1,0,0:0:0:0:
256,192,59765,1,0,0:0:0:0:
51,192,59765,1,0,0:0:0:0:
358,192,60365,128,0,60605:0:0:0:0:
153,192,60845,1,0,0:0:0:0:
51,192,60845,128,0,61805:0:0:0:0:
256,192,61085,1,0,0:0:0:0:
358,192,61325,1,0,0:0:0:0:
460,192,61325,1,0,0:0:0:0:
153,192,61565,1,0,0:0:0:0:
256,192,61805,1,0,0:0:0:0:
460,192,61805,128,0,62285:0:0:0:0:
153,192,62045,1,0,0:0:0:0:
51,192,62285,1,0,0:0:0:0:
358,192,62285,128,0,62765:0:0:0:0:
153,192,62765,1,0,0:0:0:0:
51,192,62765,128,0,63725:0:0:0:0:
256,192,63005,1,0,0:0:0:0:
358,192,63245,1,0,0:0:0:0:
460,192,63245,1,0,0:0:0:0:
153,192,63485,1,0,0:0:0:0:
358,192,63725,128,0,64205:0:0:0:0:
460,192,63725,1,0,0:0:0:0:
153,192,63965,1,0,0:0:0:0:
51,192,64205,1,0,0:0:0:0:
460,192,64205,1,0,0:0:0:0:
153,192,64685,1,0,0:0:0:0:
51,192,64685,128,0,65645:0:0:0:0:
358,192,64925,1,0,0:0:0:0:
256,192,65165,1,0,0:0:0:0:
460,192,65165,1,0,0:0:0:0:
153,192,65405,1,0,0:0:0:0:
358,192,65645,1,0,0:0:0:0:
460,192,65645,128,0,66125:0:0:0:0:
256,192,65885,1,0,0:0:0:0:
51,192,66125,1,0,0:0:0:0:
153,192,66125,128,0,66605:0:0:0:0:
358,192,66605,1,0,0:0:0:0:
460,192,66605,1,0,0:0:0:0:
256,192,66845,1,0,0:0:0:0:
51,192,67085,1,0,0:0:0:0:
460,192,67085,1,0,0:0:0:0:
358,192,67325,1,0,0:0:0:0:
153,192,67565,1,0,0:0:0:0:
51,192,67565,1,0,0:0:0:0:
256,192,67805,1,0,0:0:0:0:
358,192,68045,1,0,0:0:0:0:
460,192,68045,1,0,0:0:0:0:
256,192,68525,1,0,0:0:0:0:
460,192,68525,128,0,69485:0:0:0:0:
153,192,68765,1,0,0:0:0:0:
51,192,69005,1,0,0:0:0:0:
358,192,69005,1,0,0:0:0:0:
256,192,69245,1,0,0:0:0:0:
153,192,69485,1,0,0:0:0:0:
51,192,69485,128,0,69965:0:0:0:0:
358,192,69725,1,0,0:0:0:0:
256,192,69965,128,0,70445:0:0:0:0:
460,192,69965,1,0,0:0:0:0:
358,192,70445,1,0,0:0:0:0:
460,192,70445,128,0,71405:0:0:0:0:
51,192,70685,1,0,0:0:0:0:
153,192,70925,1,0,0:0:0:0:
256,192,70925,1,0,0:0:0:0:
358,192,71165,1,0,0:0:0:0:
153,192,71405,1,0,0:0:0:0:
51,192,71405,1,0,0:0:0:0:
256,192,71645,1,0,0:0:0:0:
153,192,71885,1,0,0:0:0:0:
460,192,71885,1,0,0:0:0:0:
256,192,72365,1,0,0:0:0:0:
51,192,72365,128,0,73325:0:0:0:0:
358,192,72605,1,0,0:0:0:0:
460,192,72845,1,0,0:0:0:0:
153,192,72845,1,0,0:0:0:0:
256,192,73085,1,0,0:0:0:0:
358,192,73325,1,0,0:0:0:0:
460,192,73325,128,0,73805:0:0:0:0:
153,192,73565,1,0,0:0:0:0:
256,192,73805,1,0,0:0:0:0:
51,192,73805,128,0,74285:0:0:0:0:
460,192,74285,1,0,0:0:0:0:
153,192,74285,1,0,0:0:0:0:
256,192,74645,1,0,0:0:0:0:
358,192,74645,1,0,0:0:0:0:
153,192,75005,1,0,0:0:0:0:
51,192,75005,1,0,0:0:0:0:
358,192,75245,1,0,0:0:0:0:
460,192,75245,1,0,0:0:0:0:
51,192,75725,1,0,0:0:0:0:
256,192,75965,1,0,0:0:0:0:
460,192,76205,1,0,0:0:0:0:
460,192,76685,1,0,0:0:0:0:
460,192,77165,1,0,0:0:0:0:
256,192,77645,1,0,0:0:0:0:
51,192,78171,128,0,78531:0:0:0:0:
460,192,78531,128,0,78891:0:0:0:0:
153,192,78891,128,0,79611:0:0:0:0:
358,192,79851,128,0,80091:0:0:0:0:
460,192,80091,128,0,80451:0:0:0:0:
153,192,80451,128,0,80811:0:0:0:0:
51,192,80811,128,0,81531:0:0:0:0:
256,192,81531,128,0,81771:0:0:0:0:
358,192,81771,128,0,82011:0:0:0:0:
153,192,82011,128,0,82371:0:0:0:0:
460,192,82371,128,0,82731:0:0:0:0:
51,192,82731,128,0,85371:0:0:0:0:
460,192,83451,128,0,85371:0:0:0:0:
358,192,83931,128,0,85371:0:0:0:0:
153,192,85851,128,0,86211:0:0:0:0:
256,192,86211,128,0,86571:0:0:0:0:
460,192,86571,128,0,87291:0:0:0:0:
51,192,86571,128,0,87291:0:0:0:0:
358,192,87531,128,0,87771:0:0:0:0:
256,192,87771,128,0,88011:0:0:0:0:
153,192,88131,128,0,88491:0:0:0:0:
460,192,88491,128,0,89211:0:0:0:0:
358,192,88491,128,0,89211:0:0:0:0:
51,192,89211,128,0,89451:0:0:0:0:
256,192,89451,128,0,89691:0:0:0:0:
460,192,89691,128,0,90051:0:0:0:0:
153,192,90051,128,0,90411:0:0:0:0:
358,192,90411,128,0,93411:0:0:0:0:
51,192,91131,128,0,93411:0:0:0:0:
153,192,91611,128,0,93411:0:0:0:0:
256,192,93531,1,0,0:0:0:0:
460,192,93531,1,0,0:0:0:0:
256,192,94011,1,0,0:0:0:0:
460,192,94011,1,0,0:0:0:0:
256,192,94491,1,0,0:0:0:0:
460,192,94491,1,0,0:0:0:0:
256,192,94971,1,0,0:0:0:0:
460,192,94971,1,0,0:0:0:0:
153,192,95451,1,0,0:0:0:0:
51,192,95451,1,0,0:0:0:0:
51,192,95931,1,0,0:0:0:0:
153,192,95931,1,0,0:0:0:0:
153,192,96411,1,0,0:0:0:0:
51,192,96411,1,0,0:0:0:0:
51,192,96891,1,0,0:0:0:0:
153,192,96891,1,0,0:0:0:0:
358,192,97371,1,0,0:0:0:0:
256,192,97371,1,0,0:0:0:0:
358,192,97851,1,0,0:0:0:0:
256,192,97851,1,0,0:0:0:0:
358,192,98331,1,0,0:0:0:0:
256,192,98331,1,0,0:0:0:0:
358,192,98811,1,0,0:0:0:0:
256,192,98811,1,0,0:0:0:0:
460,192,99291,1,0,0:0:0:0:
153,192,99291,1,0,0:0:0:0:
153,192,99771,1,0,0:0:0:0:
460,192,99771,1,0,0:0:0:0:
460,192,100251,1,0,0:0:0:0:
153,192,100251,1,0,0:0:0:0:
460,192,100731,1,0,0:0:0:0:
153,192,100731,1,0,0:0:0:0:
358,192,101211,1,0,0:0:0:0:
256,192,101211,1,0,0:0:0:0:
460,192,101571,1,0,0:0:0:0:
51,192,101691,1,0,0:0:0:0:
358,192,101931,1,0,0:0:0:0:
256,192,102171,1,0,0:0:0:0:
153,192,102171,1,0,0:0:0:0:
358,192,102531,1,0,0:0:0:0:
51,192,102651,1,0,0:0:0:0:
153,192,102891,1,0,0:0:0:0:
460,192,103131,1,0,0:0:0:0:
358,192,103131,1,0,0:0:0:0:
153,192,103491,1,0,0:0:0:0:
460,192,103611,1,0,0:0:0:0:
256,192,103851,1,0,0:0:0:0:
358,192,104091,1,0,0:0:0:0:
460,192,104091,1,0,0:0:0:0:
153,192,104451,1,0,0:0:0:0:
256,192,104571,1,0,0:0:0:0:
51,192,104811,1,0,0:0:0:0:
153,192,105051,1,0,0:0:0:0:
460,192,105051,1,0,0:0:0:0:
358,192,105411,1,0,0:0:0:0:
51,192,105531,1,0,0:0:0:0:
460,192,105771,1,0,0:0:0:0:
153,192,106011,1,0,0:0:0:0:
358,192,106011,1,0,0:0:0:0:
256,192,106371,1,0,0:0:0:0:
460,192,106491,1,0,0:0:0:0:
358,192,106731,1,0,0:0:0:0:
153,192,106971,1,0,0:0:0:0:
51,192,106971,1,0,0:0:0:0:
358,192,107211,1,0,0:0:0:0:
460,192,107211,1,0,0:0:0:0:
153,192,107451,1,0,0:0:0:0:
51,192,107451,1,0,0:0:0:0:
358,192,107691,1,0,0:0:0:0:
460,192,107691,1,0,0:0:0:0:
51,192,107931,128,0,108891:0:0:0:0:
153,192,107931,128,0,108891:0:0:0:0:
358,192,108891,1,0,0:0:0:0:
460,192,108891,1,0,0:0:0:0:
51,192,110211,1,0,0:0:0:0:
460,192,110211,1,0,0:0:0:0:
460,192,110571,1,0,0:0:0:0:
51,192,110571,1,0,0:0:0:0:
256,192,111531,1,0,0:0:0:0:
51,192,111771,1,0,0:0:0:0:
460,192,111771,1,0,0:0:0:0:
153,192,112011,1,0,0:0:0:0:
256,192,112091,1,0,0:0:0:0:
358,192,112171,1,0,0:0:0:0:
460,192,112251,1,0,0:0:0:0:
153,192,112491,1,0,0:0:0:0:
51,192,112491,1,0,0:0:0:0:
358,192,112731,1,0,0:0:0:0:
460,192,112731,1,0,0:0:0:0:
51,192,114051,1,0,0:0:0:0:
460,192,114051,1,0,0:0:0:0:
51,192,114411,1,0,0:0:0:0:
460,192,114411,128,0,115371:0:0:0:0:
153,192,115491,1,0,0:0:0:0:
51,192,115491,1,0,0:0:0:0:
256,192,115611,1,0,0:0:0:0:
460,192,115611,1,0,0:0:0:0:
358,192,115971,1,0,0:0:0:0:
153,192,115971,1,0,0:0:0:0:
256,192,116331,1,0,0:0:0:0:
51,192,116331,1,0,0:0:0:0:
358,192,116571,1,0,0:0:0:0:
460,192,116571,128,0,117051:0:0:0:0:
153,192,117531,1,0,0:0:0:0:
51,192,117531,128,0,118011:0:0:0:0:
256,192,118491,1,0,0:0:0:0:
358,192,118491,128,0,118971:0:0:0:0:
153,192,119451,1,0,0:0:0:0:
460,192,119451,128,0,119931:0:0:0:0:
256,192,120411,1,0,0:0:0:0:
51,192,120411,128,0,120891:0:0:0:0:
358,192,120891,1,0,0:0:0:0:
460,192,120891,128,0,121371:0:0:0:0:
51,192,121371,1,0,0:0:0:0:
153,192,121371,128,0,121851:0:0:0:0:
358,192,121851,128,0,122331:0:0:0:0:
460,192,121851,1,0,0:0:0:0:
153,192,122331,1,0,0:0:0:0:
51,192,122331,1,0,0:0:0:0:
358,192,122571,1,0,0:0:0:0:
460,192,122571,1,0,0:0:0:0:
153,192,122811,1,0,0:0:0:0:
51,192,122811,1,0,0:0:0:0:
358,192,123051,1,0,0:0:0:0:
460,192,123051,1,0,0:0:0:0:
256,192,123291,128,0,124251:0:0:0:0:
51,192,123291,128,0,124251:0:0:0:0:
358,192,124251,1,0,0:0:0:0:
460,192,124251,1,0,0:0:0:0:
153,192,128091,1,0,0:0:0:0:
51,192,128091,1,0,0:0:0:0:
460,192,128091,1,0,0:0:0:0:
