osu file format v14

[General]
AudioFilename: audio.mp3
AudioLeadIn: 0
PreviewTime: 134670
Countdown: 0
SampleSet: Normal
StackLeniency: 0.7
Mode: 3
LetterboxInBreaks: 0
SpecialStyle: 0
WidescreenStoryboard: 0

[Editor]
DistanceSpacing: 0.5
BeatDivisor: 4
GridSize: 4
TimelineZoom: 1

[Metadata]
Title:Carol of the Bells
TitleUnicode:Carol of the Bells
Artist:Pentatonix
ArtistUnicode:Pentatonix
Creator:Weber
Version:EZ
Source:
Tags:
BeatmapID:1132469
BeatmapSetID:528521

[Difficulty]
HPDrainRate:4
CircleSize:4
OverallDifficulty:6
ApproachRate:5
SliderMultiplier:1.4
SliderTickRate:1

[Events]
//Background and Video events
0,0,"Pentatonix-Christmas-2-e1419363733169-1500x732 (1).jpg",0,0
//Break Periods
//Storyboard Layer 0 (Background)
//Storyboard Layer 1 (Fail)
//Storyboard Layer 2 (Pass)
//Storyboard Layer 3 (Foreground)
//Storyboard Sound Samples

[TimingPoints]
717.467376858133,348.837209302326,3,2,0,25,1,0
17461,-100,3,2,0,25,0,1
34205,-100,3,2,0,25,0,0
78159,-100,3,2,0,25,0,1
94903,-100,3,2,0,25,0,0
134670,-100,3,2,0,25,0,1
168159,-100,3,2,0,25,0,0
182111,366.236,3,1,0,15,1,0
182477,410.725,3,1,0,15,1,0
182888,422.422168715414,3,1,0,15,1,0
183727,463.163095164577,3,1,0,15,1,0
184151,478.850758180367,3,1,0,15,1,0
184670,607.053967097675,3,1,0,15,1,0
185226,589.495195614156,3,1,0,15,1,0
185865,915.862742703627,3,1,0,15,1,0

[HitObjects]
64,192,19,5,0,0:0:0:0:
192,192,368,1,0,0:0:0:0:
320,192,717,1,0,0:0:0:0:
320,192,1066,1,0,0:0:0:0:
448,192,1415,1,0,0:0:0:0:
320,192,1763,1,0,0:0:0:0:
320,192,2112,1,0,0:0:0:0:
64,192,2461,1,0,0:0:0:0:
320,192,2810,1,0,0:0:0:0:
192,192,3159,1,0,0:0:0:0:
320,192,3508,1,0,0:0:0:0:
448,192,3857,1,0,0:0:0:0:
320,192,4205,1,0,0:0:0:0:
64,192,4554,1,0,0:0:0:0:
320,192,4903,1,0,0:0:0:0:
64,192,5252,1,0,0:0:0:0:
192,192,5601,1,0,0:0:0:0:
64,192,5950,1,0,0:0:0:0:
320,192,6298,1,0,0:0:0:0:
64,192,6647,1,0,0:0:0:0:
448,192,6996,128,0,7694:0:0:0:0:
320,192,7694,1,0,0:0:0:0:
192,192,8043,1,0,0:0:0:0:
320,192,8391,1,0,0:0:0:0:
448,192,8740,1,0,0:0:0:0:
320,192,9089,1,0,0:0:0:0:
320,192,9438,1,0,0:0:0:0:
192,192,9787,1,0,0:0:0:0:
320,192,10136,1,0,0:0:0:0:
320,192,10484,1,0,0:0:0:0:
64,192,10833,1,0,0:0:0:0:
320,192,11182,1,0,0:0:0:0:
192,192,11531,1,0,0:0:0:0:
320,192,11880,1,0,0:0:0:0:
448,192,12229,1,0,0:0:0:0:
320,192,12577,1,0,0:0:0:0:
64,192,12926,1,0,0:0:0:0:
192,192,13275,1,0,0:0:0:0:
64,192,13624,1,0,0:0:0:0:
320,192,13973,1,0,0:0:0:0:
192,192,14322,1,0,0:0:0:0:
64,192,14670,1,0,0:0:0:0:
448,192,15019,1,0,0:0:0:0:
320,192,15368,128,0,16066:0:0:0:0:
192,192,16066,1,0,0:0:0:0:
64,192,16415,1,0,0:0:0:0:
320,192,16763,1,0,0:0:0:0:
448,192,17112,1,0,0:0:0:0:
64,192,17461,128,0,18159:0:0:0:0:
192,192,18159,1,0,0:0:0:0:
448,192,18508,128,0,19205:0:0:0:0:
320,192,19205,1,0,0:0:0:0:
192,192,19554,128,0,20601:0:0:0:0:
320,192,20252,1,0,0:0:0:0:
448,192,20601,1,0,0:0:0:0:
320,192,20950,1,0,0:0:0:0:
192,192,21298,1,0,0:0:0:0:
64,192,21647,128,0,22345:0:0:0:0:
192,192,22345,1,0,0:0:0:0:
320,192,22694,128,0,23391:0:0:0:0:
192,192,23391,1,0,0:0:0:0:
448,192,23740,1,0,0:0:0:0:
320,192,24089,1,0,0:0:0:0:
192,192,24438,1,0,0:0:0:0:
320,192,24787,1,0,0:0:0:0:
320,192,25136,1,0,0:0:0:0:
192,192,25484,1,0,0:0:0:0:
64,192,25833,128,0,26531:0:0:0:0:
192,192,26531,1,0,0:0:0:0:
320,192,26880,128,0,27577:0:0:0:0:
192,192,27577,1,0,0:0:0:0:
192,192,27926,128,0,28624:0:0:0:0:
320,192,28624,1,0,0:0:0:0:
448,192,28973,128,0,29670:0:0:0:0:
320,192,29670,1,0,0:0:0:0:
192,192,30019,128,0,30717:0:0:0:0:
320,192,30717,1,0,0:0:0:0:
320,192,31066,128,0,31763:0:0:0:0:
192,192,31763,1,0,0:0:0:0:
448,192,32112,1,0,0:0:0:0:
320,192,32461,1,0,0:0:0:0:
192,192,32810,1,0,0:0:0:0:
320,192,33159,1,0,0:0:0:0:
192,192,33508,1,0,0:0:0:0:
64,192,33857,1,0,0:0:0:0:
192,192,34205,128,0,36298:0:0:0:0:
64,192,36298,128,0,38391:0:0:0:0:
448,192,38391,128,0,40136:0:0:0:0:
192,192,40484,128,0,41531:0:0:0:0:
320,192,41531,128,0,42577:0:0:0:0:
192,192,42577,128,0,44670:0:0:0:0:
64,192,44670,128,0,45717:0:0:0:0:
448,192,45717,1,0,0:0:0:0:
320,192,46066,1,0,0:0:0:0:
192,192,46415,1,0,0:0:0:0:
320,192,46763,128,0,47810:0:0:0:0:
64,192,47810,128,0,48857:0:0:0:0:
192,192,48857,1,0,0:0:0:0:
64,192,49205,1,0,0:0:0:0:
320,192,49554,1,0,0:0:0:0:
448,192,49903,128,0,50950:0:0:0:0:
320,192,50950,1,0,0:0:0:0:
192,192,51298,1,0,0:0:0:0:
64,192,51647,1,0,0:0:0:0:
320,192,51996,1,0,0:0:0:0:
192,192,52345,1,0,0:0:0:0:
64,192,52694,1,0,0:0:0:0:
448,192,53043,1,0,0:0:0:0:
320,192,53391,1,0,0:0:0:0:
192,192,53740,1,0,0:0:0:0:
448,192,54089,1,0,0:0:0:0:
64,192,54438,1,0,0:0:0:0:
192,192,54787,1,0,0:0:0:0:
320,192,55136,128,0,55833:0:0:0:0:
448,192,55833,1,0,0:0:0:0:
192,192,56182,128,0,56880:0:0:0:0:
64,192,56880,1,0,0:0:0:0:
448,192,57229,128,0,57926:0:0:0:0:
320,192,57926,1,0,0:0:0:0:
64,192,58275,128,0,58973:0:0:0:0:
192,192,58973,1,0,0:0:0:0:
320,192,59322,1,0,0:0:0:0:
192,192,59670,1,0,0:0:0:0:
320,192,60019,1,0,0:0:0:0:
448,192,60368,1,0,0:0:0:0:
320,192,60717,1,0,0:0:0:0:
192,192,61066,1,0,0:0:0:0:
320,192,61415,1,0,0:0:0:0:
64,192,61763,1,0,0:0:0:0:
192,192,62112,1,0,0:0:0:0:
320,192,62461,1,0,0:0:0:0:
192,192,62810,1,0,0:0:0:0:
64,192,63159,1,0,0:0:0:0:
320,192,63508,1,0,0:0:0:0:
192,192,63857,1,0,0:0:0:0:
64,192,64205,1,0,0:0:0:0:
320,192,64554,1,0,0:0:0:0:
192,192,64903,1,0,0:0:0:0:
64,192,65252,1,0,0:0:0:0:
448,192,65601,1,0,0:0:0:0:
192,192,65950,1,0,0:0:0:0:
64,192,66298,1,0,0:0:0:0:
448,192,66647,1,0,0:0:0:0:
320,192,66996,1,0,0:0:0:0:
64,192,67345,1,0,0:0:0:0:
448,192,67694,1,0,0:0:0:0:
448,192,68217,1,0,0:0:0:0:
448,192,68740,1,0,0:0:0:0:
320,192,69787,128,0,70833:0:0:0:0:
192,192,70833,128,0,71880:0:0:0:0:
320,192,71880,128,0,72926:0:0:0:0:
64,192,72926,128,0,73973:0:0:0:0:
448,192,73973,128,0,75019:0:0:0:0:
320,192,75019,128,0,76066:0:0:0:0:
192,192,76066,128,0,77112:0:0:0:0:
64,192,77112,128,0,78159:0:0:0:0:
192,192,78159,128,0,78857:0:0:0:0:
320,192,78857,1,0,0:0:0:0:
448,192,79205,128,0,79903:0:0:0:0:
320,192,79903,1,0,0:0:0:0:
64,192,80252,128,0,80950:0:0:0:0:
192,192,80950,1,0,0:0:0:0:
448,192,81298,1,0,0:0:0:0:
320,192,81647,1,0,0:0:0:0:
192,192,81996,1,0,0:0:0:0:
64,192,82345,128,0,83043:0:0:0:0:
192,192,83043,1,0,0:0:0:0:
320,192,83391,128,0,84089:0:0:0:0:
192,192,84089,1,0,0:0:0:0:
448,192,84438,1,0,0:0:0:0:
320,192,84787,1,0,0:0:0:0:
192,192,85136,1,0,0:0:0:0:
320,192,85484,1,0,0:0:0:0:
192,192,85833,1,0,0:0:0:0:
64,192,86182,1,0,0:0:0:0:
192,192,86531,128,0,87229:0:0:0:0:
320,192,87229,1,0,0:0:0:0:
448,192,87577,128,0,88275:0:0:0:0:
192,192,88275,1,0,0:0:0:0:
64,192,88624,128,0,89322:0:0:0:0:
320,192,89322,1,0,0:0:0:0:
448,192,89670,128,0,90368:0:0:0:0:
192,192,90368,1,0,0:0:0:0:
320,192,90717,128,0,91415:0:0:0:0:
64,192,91415,1,0,0:0:0:0:
192,192,91763,128,0,92461:0:0:0:0:
320,192,92461,1,0,0:0:0:0:
448,192,92810,1,0,0:0:0:0:
320,192,93159,1,0,0:0:0:0:
192,192,93508,1,0,0:0:0:0:
320,192,93857,1,0,0:0:0:0:
64,192,94205,1,0,0:0:0:0:
192,192,94554,1,0,0:0:0:0:
320,192,94903,128,0,95950:0:0:0:0:
192,192,95949,128,0,96472:0:0:0:0:
320,192,96472,128,0,96995:0:0:0:0:
64,192,96996,128,0,98391:0:0:0:0:
448,192,98391,1,0,0:0:0:0:
320,192,98740,1,0,0:0:0:0:
192,192,99089,128,0,100484:0:0:0:0:
64,192,100484,1,0,0:0:0:0:
192,192,100833,1,0,0:0:0:0:
320,192,101182,1,0,0:0:0:0:
64,192,101531,1,0,0:0:0:0:
192,192,101880,1,0,0:0:0:0:
320,192,102229,1,0,0:0:0:0:
448,192,102577,128,0,103275:0:0:0:0:
320,192,103275,1,0,0:0:0:0:
192,192,103624,1,0,0:0:0:0:
64,192,103973,1,0,0:0:0:0:
320,192,104322,1,0,0:0:0:0:
192,192,104670,1,0,0:0:0:0:
64,192,105019,1,0,0:0:0:0:
448,192,105368,1,0,0:0:0:0:
320,192,105717,1,0,0:0:0:0:
192,192,106066,1,0,0:0:0:0:
64,192,106415,1,0,0:0:0:0:
320,192,106763,1,0,0:0:0:0:
192,192,107112,1,0,0:0:0:0:
320,192,107461,128,0,108508:0:0:0:0:
192,192,108857,1,0,0:0:0:0:
320,192,109205,1,0,0:0:0:0:
448,192,109554,1,0,0:0:0:0:
320,192,109903,1,0,0:0:0:0:
192,192,110252,1,0,0:0:0:0:
320,192,110601,1,0,0:0:0:0:
192,192,110950,1,0,0:0:0:0:
64,192,111298,1,0,0:0:0:0:
64,192,111647,128,0,112694:0:0:0:0:
320,192,112694,128,0,113740:0:0:0:0:
192,192,113740,128,0,114787:0:0:0:0:
448,192,114787,128,0,115833:0:0:0:0:
320,192,115833,128,0,116880:0:0:0:0:
192,192,116880,128,0,117926:0:0:0:0:
448,192,117926,128,0,118973:0:0:0:0:
320,192,118973,128,0,120019:0:0:0:0:
64,192,120019,1,0,0:0:0:0:
192,192,120368,1,0,0:0:0:0:
320,192,120717,1,0,0:0:0:0:
192,192,121066,1,0,0:0:0:0:
448,192,121415,1,0,0:0:0:0:
320,192,121763,1,0,0:0:0:0:
192,192,122112,128,0,123159:0:0:0:0:
320,192,123159,128,0,124205:0:0:0:0:
192,192,124205,1,0,0:0:0:0:
64,192,124554,1,0,0:0:0:0:
192,192,124903,1,0,0:0:0:0:
320,192,125252,1,0,0:0:0:0:
192,192,125601,1,0,0:0:0:0:
64,192,125950,1,0,0:0:0:0:
192,192,126297,128,0,126820:0:0:0:0:
320,192,126820,128,0,127343:0:0:0:0:
448,192,127343,128,0,127866:0:0:0:0:
64,192,127866,128,0,128390:0:0:0:0:
192,192,128391,128,0,129438:0:0:0:0:
448,192,129438,1,0,0:0:0:0:
192,192,129959,1,0,0:0:0:0:
320,192,130484,128,0,131531:0:0:0:0:
64,192,131531,128,0,132577:0:0:0:0:
192,192,132577,1,0,0:0:0:0:
192,192,133100,1,0,0:0:0:0:
192,192,133623,1,0,0:0:0:0:
320,192,134669,1,0,0:0:0:0:
192,192,135018,1,0,0:0:0:0:
64,192,135367,1,0,0:0:0:0:
448,192,135716,1,0,0:0:0:0:
320,192,136064,1,0,0:0:0:0:
448,192,136413,1,0,0:0:0:0:
64,192,136762,1,0,0:0:0:0:
320,192,137111,1,0,0:0:0:0:
192,192,137460,1,0,0:0:0:0:
448,192,137809,1,0,0:0:0:0:
320,192,138157,1,0,0:0:0:0:
448,192,138506,1,0,0:0:0:0:
320,192,138855,1,0,0:0:0:0:
192,192,139204,1,0,0:0:0:0:
320,192,139553,1,0,0:0:0:0:
448,192,139902,1,0,0:0:0:0:
192,192,140250,1,0,0:0:0:0:
448,192,140599,1,0,0:0:0:0:
320,192,140948,1,0,0:0:0:0:
64,192,141297,1,0,0:0:0:0:
192,192,141646,1,0,0:0:0:0:
320,192,141995,1,0,0:0:0:0:
192,192,142343,1,0,0:0:0:0:
320,192,142692,1,0,0:0:0:0:
192,192,143041,128,0,144088:0:0:0:0:
64,192,144088,128,0,144785:0:0:0:0:
320,192,144785,1,0,0:0:0:0:
192,192,145134,128,0,146181:0:0:0:0:
448,192,146181,1,0,0:0:0:0:
320,192,146529,1,0,0:0:0:0:
192,192,146878,1,0,0:0:0:0:
320,192,147227,128,0,148274:0:0:0:0:
448,192,148274,128,0,149320:0:0:0:0:
64,192,149320,128,0,150367:0:0:0:0:
448,192,150367,1,0,0:0:0:0:
320,192,150716,1,0,0:0:0:0:
320,192,151064,1,0,0:0:0:0:
192,192,151413,128,0,152460:0:0:0:0:
64,192,152460,128,0,153506:0:0:0:0:
320,192,153506,128,0,154553:0:0:0:0:
192,192,154553,128,0,155599:0:0:0:0:
448,192,155599,1,0,0:0:0:0:
320,192,155948,1,0,0:0:0:0:
448,192,156297,1,0,0:0:0:0:
192,192,156646,1,0,0:0:0:0:
320,192,156995,1,0,0:0:0:0:
192,192,157343,1,0,0:0:0:0:
320,192,157692,1,0,0:0:0:0:
64,192,158041,1,0,0:0:0:0:
320,192,158390,1,0,0:0:0:0:
448,192,158739,1,0,0:0:0:0:
320,192,159088,1,0,0:0:0:0:
192,192,159436,1,0,0:0:0:0:
320,192,159785,128,0,160832:0:0:0:0:
448,192,160832,1,0,0:0:0:0:
64,192,161181,1,0,0:0:0:0:
192,192,161529,1,0,0:0:0:0:
320,192,161878,1,0,0:0:0:0:
64,192,162227,1,0,0:0:0:0:
448,192,162576,1,0,0:0:0:0:
320,192,162925,1,0,0:0:0:0:
64,192,163274,1,0,0:0:0:0:
192,192,163623,1,0,0:0:0:0:
320,192,163971,128,0,165018:0:0:0:0:
192,192,165018,128,0,166064:0:0:0:0:
64,192,166064,128,0,167111:0:0:0:0:
448,192,167111,1,0,0:0:0:0:
320,192,167460,1,0,0:0:0:0:
320,192,167809,1,0,0:0:0:0:
192,192,168157,128,0,169553:0:0:0:0:
64,192,169902,1,0,0:0:0:0:
320,192,170250,1,0,0:0:0:0:
320,192,170599,1,0,0:0:0:0:
192,192,170948,1,0,0:0:0:0:
320,192,171297,1,0,0:0:0:0:
320,192,171646,1,0,0:0:0:0:
64,192,171995,1,0,0:0:0:0:
320,192,172343,1,0,0:0:0:0:
192,192,172692,1,0,0:0:0:0:
320,192,173041,1,0,0:0:0:0:
448,192,173390,1,0,0:0:0:0:
320,192,173739,1,0,0:0:0:0:
64,192,174088,1,0,0:0:0:0:
320,192,174438,1,0,0:0:0:0:
64,192,174785,1,0,0:0:0:0:
192,192,175134,1,0,0:0:0:0:
64,192,175483,1,0,0:0:0:0:
320,192,175833,1,0,0:0:0:0:
448,192,176181,1,0,0:0:0:0:
320,192,176529,128,0,177227:0:0:0:0:
192,192,177227,1,0,0:0:0:0:
64,192,177576,1,0,0:0:0:0:
192,192,177926,1,0,0:0:0:0:
448,192,178274,1,0,0:0:0:0:
320,192,178623,1,0,0:0:0:0:
320,192,178971,1,0,0:0:0:0:
192,192,179320,1,0,0:0:0:0:
320,192,179670,1,0,0:0:0:0:
320,192,180019,1,0,0:0:0:0:
64,192,180367,1,0,0:0:0:0:
320,192,180716,1,0,0:0:0:0:
192,192,181064,1,0,0:0:0:0:
320,192,181415,1,0,0:0:0:0:
448,192,181762,128,0,182460:0:0:0:0:
192,192,182460,1,0,0:0:0:0:
320,192,182887,128,0,183726:0:0:0:0:
64,192,183727,1,0,0:0:0:0:
192,192,184151,1,0,0:0:0:0:
64,192,184670,1,0,0:0:0:0:
192,192,185226,1,0,0:0:0:0:
320,192,185815,128,0,189528:0:0:0:0:
64,192,187696,128,0,189528:0:0:0:0:
