osu file format v14

[General]
AudioFilename: audio.mp3
AudioLeadIn: 0
PreviewTime: -4781
Countdown: 0
SampleSet: None
StackLeniency: 0.7
Mode: 0
LetterboxInBreaks: 1
WidescreenStoryboard: 0

[Editor]
Bookmarks: 32680,114379
DistanceSpacing: 2
BeatDivisor: 6
GridSize: 8
TimelineZoom: 1.399999

[Metadata]
Title:Mortal Reminder
TitleUnicode:Mortal Reminder
Artist:Pentakill
ArtistUnicode:Pentakill
Creator:SteMenxdxd
Version:A thousand years of war
Source:YouTube
Tags:Riot Games League of Legends
BeatmapID:1419616
BeatmapSetID:671409

[Difficulty]
HPDrainRate:7
CircleSize:4
OverallDifficulty:7
ApproachRate:9
SliderMultiplier:1.55
SliderTickRate:1

[Events]
//Background and Video events
0,0,"Art by Ze.jpg",0,0
//Break Periods
2,34447,36860
//Storyboard Layer 0 (Background)
//Storyboard Layer 1 (Fail)
//Storyboard Layer 2 (Pass)
//Storyboard Layer 3 (Foreground)
//Storyboard Sound Samples

[TimingPoints]
0,375.629178874615,4,3,0,100,1,0
4780.98419719551,375.63,4,3,0,100,1,0
10113,375.63,4,3,0,100,1,0
10133,-66.6666666666667,4,3,0,100,0,0
18063,-50,4,3,0,100,0,0
22602,-66.6666666666667,4,3,0,100,0,1
40840,-100,4,3,0,100,0,0
59935,375.63,4,3,0,100,1,0
64505,-133.333333333333,4,3,0,100,0,0
86229,-133.333333333333,4,3,0,100,0,0
119159,-66.6666666666667,4,3,0,100,0,1
131179,-100,4,3,0,100,0,0
151839,-66.6666666666667,4,3,0,100,0,0
154172,-133.333333333333,4,3,0,100,0,0
155595,-133.333333333333,4,3,0,100,0,0
159351,-66.6666666666667,4,3,0,100,0,0
160572,-133.333333333333,4,3,0,100,0,0
164798,-66.6666666666667,4,3,0,100,0,0
166019,-133.333333333333,4,3,0,100,0,0
212315,-66.6666666666667,4,3,0,100,0,1
236731,-100,4,3,0,100,0,0

[Colours]
Combo1 : 98,98,98
Combo2 : 255,47,47

[HitObjects]
224,32,10300,5,2,0:0:0:0:
240,48,10394,1,2,0:0:0:0:
256,64,10457,1,2,0:0:0:0:
272,80,10519,1,2,0:0:0:0:
288,96,10582,1,2,0:0:0:0:
256,144,10864,2,0,B|152:64|120:96|88:208,1,232.500008869171
152,192,11615,5,0,0:0:0:0:
176,224,11928,1,8,0:0:0:0:
208,240,12116,2,0,B|272:216|288:144|288:144|336:128,1,155.000005912781
344,136,12742,2,0,B|328:64|328:64|248:120|248:56|168:72,1,232.500008869171
352,240,13306,1,0,0:0:0:0:
352,232,13368,1,0,0:0:0:0:
352,224,13431,1,0,0:0:0:0:
352,216,13619,2,0,B|344:152|320:104|184:72,1,232.500008869171
200,72,14182,1,0,0:0:0:0:
144,96,14370,1,0,0:0:0:0:
96,144,14558,1,0,0:0:0:0:
72,200,14746,1,0,0:0:0:0:
104,256,14933,2,0,L|144:288,3,38.7500014781952
184,256,15309,5,0,0:0:0:0:
192,208,15497,1,0,0:0:0:0:
184,152,15685,1,0,0:0:0:0:
216,96,15873,2,8,P|256:80|448:128,1,232.500008869171,4|8,0:0|0:0,0:0:0:0:
280,256,16874,1,0,0:0:0:0:
280,256,16999,1,0,0:0:0:0:
200,248,17187,6,0,P|216:192|288:136,2,116.250004434586
224,224,18126,2,0,P|264:136|176:72,1,206.666666666667
272,216,18689,2,0,P|272:136|160:88,1,206.666666666667
152,272,19252,5,8,0:0:0:0:
152,256,19315,1,0,0:0:0:0:
152,240,19378,1,8,0:0:0:0:
152,224,19441,2,0,B|168:160|184:112|240:80|288:96,1,206.666666666667
304,80,20067,1,0,0:0:0:0:
360,104,20255,1,0,0:0:0:0:
408,152,20443,1,0,0:0:0:0:
432,208,20631,1,0,0:0:0:0:
400,264,20818,1,4,0:0:0:0:
328,256,21006,5,0,0:0:0:0:
328,240,21068,1,0,0:0:0:0:
328,224,21131,1,0,0:0:0:0:
384,144,21319,1,0,0:0:0:0:
240,176,21507,1,0,0:0:0:0:
296,96,21694,1,0,0:0:0:0:
296,96,21882,2,8,P|256:80|40:280,1,361.666666666667,4|8,0:0|0:0,0:0:0:0:
424,88,22696,5,0,0:0:0:0:
400,112,22791,1,0,0:0:0:0:
368,136,22884,1,0,0:0:0:0:
336,152,22978,1,0,0:0:0:0:
296,160,23072,1,8,0:0:0:0:
248,160,23166,1,0,0:0:0:0:
208,144,23260,1,0,0:0:0:0:
176,128,23354,1,0,0:0:0:0:
160,96,23448,5,0,0:0:0:0:
160,56,23542,1,0,0:0:0:0:
184,32,23636,1,0,0:0:0:0:
224,16,23730,1,0,0:0:0:0:
272,32,23824,1,8,0:0:0:0:
272,80,23918,1,0,0:0:0:0:
256,112,24011,1,0,0:0:0:0:
224,144,24105,1,0,0:0:0:0:
192,176,24199,1,0,0:0:0:0:
160,200,24293,1,0,0:0:0:0:
136,240,24387,1,0,0:0:0:0:
128,280,24481,1,0,0:0:0:0:
152,312,24575,1,8,0:0:0:0:
184,328,24669,5,0,0:0:0:0:
224,336,24763,1,0,0:0:0:0:
264,328,24857,1,0,0:0:0:0:
296,304,24951,1,0,0:0:0:0:
336,304,25044,1,0,0:0:0:0:
376,312,25138,1,0,0:0:0:0:
416,320,25232,1,0,0:0:0:0:
448,296,25326,1,8,0:0:0:0:
456,256,25420,1,0,0:0:0:0:
456,216,25514,1,0,0:0:0:0:
448,176,25608,1,0,0:0:0:0:
416,160,25702,1,0,0:0:0:0:
376,64,25952,2,0,P|304:64|272:104,4,116.250004434586
152,104,26953,5,0,0:0:0:0:
184,128,27391,5,0,0:0:0:0:
192,176,27579,1,0,0:0:0:0:
184,232,27767,1,0,0:0:0:0:
216,288,27955,2,8,P|256:304|416:224,1,232.500008869171,4|8,0:0|0:0,0:0:0:0:
128,152,29270,2,0,P|152:96|208:80,2,116.250004434586
184,184,30084,6,0,P|208:152|200:72,1,116.250004434586
224,200,30647,2,0,P|240:144|216:88,1,116.250004434586
216,56,31336,1,0,0:0:0:0:
216,64,31398,1,0,0:0:0:0:
216,72,31461,2,0,B|264:88|272:112|272:112|296:96|312:72,1,116.250004434586
312,80,31962,1,0,0:0:0:0:
368,128,32149,1,0,0:0:0:0:
424,176,32337,1,0,0:0:0:0:
408,248,32525,1,0,0:0:0:0:
360,304,32713,1,0,0:0:0:0:
256,232,33026,1,8,2:0:0:0:
136,24,33308,5,0,0:0:0:0:
344,24,33496,1,0,0:0:0:0:
136,128,33684,1,0,0:0:0:0:
344,136,33872,1,0,0:0:0:0:
256,192,34060,1,0,0:0:0:0:
256,192,34247,1,4,0:0:0:0:
416,56,37460,5,0,0:0:0:0:
392,96,37647,1,0,0:0:0:0:
360,120,37835,1,0,0:0:0:0:
320,144,38023,1,0,0:0:0:0:
272,160,38148,2,0,B|224:160|184:120|152:72|144:72|104:64|80:72|40:80|104:72,1,232.5
144,104,38962,5,0,0:0:0:0:
152,112,39025,1,0,0:0:0:0:
160,120,39087,2,0,L|200:168,1,51.6666666666667
368,104,39651,5,0,0:0:0:0:
360,112,39714,1,0,0:0:0:0:
352,120,39776,2,0,L|312:168,1,51.6666666666667
256,96,40089,6,0,L|256:48,3,25.8333333333333
256,288,40465,2,0,P|256:248|256:240,3,25.8333333333333
255,194,40840,1,12,0:0:0:0:
88,88,41216,5,8,0:0:0:0:
408,88,41591,1,0,0:0:0:0:
112,88,41967,1,8,0:0:0:0:
112,88,42343,2,8,L|256:88,1,129.166666666667,0|8,0:0|0:0,0:0:0:0:
256,96,43094,2,0,B|272:136|272:136|224:176|224:176|248:152,1,129.166666666667
256,96,43657,2,0,L|224:136,1,51.6666666666667
256,112,44127,5,0,0:0:0:0:
200,120,44315,2,0,L|168:144,5,25.8333333333333
56,40,45035,5,0,0:0:0:0:
96,64,45160,1,0,0:0:0:0:
128,80,45285,2,0,B|168:96|184:96|192:80|200:64|224:72|224:112|224:112|272:136|256:112,1,155
272,120,45911,5,0,0:0:0:0:
288,144,46036,1,0,0:0:0:0:
272,176,46224,2,0,P|304:216|256:208,1,129.166666666667
112,88,46913,5,0,0:0:0:0:
112,88,47038,1,0,0:0:0:0:
192,96,47414,5,0,0:0:0:0:
192,96,47727,1,0,0:0:0:0:
192,96,48040,2,0,B|216:144|248:112|248:112|344:56|344:56|352:128|352:136|456:88|456:88|416:256|416:256|456:272,2,542.5
256,192,50857,12,8,52798,0:0:0:0:
144,80,53236,5,8,0:0:0:0:
160,128,53612,5,0,0:0:0:0:
160,152,53799,1,0,0:0:0:0:
160,184,54050,2,0,B|152:256|152:248|152:248|256:304,1,180.833333333333
253,302,54676,5,0,0:0:0:0:
256,304,54832,2,0,B|328:328|368:320|368:320|336:240,1,193.75
328,224,55491,2,0,P|296:184|320:224,2,155
368,208,56804,6,2,P|376:168|344:160,1,77.5
264,96,57368,1,0,0:0:0:0:
240,104,57556,1,0,0:0:0:0:
216,120,57744,1,0,0:0:0:0:
160,152,58119,5,0,0:0:0:0:
160,192,58307,1,0,0:0:0:0:
160,232,58495,2,0,B|176:304|176:304|224:112,1,258.333333333333
220,124,59434,2,14,L|176:112,2,38.75,14|14|14,3:0|3:0|3:0,3:0:0:0:
64,72,59997,5,0,0:0:0:0:
120,72,60123,2,0,L|160:72,4,25.8333333333333
96,72,60936,5,0,0:0:0:0:
128,88,61124,1,0,0:0:0:0:
176,112,61312,1,0,0:0:0:0:
208,144,61500,2,0,B|240:216|240:216|320:184,1,155
448,56,62251,5,0,0:0:0:0:
408,104,62439,1,0,0:0:0:0:
368,152,62627,1,0,0:0:0:0:
328,96,63002,5,0,0:0:0:0:
288,144,63190,2,0,P|224:112|152:199,1,180.833333333333
152,176,63879,5,0,0:0:0:0:
152,232,64317,1,0,0:0:0:0:
155,180,64693,2,0,B|190:107|267:115|296:111|354:209|354:209|372:262|365:356|239:348|239:348|147:180,2,658.750025129319,0|0|12,0:0|0:0|0:0,0:0:0:0:
352,32,69325,5,14,2:0:0:0:
432,96,69513,1,14,2:0:0:0:
336,160,69701,1,14,2:0:0:0:
424,224,69889,1,14,2:0:0:0:
304,280,70076,1,14,2:0:0:0:
72,296,70390,6,0,B|72:24|72:24|248:24|256:24|256:24|264:40|272:104|264:128|205:162|72:152,1,736.25002808571
68,160,73144,2,8,B|129:138|279:76|331:274,1,329.37501256466
160,352,74396,5,14,2:0:0:0:
80,288,74584,1,14,2:0:0:0:
176,224,74772,1,14,2:0:0:0:
88,160,74960,1,14,2:0:0:0:
208,104,75148,1,14,2:0:0:0:
376,320,75586,2,0,B|416:208|416:208|232:280|232:280|424:32|424:32|464:144|376:144|376:144|288:152,1,852.5
75,176,78716,2,0,B|125:93|189:92|297:162|297:162,1,251.875009608269
352,32,79968,5,8,3:0:0:0:
432,96,80156,1,8,3:0:0:0:
336,160,80344,1,8,3:0:0:0:
424,224,80532,1,8,3:0:0:0:
304,280,80719,1,8,3:0:0:0:
256,192,81033,12,0,86229,0:0:0:0:
80,72,86542,5,14,3:0:0:0:
80,80,86730,1,14,0:0:0:0:
80,88,86917,2,14,B|88:144|88:192|88:192|208:128|208:128|208:144,1,251.875009608269,14|14,0:0|0:0,0:0:0:0:
80,264,88357,5,0,0:0:0:0:
80,256,88545,2,0,B|104:192|104:192|168:216|168:216|144:160|224:192,1,213.125008130074
176,176,89860,5,0,0:0:0:0:
176,168,90048,2,0,B|176:112|176:112|288:136|248:96,1,155.000005912781
392,80,91175,5,0,0:0:0:0:
392,80,91362,1,0,0:0:0:0:
352,80,91926,6,0,B|256:112|152:80|144:80|144:80|152:104,1,232.500008869171
150,100,92990,1,0,0:0:0:0:
152,112,93178,2,0,B|128:176|128:176|176:200|176:304|208:256|208:256|240:272,1,232.500008869171
240,272,94180,1,0,0:0:0:0:
264,264,94367,2,0,B|320:232|320:232|368:144|296:160|288:152|368:80|328:72,1,232.500008869171
152,192,95588,2,0,B|176:96|208:88|368:152|240:216,1,261.562509977818
64,48,97185,5,14,2:0:0:0:
64,48,97279,1,14,2:0:0:0:
64,48,97373,2,14,B|72:120|32:160|32:160|80:216|160:160|160:160|176:192,1,290.625011086464,14|14,2:0|2:0,2:0:0:0:
208,48,98938,5,0,0:0:0:0:
216,48,99313,1,0,0:0:0:0:
216,48,99689,2,0,B|312:48|312:48|296:112|296:112|376:72|328:176|424:136|424:136|408:208,2,368.125014042855
224,48,102506,1,0,0:0:0:0:
224,48,102694,1,8,2:0:0:0:
80,120,103195,5,8,3:0:0:0:
256,120,103383,1,8,3:0:0:0:
72,216,103570,1,8,3:0:0:0:
264,200,103758,1,8,3:0:0:0:
168,176,103946,1,8,3:0:0:0:
168,89,104134,1,12,0:0:0:0:
424,56,104573,5,0,0:0:0:0:
320,96,104948,1,0,0:0:0:0:
424,176,105323,1,0,0:0:0:0:
312,208,105762,2,0,B|184:192|184:192|160:112|160:112|256:144,1,310.000011825562
320,360,107264,2,0,B|320:288|320:288|416:336|416:336|424:288|368:208|368:208|464:208|464:208|112:88|112:88|168:152,1,871.875033259393,0|14,0:0|0:0,0:0:0:0:
448,56,110520,5,0,0:0:0:0:
320,64,110833,1,0,0:0:0:0:
168,64,111146,1,0,0:0:0:0:
128,104,111459,2,0,B|56:160|56:160|136:200|216:112,1,271.250010347367
256,192,112586,5,0,0:0:0:0:
256,192,112836,1,0,0:0:0:0:
256,192,113149,12,0,116843,0:0:0:0:
56,64,117093,5,14,0:0:0:0:
160,88,117281,1,14,0:0:0:0:
56,152,117468,1,14,0:0:0:0:
160,184,117656,1,14,0:0:0:0:
216,224,117844,1,14,0:0:0:0:
280,192,118032,1,14,0:0:0:0:
248,192,118596,2,0,L|248:144,2,38.7500014781952
424,80,119159,5,0,0:0:0:0:
392,72,119253,1,0,0:0:0:0:
352,64,119347,1,0,0:0:0:0:
312,72,119441,1,0,0:0:0:0:
280,96,119535,1,0,0:0:0:0:
272,136,119629,1,14,0:0:0:0:
288,168,119723,5,0,0:0:0:0:
304,208,119816,1,0,0:0:0:0:
288,240,119910,1,0,0:0:0:0:
248,248,120004,1,0,0:0:0:0:
208,232,120098,1,0,0:0:0:0:
192,192,120192,1,0,0:0:0:0:
192,152,120286,1,0,0:0:0:0:
200,128,120380,1,14,0:0:0:0:
224,96,120474,1,0,0:0:0:0:
248,80,120568,1,0,0:0:0:0:
280,96,120662,5,0,0:0:0:0:
304,128,120755,1,0,0:0:0:0:
312,160,120849,1,0,0:0:0:0:
312,200,120943,1,0,0:0:0:0:
320,224,121037,1,0,0:0:0:0:
344,248,121131,1,14,0:0:0:0:
376,264,121225,1,0,0:0:0:0:
400,280,121319,1,0,0:0:0:0:
400,312,121413,1,0,0:0:0:0:
368,320,121507,1,0,0:0:0:0:
328,312,121601,1,0,0:0:0:0:
288,288,121695,1,0,0:0:0:0:
264,256,121788,5,0,0:0:0:0:
240,232,121882,1,14,0:0:0:0:
224,200,121976,1,0,0:0:0:0:
208,168,122070,1,0,0:0:0:0:
208,128,122164,1,0,0:0:0:0:
200,88,122258,1,0,0:0:0:0:
176,56,122352,1,0,0:0:0:0:
144,64,122446,1,0,0:0:0:0:
112,96,122540,1,14,0:0:0:0:
96,136,122634,1,0,0:0:0:0:
88,176,122728,1,0,0:0:0:0:
88,216,122821,1,0,0:0:0:0:
104,248,122915,1,0,0:0:0:0:
128,280,123009,5,0,0:0:0:0:
160,304,123103,1,0,0:0:0:0:
200,312,123197,1,0,0:0:0:0:
240,304,123291,1,0,0:0:0:0:
280,280,123385,1,14,0:0:0:0:
312,248,123479,1,0,0:0:0:0:
336,216,123573,1,0,0:0:0:0:
344,184,123667,1,0,0:0:0:0:
384,168,123761,1,0,0:0:0:0:
424,160,123854,1,0,0:0:0:0:
432,120,123948,1,0,0:0:0:0:
400,96,124042,1,14,0:0:0:0:
176,176,124606,2,0,B|208:104|328:112|288:168|288:176|136:272|336:232,1,290.625011086464
256,192,125920,12,14,127047,0:0:0:0:
288,56,127423,5,14,0:0:0:0:
160,64,127611,1,14,0:0:0:0:
272,144,127799,1,14,0:0:0:0:
168,168,127986,1,14,0:0:0:0:
240,224,128174,1,14,0:0:0:0:
256,232,128362,2,0,B|320:272|320:272|376:160|384:160,1,174.375006651879,14|0,0:0|0:0,0:0:0:0:
384,80,129113,5,0,0:0:0:0:
368,96,129207,1,0,0:0:0:0:
352,112,129301,1,0,0:0:0:0:
320,144,129395,2,0,B|256:176|248:80|248:80|224:88,1,116.250004434586
248,86,129958,6,0,B|248:80|248:80|256:176|320:144,1,116.250004434586
352,112,130239,1,0,0:0:0:0:
368,96,130333,1,0,0:0:0:0:
384,80,130427,1,0,0:0:0:0:
152,178,130678,2,0,L|153:131,3,38.7500014781952
120,64,131179,6,0,B|144:128|184:192|264:160,1,193.75
224,184,131930,1,0,0:0:0:0:
288,176,132306,2,0,B|360:128|360:128|352:144|416:168|400:56,1,193.75
312,48,133057,5,0,0:0:0:0:
248,56,133245,1,0,0:0:0:0:
184,64,133621,1,0,0:0:0:0:
128,96,133996,2,0,B|64:176|64:176|72:176|128:280|184:216|248:184|248:216|248:224|216:288|224:288,1,348.75
384,56,135499,5,0,0:0:0:0:
328,80,135687,1,0,0:0:0:0:
272,120,136062,5,0,0:0:0:0:
216,144,136250,2,0,B|136:192|136:192|129:182|136:144|96:112|86:129|120:160|99:160|80:224,1,232.5
360,64,137565,5,0,0:0:0:0:
304,80,137753,1,0,0:0:0:0:
248,112,137941,2,0,B|184:144|184:144|128:96|80:168|208:192|80:176,1,193.75
104,256,138692,5,0,0:0:0:0:
160,280,138880,1,0,0:0:0:0:
216,304,139067,1,0,0:0:0:0:
272,288,139255,2,0,B|353:182|304:200|304:200|304:192|304:192|304:192|304:192|408:208,1,232.5
128,48,140194,5,0,0:0:0:0:
384,48,140382,1,0,0:0:0:0:
208,192,140570,2,0,L|344:192,1,116.25
120,72,141321,5,14,0:0:0:0:
128,80,141384,1,14,0:0:0:0:
136,88,141446,2,14,L|200:168,1,77.5
392,72,142072,5,14,0:0:0:0:
384,80,142135,1,14,0:0:0:0:
376,88,142198,2,14,L|327:148,1,77.5
258,83,142636,6,0,L|258:58,3,25.8333333333333
257,300,143012,6,0,L|257:275,3,25.8333333333333
256,216,143575,2,0,B|336:168|272:176|256:152,1,103.333333333333
64,232,144326,5,0,0:0:0:0:
128,168,144514,1,0,0:0:0:0:
192,232,144702,2,0,L|256:176,1,77.5
200,232,145453,2,0,P|232:200|248:224,2,77.5
432,80,146204,5,0,0:0:0:0:
336,96,146580,1,0,0:0:0:0:
248,184,146956,1,0,0:0:0:0:
168,96,147331,1,0,0:0:0:0:
88,208,147707,2,0,B|192:240|192:240,1,77.5
144,184,148083,2,0,P|209:154|288:232,1,193.75
184,120,148928,1,0,0:0:0:0:
440,80,149585,5,0,0:0:0:0:
368,64,149773,1,0,0:0:0:0:
408,72,149961,1,0,0:0:0:0:
312,80,150524,2,0,P|272:56|256:72,3,77.5
416,344,151839,5,14,0:0:0:0:
312,264,152027,1,14,0:0:0:0:
424,184,152215,2,14,P|376:120|272:152,1,174.375006651879
272,144,152778,2,14,B|312:88|176:96|240:32|384:40,1,232.500008869171
392,96,153529,2,14,P|360:176|208:152,1,232.500008869171
256,192,154187,2,14,B|248:120|96:272|64:104,1,232.500008869171
96,192,155032,2,14,B|144:176|224:168|248:152,1,155.000005912781
400,112,155783,5,14,0:0:0:0:
344,128,155971,1,14,0:0:0:0:
288,120,156159,1,14,0:0:0:0:
240,88,156346,1,14,0:0:0:0:
192,96,156534,2,14,B|104:144|135:191|240:200,2,174.375006651879
368,72,158037,5,0,0:0:0:0:
368,72,158225,2,0,P|352:144|208:136,1,232.500008869171
120,280,159351,5,14,0:0:0:0:
224,112,159539,1,14,0:0:0:0:
280,288,159727,1,14,0:0:0:0:
432,112,159915,1,14,0:0:0:0:
440,296,160102,1,14,0:0:0:0:
120,192,160290,1,14,0:0:0:0:
360,192,160478,1,14,0:0:0:0:
400,56,160854,5,0,0:0:0:0:
344,88,161042,1,0,0:0:0:0:
288,96,161230,1,0,0:0:0:0:
232,96,161417,2,0,B|144:48|72:104|72:104|88:144|184:152|120:176,2,290.625011086464
96,272,163483,2,0,B|120:320|120:320|248:288|240:200|240:240,1,203.437507760525
120,104,164798,5,14,0:0:0:0:
224,272,164986,1,14,0:0:0:0:
280,96,165174,1,14,0:0:0:0:
432,272,165362,1,14,0:0:0:0:
440,88,165549,1,14,0:0:0:0:
120,192,165737,1,14,0:0:0:0:
360,192,165925,1,14,0:0:0:0:
64,72,166301,5,0,0:0:0:0:
192,64,166488,1,0,0:0:0:0:
136,136,166676,2,0,P|184:144|232:184,1,87.1875033259393
400,72,167803,5,0,0:0:0:0:
352,104,168085,1,0,0:0:0:0:
296,112,168367,1,0,0:0:0:0:
176,80,168742,2,0,B|136:128|144:120|144:120|176:144|176:144|144:168|144:168,1,135.625005173683
336,200,169556,2,0,L|304:128,1,77.5000029563905
392,280,170245,5,14,0:0:0:0:
288,112,170433,1,14,0:0:0:0:
232,288,170621,1,14,0:0:0:0:
80,112,170809,1,14,0:0:0:0:
72,296,170996,1,14,0:0:0:0:
392,192,171184,1,14,0:0:0:0:
208,192,171372,2,0,B|224:152|248:144|280:256|280:264|328:128|328:128|440:168,2,319.687512195111
256,192,173625,12,14,178696,0:0:0:0:
56,56,180011,5,0,0:0:0:0:
168,56,180199,1,0,0:0:0:0:
64,144,180387,1,0,0:0:0:0:
176,160,180575,2,0,B|200:224|112:288|112:288,1,145.312505543232
136,72,181701,5,0,0:0:0:0:
208,64,182077,1,0,0:0:0:0:
272,112,182453,2,0,P|224:144|232:184,1,87.1875033259393
136,104,183204,1,0,0:0:0:0:
192,152,184143,1,0,0:0:0:0:
192,152,184237,1,0,0:0:0:0:
192,152,184362,2,0,B|184:216|184:216|264:216|368:112|344:224,1,271.250010347367
312,288,185646,2,0,B|288:240|112:248|40:184|72:152|104:144|104:144|224:160|328:208|328:208|336:128|320:112,1,639.375024390221
352,224,188087,5,0,0:0:0:0:
368,336,188651,2,0,B|368:288|256:304|184:336|48:304|48:304|56:232|56:232|200:248|152:272,1,523.125019955636
184,304,190717,2,0,P|168:256|216:240,1,87.1875033259393
144,200,191656,1,0,0:0:0:0:
192,216,192125,5,0,0:0:0:0:
232,184,192313,2,0,B|248:136|336:136|336:136|336:152,2,116.250004434586
376,168,193722,1,0,0:0:0:0:
320,200,194160,1,0,0:0:0:0:
248,200,194661,2,0,B|176:144|120:104|112:112|48:240|48:240|240:208,1,465.000017738343
144,128,197008,1,0,0:0:0:0:
344,112,197196,1,0,0:0:0:0:
112,232,197384,1,0,0:0:0:0:
336,224,197572,1,0,0:0:0:0:
384,152,197979,2,0,P|336:112|312:136,1,87.1875033259393
312,112,198542,2,0,P|264:80|200:120,1,116.250004434586
144,160,199231,2,0,P|96:144|48:208,1,116.250004434586
256,192,200389,12,0,203488,0:0:0:0:
48,288,203989,5,0,0:0:0:0:
232,56,204302,1,0,0:0:0:0:
232,320,204615,1,0,0:0:0:0:
416,96,204928,1,0,0:0:0:0:
96,216,205648,5,0,0:0:0:0:
264,88,206024,1,0,0:0:0:0:
312,288,206399,1,0,0:0:0:0:
256,192,206681,12,0,209968,0:0:0:0:
392,280,210343,5,14,0:0:0:0:
48,208,210531,1,14,0:0:0:0:
320,96,210719,1,14,0:0:0:0:
232,288,210907,1,14,0:0:0:0:
144,112,211094,1,14,0:0:0:0:
392,192,211282,1,14,0:0:0:0:
152,192,211470,1,14,0:0:0:0:
259,191,211877,2,0,L|261:163,3,19.3750007390976
424,304,212409,5,0,0:0:0:0:
392,312,212503,1,0,0:0:0:0:
352,320,212597,1,0,0:0:0:0:
312,312,212691,1,0,0:0:0:0:
280,288,212785,1,0,0:0:0:0:
272,248,212879,1,14,0:0:0:0:
280,208,212973,5,0,0:0:0:0:
296,176,213066,1,0,0:0:0:0:
296,136,213160,1,0,0:0:0:0:
248,136,213254,1,0,0:0:0:0:
208,152,213348,1,0,0:0:0:0:
192,192,213442,1,0,0:0:0:0:
192,232,213536,1,0,0:0:0:0:
200,256,213630,1,14,0:0:0:0:
224,288,213724,1,0,0:0:0:0:
248,304,213818,1,0,0:0:0:0:
280,288,213912,5,0,0:0:0:0:
312,264,214005,1,0,0:0:0:0:
328,232,214099,1,0,0:0:0:0:
312,200,214193,1,0,0:0:0:0:
304,168,214287,1,0,0:0:0:0:
328,144,214381,1,14,0:0:0:0:
360,128,214475,1,0,0:0:0:0:
392,112,214569,1,0,0:0:0:0:
400,72,214663,1,0,0:0:0:0:
368,64,214757,1,0,0:0:0:0:
328,72,214851,1,0,0:0:0:0:
288,96,214945,1,0,0:0:0:0:
264,128,215038,5,0,0:0:0:0:
240,152,215132,1,14,0:0:0:0:
224,184,215226,1,0,0:0:0:0:
208,216,215320,1,0,0:0:0:0:
200,256,215414,1,0,0:0:0:0:
184,296,215508,1,0,0:0:0:0:
176,328,215602,1,0,0:0:0:0:
136,336,215696,1,0,0:0:0:0:
96,328,215790,1,14,0:0:0:0:
96,288,215884,1,0,0:0:0:0:
72,256,215978,1,0,0:0:0:0:
96,224,216071,1,0,0:0:0:0:
64,192,216165,1,0,0:0:0:0:
72,152,216259,5,0,0:0:0:0:
88,120,216353,1,0,0:0:0:0:
128,96,216447,1,0,0:0:0:0:
168,104,216541,1,0,0:0:0:0:
208,128,216635,1,14,0:0:0:0:
248,120,216729,1,0,0:0:0:0:
280,96,216823,1,0,0:0:0:0:
312,80,216917,1,0,0:0:0:0:
352,88,217011,1,0,0:0:0:0:
384,112,217104,1,0,0:0:0:0:
392,152,217198,1,0,0:0:0:0:
368,192,217292,5,0,0:0:0:0:
344,224,217386,1,0,0:0:0:0:
304,232,217480,1,0,0:0:0:0:
264,240,217574,1,0,0:0:0:0:
224,248,217668,1,0,0:0:0:0:
184,248,217762,1,0,0:0:0:0:
152,240,217856,1,0,0:0:0:0:
128,224,217950,1,0,0:0:0:0:
112,184,218044,1,0,0:0:0:0:
120,152,218138,1,0,0:0:0:0:
136,120,218231,5,0,0:0:0:0:
160,96,218325,1,0,0:0:0:0:
200,80,218419,1,0,0:0:0:0:
240,72,218513,1,0,0:0:0:0:
256,112,218607,1,0,0:0:0:0:
248,136,218701,1,0,0:0:0:0:
224,160,218795,1,0,0:0:0:0:
192,184,218889,1,0,0:0:0:0:
192,224,218983,1,0,0:0:0:0:
216,248,219077,1,0,0:0:0:0:
248,256,219171,1,0,0:0:0:0:
288,264,219264,1,0,0:0:0:0:
320,280,219358,5,0,0:0:0:0:
336,320,219452,1,0,0:0:0:0:
320,344,219546,5,0,0:0:0:0:
280,352,219640,1,0,0:0:0:0:
248,344,219734,1,0,0:0:0:0:
208,336,219828,1,0,0:0:0:0:
168,312,219922,1,0,0:0:0:0:
144,280,220016,1,0,0:0:0:0:
128,240,220110,1,0,0:0:0:0:
136,200,220204,1,0,0:0:0:0:
144,168,220297,5,0,0:0:0:0:
160,136,220391,1,0,0:0:0:0:
176,96,220485,1,0,0:0:0:0:
416,104,220767,5,0,0:0:0:0:
304,48,220955,1,0,0:0:0:0:
240,128,221143,1,0,0:0:0:0:
296,184,221330,2,0,P|344:216|352:216,2,58.1250022172929
224,232,221706,1,0,0:0:0:0:
160,168,221894,1,0,0:0:0:0:
144,80,222082,1,0,0:0:0:0:
232,56,222270,2,0,L|320:56,7,58.1250022172929
264,160,223115,2,0,L|192:160,3,58.1250022172929
400,96,223584,5,14,3:0:0:0:
256,32,223772,1,14,3:0:0:0:
88,104,223960,1,14,3:0:0:0:
88,280,224148,1,14,3:0:0:0:
256,336,224335,1,14,3:0:0:0:
448,56,224523,2,0,L|368:56,2,58.1250022172929,14|14|14,0:0|0:0|0:0,0:0:0:0:
328,56,224899,2,0,L|248:56,2,58.1250022172929,14|14|14,0:0|0:0|0:0,0:0:0:0:
208,56,225274,2,0,L|128:56,2,58.1250022172929,14|14|14,0:0|0:0|0:0,0:0:0:0:
88,56,225650,2,0,L|8:56,2,58.1250022172929,14|14|14,0:0|0:0|0:0,0:0:0:0:
88,120,226026,6,0,L|8:120,2,58.1250022172929,14|14|14,0:0|0:0|0:0,0:0:0:0:
88,192,226401,2,0,L|8:192,2,58.1250022172929,14|14|14,0:0|0:0|0:0,0:0:0:0:
88,264,226777,2,0,L|8:264,2,58.1250022172929,14|14|14,0:0|0:0|0:0,0:0:0:0:
88,336,227153,2,0,L|8:336,2,58.1250022172929,14|14|14,0:0|0:0|0:0,0:0:0:0:
208,336,227528,2,0,L|128:336,2,58.1250022172929,14|14|14,0:0|0:0|0:0,0:0:0:0:
336,336,227904,2,0,L|256:336,2,58.1250022172929,14|14|14,0:0|0:0|0:0,0:0:0:0:
368,272,228280,2,2,P|352:240|352:272,2,58.1250022172929
136,264,228655,2,2,P|152:232|152:264,2,58.1250022172929
352,168,229031,2,2,P|336:136|336:168,2,58.1250022172929
160,168,229406,2,2,P|176:136|176:168,2,58.1250022172929
72,328,229782,2,2,B|80:40|80:40|256:192,1,465.000017738343
440,328,230909,2,2,B|432:40|432:40|256:192,1,465.000017738343
80,192,232036,2,2,B|88:120|224:56|312:88|344:144,1,290.625011086464
288,120,232787,2,2,P|224:248|72:192,1,290.625011086464
97,227,233538,2,2,B|104:128|200:96|304:128,1,232.500008869171
104,120,234290,5,14,0:0:0:0:
288,40,234477,1,14,0:0:0:0:
256,264,234665,1,14,0:0:0:0:
448,136,234853,1,14,0:0:0:0:
448,136,234916,1,14,0:0:0:0:
448,136,234978,1,14,0:0:0:0:
80,104,235166,1,14,2:0:0:0:
240,48,235354,1,14,0:0:0:0:
136,224,235542,1,14,0:0:0:0:
232,128,235730,1,14,0:0:0:0:
232,128,235792,1,14,0:0:0:0:
232,128,235855,1,14,0:0:0:0:
136,144,236043,5,14,0:0:0:0:
328,32,236230,1,14,0:0:0:0:
336,240,236418,1,14,0:0:0:0:
384,128,236606,1,14,2:0:0:0:
