osu file format v14

[General]
AudioFilename: audio.mp3
AudioLeadIn: 0
PreviewTime: -1
Countdown: 1
SampleSet: None
StackLeniency: 0.7
Mode: 0
LetterboxInBreaks: 0
WidescreenStoryboard: 0

[Editor]
Bookmarks: 10071,10106,10642,20906,22406,22687,32812,34125,34687,37125,40687,41062,42656,43125,51937,52687,54656,55125,56250,56812,62625,63000,63937,64593,65062,67312,68812,78562,79500,81468,82968,85968,90187,96187,96843,97031,97312,112031,114562,114750,118406,118968,124500,133125,133500,134812,135187,138375,138937,142312,142593,143156,143437,145125,145500,146625,147187,147562,147937,153000,153375,153937,154874,171937,173437,177562,177749,177937,178687,179249,188999,190312,194812,195937,200999,202499,209062,211874,212437,215437,217687,218437,223124,224437,230437,231187,231937,232687,233437,234187,234937,235687,236437
DistanceSpacing: 0.9
BeatDivisor: 4
GridSize: 4
TimelineZoom: 3.299999

[Metadata]
Title:Mortal Reminder
TitleUnicode:Mortal Reminder
Artist:Pentakill
ArtistUnicode:Pentakill
Creator:DJKratos
Version:The Guardian(old)
Source:
Tags:Pentakill lol league of legends mortal reminder
BeatmapID:1561433
BeatmapSetID:740098

[Difficulty]
HPDrainRate:4
CircleSize:4
OverallDifficulty:9
ApproachRate:9.5
SliderMultiplier:1.2
SliderTickRate:1

[Events]
//Background and Video events
0,0,"maxresdefault.jpg",0,0
//Break Periods
//Storyboard Layer 0 (Background)
//Storyboard Layer 1 (Fail)
//Storyboard Layer 2 (Pass)
//Storyboard Layer 3 (Foreground)
//Storyboard Sound Samples

[TimingPoints]
0,375,4,3,0,100,1,0
157,-100,4,3,0,100,0,0
22875,-50,4,3,0,100,0,0
27375,-100,4,3,0,100,0,0
28312,-50,4,3,0,100,0,0
32812,-100,4,3,0,100,0,0
68812,-200,4,3,0,100,0,0
77812,-133.333333333333,4,3,0,100,0,0
78562,-100,4,3,0,100,0,0
79500,-133.333333333333,4,3,0,100,0,0
84093,-100,4,3,0,100,0,0
85968,-133.333333333333,4,3,0,100,0,0
90562,-100,4,3,0,100,0,0
91125,-133.333333333333,4,3,0,100,0,0
92062,-100,4,3,0,100,0,0
92625,-133.333333333333,4,3,0,100,0,0
93562,-100,4,3,0,100,0,0
94500,-133.333333333333,4,3,0,100,0,0
95062,-100,4,3,0,100,0,0
96187,-133.333333333333,4,3,0,100,0,0
98062,-100,4,3,0,100,0,0
98812,-133.333333333333,4,3,0,100,0,0
99562,-100,4,3,0,100,0,0
100312,-133.333333333333,4,3,0,100,0,0
116625,-100,4,3,0,100,0,0
130687,-66.6666666666667,4,3,0,100,0,0
153187,375,4,3,0,100,1,0
174562,-100,4,3,0,100,0,0
188999,-100,4,3,0,100,0,0
190312,-100,4,3,0,100,0,0
194812,-100,4,3,0,100,0,0
195937,-66.6666666666667,4,3,0,100,0,0
200999,-100,4,3,0,100,0,0
202499,-66.6666666666667,4,3,0,100,0,0
206437,-100,4,3,0,100,0,0
212437,-66.6666666666667,4,3,0,100,0,0
224437,-133.333333333333,4,3,0,100,0,0
224718,-111.111111111111,4,3,0,100,0,0
236437,-50,4,3,0,100,0,0

[HitObjects]
128,264,187,5,0,3:3:0:0:
272,128,375,2,0,P|296:160|296:192,1,60,0|0,3:3|3:3,3:3:0:0:
104,136,750,1,0,3:3:0:0:
256,276,937,2,0,P|204:288|192:284,1,60,0|0,3:3|3:3,3:3:0:0:
364,104,1312,5,0,3:3:0:0:
160,228,1500,2,0,P|160:168|160:160,1,60,0|0,3:3|3:3,3:3:0:0:
300,268,1875,1,0,3:3:0:0:
280,84,2062,1,0,3:3:0:0:
100,260,2250,6,0,P|104:212|128:196,1,60,0|0,3:3|3:3,3:3:0:0:
352,180,2612,1,0,3:3:0:0:
200,312,2812,1,0,3:3:0:0:
256,96,3000,1,0,3:3:0:0:
380,304,3187,6,0,P|376:264|356:240,1,60,0|0,3:3|3:3,3:3:0:0:
80,176,3562,1,0,3:3:0:0:
216,300,3750,1,0,3:3:0:0:
252,132,3937,1,0,3:3:0:0:
64,68,4125,6,0,P|112:92|132:88,1,60,0|0,3:3|3:3,3:3:0:0:
376,312,4500,1,0,3:3:0:0:
376,56,4687,1,0,3:3:0:0:
184,240,4875,1,0,3:3:0:0:
368,184,5062,2,0,P|356:136|328:128,1,60,0|0,3:3|3:3,3:3:0:0:
96,312,5437,5,4,3:3:0:0:
240,96,5625,2,4,P|288:112|296:132,1,60,4|4,3:3|3:3,3:3:0:0:
72,104,6000,1,4,3:3:0:0:
236,248,6187,1,4,3:3:0:0:
200,48,6375,1,4,3:3:0:0:
120,320,6562,6,4,L|152:264,1,60,4|4,3:3|3:3,3:3:0:0:
52,168,6937,1,4,3:3:0:0:
272,296,7125,1,4,3:3:0:0:
36,240,7312,1,4,3:3:0:0:
384,72,7500,6,4,P|336:76|324:92,1,60,4|4,3:3|3:3,3:3:0:0:
384,292,7875,1,4,3:3:0:0:
212,144,8062,1,4,3:3:0:0:
416,188,8250,1,4,3:3:0:0:
112,312,8437,6,4,P|112:264|136:240,1,60,4|4,3:3|3:3,3:3:0:0:
248,284,8812,1,0,3:3:0:0:
132,100,9000,1,0,3:3:0:0:
352,152,9187,1,0,3:3:0:0:
144,244,9375,1,0,3:3:0:0:
248,60,9562,1,0,3:3:0:0:
248,296,9750,5,0,3:3:0:0:
296,104,9937,1,0,3:3:0:0:
76,152,10125,5,0,3:3:0:0:
107,138,10218,1,0,3:3:0:0:
142,142,10312,1,0,3:3:0:0:
176,152,10406,1,0,3:3:0:0:
210,156,10500,1,0,3:3:0:0:
244,148,10593,1,0,3:3:0:0:
280,128,10687,2,0,P|324:96|332:84,1,60,0|0,3:3|3:3,3:3:0:0:
248,276,11062,5,4,3:3:0:0:
392,172,11250,1,0,3:3:0:0:
228,100,11437,2,0,P|192:128|188:164,1,60,0|0,3:3|3:3,3:3:0:0:
84,240,11812,5,4,3:3:0:0:
100,56,12000,1,0,3:3:0:0:
224,164,12187,2,0,P|220:220|200:232,1,60,0|0,3:3|3:3,3:3:0:0:
124,200,12562,5,4,3:3:0:0:
288,56,12750,1,0,3:3:0:0:
136,60,12937,2,0,P|132:108|140:128,1,60,0|0,3:3|3:3,3:3:0:0:
320,208,13312,5,4,3:3:0:0:
164,284,13500,1,0,3:3:0:0:
360,312,13687,2,0,P|388:264|388:240,1,60,0|0,3:3|3:3,3:3:0:0:
116,108,14062,5,4,3:3:0:0:
208,240,14250,1,0,3:3:0:0:
312,88,14437,2,0,P|312:136|300:140,1,60,0|0,3:3|3:3,3:3:0:0:
160,144,14812,1,4,3:3:0:0:
332,268,15000,2,0,L|272:256,1,60,0|0,3:3|3:3,3:3:0:0:
248,96,15375,5,4,3:3:0:0:
128,168,15562,2,4,P|108:135|108:102,1,60,0|0,3:3|3:3,3:3:0:0:
268,196,15937,1,0,3:3:0:0:
164,276,16125,1,4,3:3:0:0:
208,92,16312,2,0,P|264:84|280:72,1,60,0|0,3:3|3:3,3:3:0:0:
312,264,16687,5,4,3:3:0:0:
288,156,16875,2,0,L|232:188,1,60,0|0,3:3|3:3,3:3:0:0:
364,72,17250,1,0,3:3:0:0:
184,64,17437,1,4,3:3:0:0:
144,228,17625,2,0,L|204:232,1,60,0|0,3:3|3:3,3:3:0:0:
352,84,18000,5,4,3:3:0:0:
184,152,18187,1,0,3:3:0:0:
340,256,18375,2,0,P|364:212|356:188,1,60,0|0,3:3|3:3,3:3:0:0:
240,64,18750,1,0,3:3:0:0:
212,232,18937,2,4,P|176:204|172:184,1,60,4|4,3:3|3:3,3:3:0:0:
172,191,19218,1,4,3:3:0:0:
172,191,19312,1,4,3:3:0:0:
352,84,19500,5,4,3:3:0:0:
252,268,19687,1,0,3:3:0:0:
208,72,19875,1,0,3:3:0:0:
376,208,20062,1,4,3:3:0:0:
412,48,20250,2,0,P|364:48|336:64,1,60,0|0,3:3|3:3,3:3:0:0:
152,276,20625,5,4,3:3:0:0:
200,204,20812,1,0,3:3:0:0:
268,260,21000,1,0,3:3:0:0:
308,184,21187,1,4,3:3:0:0:
372,252,21375,1,0,3:3:0:0:
216,216,21562,2,4,P|228:176|240:160,1,60,4|4,3:3|3:3,3:3:0:0:
132,112,21937,5,8,3:3:0:0:
312,80,22125,1,8,3:3:0:0:
276,208,22312,1,0,3:3:0:0:
254,238,22405,1,0,3:3:0:0:
225,261,22499,1,0,3:3:0:0:
190,274,22593,1,0,3:3:0:0:
152,276,22687,2,0,P|120:276|96:260,1,60,0|0,3:3|3:3,3:3:0:0:
40,120,22968,5,0,3:3:0:0:
64,128,23062,1,0,3:3:0:0:
93,132,23155,1,0,3:3:0:0:
121,124,23249,1,0,3:3:0:0:
150,114,23343,1,0,3:3:0:0:
179,106,23437,1,0,3:3:0:0:
208,100,23530,1,0,3:3:0:0:
238,98,23624,1,0,3:3:0:0:
272,104,23718,1,0,3:3:0:0:
296,112,23812,2,0,P|332:135|342:168,1,60,4|0,3:3|3:3,3:3:0:0:
348,208,24000,5,0,3:3:0:0:
336,232,24093,1,0,3:3:0:0:
324,259,24186,1,0,3:3:0:0:
303,280,24280,1,0,3:3:0:0:
277,295,24374,1,0,3:3:0:0:
247,301,24468,1,0,3:3:0:0:
218,297,24562,2,0,P|172:280|156:252,1,60,4|0,3:3|3:3,3:3:0:0:
124,156,24750,5,0,3:3:0:0:
136,156,24843,1,0,3:3:0:0:
145,155,24936,1,0,3:3:0:0:
155,156,25030,1,0,3:3:0:0:
200,160,25125,5,0,3:3:0:0:
229,163,25218,1,0,3:3:0:0:
258,158,25312,1,4,3:3:0:0:
284,142,25406,1,0,3:3:0:0:
303,120,25500,1,0,3:3:0:0:
314,92,25593,1,0,3:3:0:0:
320,44,25687,5,0,3:3:0:0:
276,84,25780,1,0,3:3:0:0:
256,140,25874,1,0,3:3:0:0:
265,198,25968,1,0,3:3:0:0:
300,244,26062,2,0,P|332:272|372:292,1,60,8|0,3:3|3:3,3:3:0:0:
136,292,26250,5,0,3:3:0:0:
144,276,26343,1,0,3:3:0:0:
152,258,26436,1,0,3:3:0:0:
153,238,26530,1,0,3:3:0:0:
160,220,26625,5,0,3:3:0:0:
167,184,26718,1,0,3:3:0:0:
166,148,26812,1,4,3:3:0:0:
158,113,26906,1,0,3:3:0:0:
143,81,27000,1,0,3:3:0:0:
80,72,27093,5,0,3:3:0:0:
102,167,27186,1,0,3:3:0:0:
180,227,27280,1,0,3:3:0:0:
278,224,27374,1,0,3:3:0:0:
268,100,27562,5,0,3:3:0:0:
384,196,27750,2,0,P|360:240|340:248,1,60,0|0,3:3|3:3,3:3:0:0:
400,84,28125,1,0,3:3:0:0:
248,216,28312,5,0,3:3:0:0:
221,240,28405,1,0,3:3:0:0:
187,249,28499,1,0,3:3:0:0:
152,240,28593,1,0,3:3:0:0:
126,215,28687,1,0,3:3:0:0:
112,180,28781,1,0,3:3:0:0:
153,164,28874,1,0,3:3:0:0:
186,133,28968,1,0,3:3:0:0:
204,88,29062,2,0,P|256:88|280:80,1,60,4|0,3:3|3:3,3:3:0:0:
376,148,29250,5,0,3:3:0:0:
336,152,29343,1,0,3:3:0:0:
306,172,29436,1,0,3:3:0:0:
291,204,29530,1,0,3:3:0:0:
295,239,29624,1,0,3:3:0:0:
316,268,29718,1,0,3:3:0:0:
352,284,29812,2,0,P|380:288|408:268,1,60,4|0,3:3|3:3,3:3:0:0:
196,320,30000,5,0,3:3:0:0:
165,280,30093,1,0,3:3:0:0:
155,232,30187,1,0,3:3:0:0:
162,182,30281,1,0,3:3:0:0:
168,133,30375,1,0,3:3:0:0:
159,84,30468,1,0,3:3:0:0:
128,40,30562,2,0,P|104:32|72:44,1,60,4|0,3:3|3:3,3:3:0:0:
68,164,30750,5,0,3:3:0:0:
93,148,30843,1,0,3:3:0:0:
122,143,30937,1,0,3:3:0:0:
151,150,31031,1,0,3:3:0:0:
175,167,31125,1,0,3:3:0:0:
191,193,31218,1,0,3:3:0:0:
196,224,31312,2,0,P|180:260|156:264,1,60,4|0,3:3|3:3,3:3:0:0:
300,312,31500,5,0,3:3:0:0:
300,300,31593,1,0,3:3:0:0:
300,284,31687,1,0,3:3:0:0:
300,264,31781,1,0,3:3:0:0:
300,224,31874,5,0,3:3:0:0:
300,184,31968,1,0,3:3:0:0:
300,136,32062,1,4,3:3:0:0:
291,92,32155,1,0,3:3:0:0:
260,61,32249,1,0,3:3:0:0:
216,55,32343,5,0,3:3:0:0:
176,80,32437,1,0,3:3:0:0:
151,116,32530,1,0,3:3:0:0:
159,158,32624,1,0,3:3:0:0:
196,182,32718,1,0,3:3:0:0:
239,172,32812,2,0,P|280:156|296:140,1,60,0|0,3:3|3:3,3:3:0:0:
376,260,33187,5,4,3:3:0:0:
312,136,33375,2,0,P|356:108|376:120,1,60,0|0,3:3|3:3,3:3:0:0:
252,276,33750,1,4,3:3:0:0:
400,172,33937,1,0,3:3:0:0:
232,176,34125,1,0,3:3:0:0:
202,170,34218,1,0,3:3:0:0:
182,149,34312,1,0,3:3:0:0:
179,120,34406,1,0,3:3:0:0:
196,88,34500,1,0,3:3:0:0:
177,37,34593,1,0,3:3:0:0:
128,58,34687,1,0,3:3:0:0:
164,264,34875,5,0,3:3:0:0:
280,160,35062,2,8,P|312:136|336:136,1,60,8|8,3:3|3:3,3:3:0:0:
144,100,35437,1,0,3:3:0:0:
228,244,35625,1,0,3:3:0:0:
312,64,35812,6,0,P|288:92|296:132,1,60,0|0,3:3|3:3,3:3:0:0:
424,196,36187,1,0,3:3:0:0:
204,168,36375,1,0,3:3:0:0:
360,112,36562,2,0,P|328:84|300:84,1,60,0|0,3:3|3:3,3:3:0:0:
304,264,36937,1,0,3:3:0:0:
108,124,37125,5,0,3:3:0:0:
108,124,37218,1,0,3:3:0:0:
108,124,37312,2,0,P|160:128|176:120,1,60,0|0,3:3|3:3,3:3:0:0:
272,248,37687,1,0,3:3:0:0:
320,88,37875,5,0,3:3:0:0:
132,220,38062,2,0,P|128:268|148:240,1,120,0|0,3:3|3:3,3:3:0:0:
368,56,38625,5,0,3:3:0:0:
315,112,38718,1,0,3:3:0:0:
297,190,38812,1,0,3:3:0:0:
240,240,38906,2,0,P|164:284|144:284,1,90,0|0,3:3|3:3,3:3:0:0:
128,208,39375,5,0,3:3:0:0:
132,188,39468,1,0,3:3:0:0:
136,168,39562,1,0,3:3:0:0:
272,248,39750,1,0,3:3:0:0:
316,108,39937,5,0,3:3:0:0:
320,104,40031,1,0,3:3:0:0:
324,100,40125,1,0,3:3:0:0:
88,208,40312,5,0,3:3:0:0:
96,205,40406,1,0,3:3:0:0:
100,201,40500,1,0,3:3:0:0:
332,284,40687,5,0,3:3:0:0:
344,256,40780,1,0,3:3:0:0:
348,227,40874,1,0,3:3:0:0:
343,197,40968,1,0,3:3:0:0:
324,168,41062,2,0,P|300:120|308:96,1,60,0|0,3:3|3:3,3:3:0:0:
152,244,41437,5,0,3:3:0:0:
280,52,41625,1,0,3:3:0:0:
372,272,41812,2,0,P|324:260|320:244,1,60,0|0,3:3|3:3,3:3:0:0:
212,136,42187,1,0,3:3:0:0:
424,80,42375,5,0,3:3:0:0:
248,292,42562,1,0,3:3:0:0:
228,276,42655,1,0,3:3:0:0:
215,255,42749,1,0,3:3:0:0:
208,231,42843,1,0,3:3:0:0:
206,206,42937,1,0,3:3:0:0:
210,181,43030,1,0,3:3:0:0:
219,158,43124,1,0,3:3:0:0:
392,144,43312,5,0,3:3:0:0:
388,148,43406,1,0,3:3:0:0:
384,152,43500,2,0,B|344:216|344:216|272:136|272:252|196:168,1,240,0|4,3:3|3:3,3:3:0:0:
104,324,44437,1,0,3:3:0:0:
112,300,44530,1,0,3:3:0:0:
119,276,44624,1,0,3:3:0:0:
125,252,44718,1,0,3:3:0:0:
128,232,44812,2,0,P|132:184|124:148,1,60,0|0,3:3|3:3,3:3:0:0:
272,296,45187,1,0,3:3:0:0:
336,112,45375,5,4,3:3:0:0:
240,252,45562,1,0,3:3:0:0:
176,88,45750,2,0,P|224:84|240:96,1,60,0|0,3:3|3:3,3:3:0:0:
324,228,46125,1,0,3:3:0:0:
196,288,46312,2,0,P|208:304|256:296,1,60,0|0,3:3|3:3,3:3:0:0:
244,164,46687,1,0,3:3:0:0:
104,256,46875,1,0,3:3:0:0:
112,100,47062,5,0,3:3:0:0:
324,180,47250,1,0,3:3:0:0:
132,284,47437,2,0,P|136:240|152:232,1,60,0|0,3:3|3:3,3:3:0:0:
264,100,47812,1,0,3:3:0:0:
340,308,48000,5,0,3:3:0:0:
340,308,48093,1,0,3:3:0:0:
340,308,48187,1,0,3:3:0:0:
160,204,48375,1,0,3:3:0:0:
160,184,48468,1,0,3:3:0:0:
160,168,48562,1,0,3:3:0:0:
368,96,48750,5,0,3:3:0:0:
332,116,48843,1,0,3:3:0:0:
288,128,48937,2,0,P|248:116|224:80,1,60,0|0,3:3|3:3,3:3:0:0:
188,288,49312,1,0,3:3:0:0:
376,252,49500,1,0,3:3:0:0:
188,148,49687,1,0,3:3:0:0:
264,304,49875,5,0,3:3:0:0:
368,72,50062,2,0,P|316:60|288:64,1,60,0|0,3:3|3:3,3:3:0:0:
336,168,50437,1,0,3:3:0:0:
168,52,50625,5,0,3:3:0:0:
168,76,50718,1,0,3:3:0:0:
168,104,50812,2,0,P|176:152|176:156,1,30,0|0,3:3|3:3,3:3:0:0:
376,120,51281,5,0,3:3:0:0:
376,120,51375,1,0,3:3:0:0:
376,120,51468,1,0,3:3:0:0:
376,120,51562,2,0,P|360:172|336:188,1,60,0|0,3:3|3:3,3:3:0:0:
176,96,51937,5,0,3:3:0:0:
152,150,52030,1,0,3:3:0:0:
164,208,52124,1,0,3:3:0:0:
206,249,52218,1,0,3:3:0:0:
152,272,52312,1,4,3:3:0:0:
188,225,52405,1,4,3:3:0:0:
244,205,52499,1,4,3:3:0:0:
301,217,52593,1,4,3:3:0:0:
344,240,52687,2,0,P|368:264|368:308,1,60,0|0,3:3|3:3,3:3:0:0:
184,80,53062,5,0,3:3:0:0:
128,268,53250,1,0,3:3:0:0:
336,172,53437,2,0,P|312:216|300:224,1,60,0|0,3:3|3:3,3:3:0:0:
116,92,53812,1,0,3:3:0:0:
264,332,54000,5,0,3:3:0:0:
380,76,54187,1,0,3:3:0:0:
152,248,54375,2,0,P|172:208|184:200,1,60,0|0,3:3|3:3,3:3:0:0:
208,192,54656,1,0,3:3:0:0:
236,171,54749,1,0,3:3:0:0:
242,137,54843,1,0,3:3:0:0:
222,108,54937,1,0,3:3:0:0:
188,102,55031,1,0,3:3:0:0:
156,124,55125,6,0,P|124:152|128:184,1,60,0|0,3:3|3:3,3:3:0:0:
280,276,55500,5,4,3:3:0:0:
324,116,55687,1,0,3:3:0:0:
232,96,55875,2,0,P|192:112|192:144,1,60,0|0,3:3|3:3,3:3:0:0:
404,272,56250,5,0,3:3:0:0:
369,239,56343,1,0,3:3:0:0:
324,221,56437,1,0,3:3:0:0:
277,218,56531,1,0,3:3:0:0:
229,217,56625,1,0,3:3:0:0:
183,203,56718,1,0,3:3:0:0:
144,172,56812,2,0,P|124:132|116:96,1,60,0|0,3:3|3:3,3:3:0:0:
328,92,57187,5,4,3:3:0:0:
296,264,57375,2,0,P|244:264|224:256,1,60,0|0,3:3|3:3,3:3:0:0:
428,172,57750,1,4,3:3:0:0:
216,56,57937,2,0,P|188:96|200:116,1,60,0|0,3:3|3:3,3:3:0:0:
196,284,58312,5,0,3:3:0:0:
336,120,58500,1,0,3:3:0:0:
172,112,58687,2,0,P|128:136|120:160,1,60,0|0,3:3|3:3,3:3:0:0:
328,272,59062,1,0,3:3:0:0:
256,68,59250,1,0,3:3:0:0:
152,276,59437,6,0,P|136:236|144:228,1,60,0|0,3:3|3:3,3:3:0:0:
368,160,59812,1,4,3:3:0:0:
116,144,60000,5,4,3:3:0:0:
140,132,60093,1,4,3:3:0:0:
160,120,60187,1,4,3:3:0:0:
320,248,60375,5,0,3:3:0:0:
320,248,60468,1,0,3:3:0:0:
320,248,60562,1,0,3:3:0:0:
132,276,60750,5,0,3:3:0:0:
276,64,60937,2,0,P|312:76|324:104,1,60,0|0,3:3|3:3,3:3:0:0:
92,80,61312,1,4,3:3:0:0:
368,176,61500,5,0,3:3:0:0:
342,207,61593,1,0,3:3:0:0:
297,201,61687,1,0,3:3:0:0:
253,204,61781,1,0,3:3:0:0:
220,232,61875,2,0,P|184:248|140:248,1,60,4|0,3:3|3:3,3:3:0:0:
200,72,62250,5,0,3:3:0:0:
144,224,62437,1,0,3:3:0:0:
128,76,62625,5,0,3:3:0:0:
157,77,62718,1,0,3:3:0:0:
187,83,62812,1,0,3:3:0:0:
215,93,62906,1,0,3:3:0:0:
244,112,63000,2,0,P|276:136|288:168,1,60,4|0,3:3|3:3,3:3:0:0:
172,304,63375,5,0,3:3:0:0:
196,300,63468,1,0,3:3:0:0:
220,284,63562,2,0,P|240:252|240:220,1,60,0|0,3:3|3:3,3:3:0:0:
96,108,63937,5,0,3:3:0:0:
144,113,64030,1,0,3:3:0:0:
185,86,64124,1,0,3:3:0:0:
198,38,64218,1,0,3:3:0:0:
148,24,64312,1,0,3:3:0:0:
157,82,64405,1,0,3:3:0:0:
200,122,64499,1,0,3:3:0:0:
256,128,64593,2,0,P|296:132|288:188,1,90,4|0,3:3|3:3,3:3:0:0:
120,300,65062,6,0,L|168:256,1,60,0|0,3:3|3:3,3:3:0:0:
316,252,65437,2,0,L|344:308,1,60,0|0,3:3|3:3,3:3:0:0:
172,120,65812,1,0,3:3:0:0:
316,120,66000,2,0,P|320:176|280:224,1,120,0|0,3:3|3:3,3:3:0:0:
396,312,66562,5,0,3:3:0:0:
144,276,66750,1,0,3:3:0:0:
276,344,66937,2,0,P|280:288|280:272,1,60,0|0,3:3|3:3,3:3:0:0:
160,240,67312,2,0,B|180:192|180:192|116:128|116:128|208:140|208:140|180:52|248:38|316:28|352:88|332:144,1,480,0|0,3:3|3:3,3:3:0:0:
116,192,69000,5,0,3:3:0:0:
186,313,69187,1,0,3:3:0:0:
325,313,69375,1,0,3:3:0:0:
395,192,69562,1,0,3:3:0:0:
228,72,69750,5,0,3:3:0:0:
184,200,69937,2,0,L|216:204,1,30,0|0,3:3|3:3,3:3:0:0:
392,76,70312,5,0,3:3:0:0:
320,288,70500,1,0,3:3:0:0:
268,80,70687,1,0,3:3:0:0:
428,204,70875,1,0,3:3:0:0:
224,208,71062,5,0,3:3:0:0:
128,276,71250,2,0,P|104:272|96:264,1,30,0|0,3:3|3:3,3:3:0:0:
208,76,71625,5,0,3:3:0:0:
352,200,71812,2,0,P|348:224|336:228,1,30,0|0,3:3|3:3,3:3:0:0:
128,164,72187,5,0,3:3:0:0:
264,288,72375,1,0,3:3:0:0:
312,88,72562,2,0,P|284:88|276:96,1,30,0|0,3:3|3:3,3:3:0:0:
384,188,72937,1,0,3:3:0:0:
220,164,73125,1,0,3:3:0:0:
320,64,73312,2,0,P|340:56|352:56,1,30,0|0,3:3|3:3,3:3:0:0:
124,272,73687,5,0,3:3:0:0:
196,108,73875,1,0,3:3:0:0:
268,272,74062,1,0,3:3:0:0:
336,104,74250,5,0,3:3:0:0:
188,264,74437,1,0,3:3:0:0:
384,184,74625,1,0,3:3:0:0:
232,120,74812,1,0,3:3:0:0:
336,304,75000,5,0,3:3:0:0:
104,176,75187,2,0,L|116:144,1,30,0|0,3:3|3:3,3:3:0:0:
208,260,75562,1,0,3:3:0:0:
232,80,75750,1,0,3:3:0:0:
76,104,75937,6,0,L|88:76,1,30,0|0,3:3|3:3,3:3:0:0:
352,184,76312,1,0,3:3:0:0:
144,224,76500,1,0,3:3:0:0:
312,72,76687,1,0,3:3:0:0:
248,292,76875,5,0,3:3:0:0:
156,128,77062,1,0,3:3:0:0:
320,240,77250,1,0,3:3:0:0:
100,172,77437,2,0,L|124:208,1,30,0|0,3:3|3:3,3:3:0:0:
336,88,77812,6,0,P|300:96|328:104,1,90,0|0,3:3|3:3,3:3:0:0:
168,280,78375,1,0,3:3:0:0:
160,252,78562,6,0,B|190:230|190:230|192:188|192:188|240:204|240:204|236:152|304:108|372:148|368:188,1,300,0|0,3:3|3:3,3:3:0:0:
152,296,79687,5,0,3:3:0:0:
78,182,79875,1,0,3:3:0:0:
191,109,80062,1,0,3:3:0:0:
265,222,80250,1,0,3:3:0:0:
80,104,80437,5,0,3:3:0:0:
184,268,80625,2,0,P|184:240|200:216,1,45.0000017166138,0|0,3:3|3:3,3:3:0:0:
376,64,81000,1,0,3:3:0:0:
300,264,81187,1,0,3:3:0:0:
196,92,81375,1,0,3:3:0:0:
138,124,81468,1,0,3:3:0:0:
108,184,81562,1,0,3:3:0:0:
118,249,81656,1,0,3:3:0:0:
164,298,81750,1,0,3:3:0:0:
184,228,81843,5,0,3:3:0:0:
202,170,81936,1,0,3:3:0:0:
255,140,82030,1,0,3:3:0:0:
314,152,82124,1,0,3:3:0:0:
350,201,82218,1,0,3:3:0:0:
384,140,82312,5,0,3:3:0:0:
348,85,82405,1,0,3:3:0:0:
285,64,82499,1,0,3:3:0:0:
218,69,82593,1,0,3:3:0:0:
161,103,82687,1,0,3:3:0:0:
140,168,82781,1,0,3:3:0:0:
176,216,82875,1,0,3:3:0:0:
240,216,82968,2,0,B|272:132|360:232|384:160,1,157.500006008148,0|0,3:3|3:3,3:3:0:0:
76,296,84093,6,0,B|168:308|168:308|156:196|156:196|232:296|232:296|240:232|240:232|300:272|352:244|376:200|352:152|312:128,1,600,0|0,3:3|3:3,3:3:0:0:
140,172,86437,5,0,3:3:0:0:
376,72,86625,1,0,3:3:0:0:
228,68,86812,2,0,P|264:48|276:48,1,45.0000017166138,0|0,3:3|3:3,3:3:0:0:
272,252,87187,1,0,3:3:0:0:
96,152,87375,5,0,3:3:0:0:
420,164,87562,1,0,3:3:0:0:
184,312,87750,2,0,L|180:256,1,45.0000017166138,0|0,3:3|3:3,3:3:0:0:
280,268,88125,1,0,3:3:0:0:
284,80,88312,6,0,P|248:72|240:80,1,45.0000017166138,0|0,3:3|3:3,3:3:0:0:
112,308,88687,1,0,3:3:0:0:
320,152,88875,1,0,3:3:0:0:
108,88,89062,2,0,P|92:120|88:140,1,45.0000017166138,0|0,3:3|3:3,3:3:0:0:
240,300,89437,5,0,3:3:0:0:
264,112,89625,1,0,3:3:0:0:
140,264,89812,2,0,P|144:228|156:216,1,45.0000017166138,0|0,3:3|3:3,3:3:0:0:
384,100,90187,5,0,3:3:0:0:
100,136,90375,1,0,3:3:0:0:
324,224,90562,2,0,B|272:284|272:284|232:172|200:224,1,180,0|0,3:3|3:3,3:3:0:0:
200,76,91312,6,0,P|228:72|260:80,1,45.0000017166138,0|0,3:3|3:3,3:3:0:0:
96,280,91687,5,0,3:3:0:0:
304,128,91875,1,0,3:3:0:0:
112,128,92062,2,0,B|136:104|136:104|176:168|252:124|228:64,1,180,4|0,3:3|3:3,3:3:0:0:
304,296,92812,5,0,3:3:0:0:
100,120,93000,2,0,P|132:96|144:96,1,45.0000017166138,0|0,3:3|3:3,3:3:0:0:
132,312,93375,1,2,3:3:0:0:
356,156,93562,2,0,B|316:132|316:132|304:184|304:184|296:124|264:96|228:88|192:96|168:124|156:156,1,300,4|0,3:3|3:3,3:3:0:0:
128,48,94687,5,0,3:3:0:0:
268,300,94875,1,0,3:3:0:0:
352,128,95062,2,0,B|332:80|332:80|308:140|308:140|272:72|256:52|224:40|188:48|164:72|152:100|164:140,1,360,4|0,3:3|3:3,3:3:0:0:
344,288,96375,5,0,3:3:0:0:
112,288,96562,2,0,P|112:232|136:204,1,90.0000034332277,4|0,3:3|3:3,3:3:0:0:
464,120,97125,1,0,3:3:0:0:
418,175,97218,1,0,3:3:0:0:
352,196,97312,2,0,P|316:192|296:172,1,45.0000017166138,0|0,3:3|3:3,3:3:0:0:
160,56,97687,5,0,3:3:0:0:
176,304,97875,1,0,3:3:0:0:
372,108,98062,2,0,B|320:168|320:168|292:104|264:88|232:88|204:108|192:144,1,240,4|0,3:3|3:3,3:3:0:0:
128,208,99000,5,0,3:3:0:0:
344,136,99375,5,0,3:3:0:0:
168,104,99562,2,0,B|132:136|132:136|184:148|184:148|144:168|128:212|148:256|200:260,1,240,0|0,3:3|3:3,3:3:0:0:
232,232,100500,5,0,3:3:0:0:
128,160,100687,2,0,P|164:136|180:136,1,45.0000017166138,0|0,3:3|3:3,3:3:0:0:
336,180,101062,2,0,P|284:116|300:204,1,225.000008583069,4|0,3:3|3:3,3:3:0:0:
176,112,102375,5,0,3:3:0:0:
160,316,102562,2,0,P|196:280|176:192,1,135.000005149841,0|0,3:3|3:3,3:3:0:0:
352,96,103312,1,0,3:3:0:0:
288,268,103499,1,0,3:3:0:0:
216,108,103687,1,0,3:3:0:0:
136,304,103875,5,0,3:3:0:0:
72,192,104062,2,0,P|160:140|144:216,1,225.000008583069,0|0,3:3|3:3,3:3:0:0:
120,172,105187,1,4,3:3:0:0:
344,76,105375,1,0,3:3:0:0:
272,312,105562,1,0,3:3:0:0:
168,92,105750,6,0,P|208:76|224:80,1,45.0000017166138,0|0,3:3|3:3,3:3:0:0:
136,280,106125,1,0,3:3:0:0:
320,152,106312,1,0,3:3:0:0:
88,120,106500,1,0,3:3:0:0:
292,288,106687,6,0,L|264:248,1,45.0000017166138,0|0,3:3|3:3,3:3:0:0:
224,56,107062,1,0,3:3:0:0:
136,200,107250,2,0,L|176:240,1,45.0000017166138,0|0,3:3|3:3,3:3:0:0:
316,128,107625,1,0,3:3:0:0:
264,308,107812,5,0,3:3:0:0:
96,88,108000,2,0,L|144:72,1,45.0000017166138,0|0,3:3|3:3,3:3:0:0:
124,236,108375,5,0,3:3:0:0:
316,92,108562,2,4,P|328:128|252:176,1,135.000005149841,4|0,3:3|3:3,3:3:0:0:
108,292,109312,5,0,3:3:0:0:
188,96,109500,1,0,3:3:0:0:
288,296,109687,1,0,3:3:0:0:
76,160,109875,1,0,3:3:0:0:
128,292,110062,2,0,P|176:264|184:216,1,90.0000034332277,0|0,3:3|3:3,3:3:0:0:
376,100,110625,5,0,3:3:0:0:
264,292,110812,1,0,3:3:0:0:
116,140,111000,2,0,P|140:108|152:104,1,45.0000017166138,0|0,3:3|3:3,3:3:0:0:
312,164,111375,5,0,3:3:0:0:
160,264,111562,2,0,P|120:224|116:184,1,90.0000034332277,0|0,3:3|3:3,3:3:0:0:
228,92,112124,5,0,3:3:0:0:
276,112,112218,1,0,3:3:0:0:
316,132,112311,1,4,3:3:0:0:
232,272,112500,5,0,3:3:0:0:
116,116,112687,2,0,P|144:108|160:120,1,45.0000017166138,0|0,3:3|3:3,3:3:0:0:
72,272,113062,1,0,3:3:0:0:
212,184,113250,1,0,3:3:0:0:
88,148,113437,1,0,3:3:0:0:
340,288,113625,5,0,3:3:0:0:
296,80,113812,2,0,P|232:68|208:76,1,90.0000034332277,0|0,3:3|3:3,3:3:0:0:
164,256,114375,5,0,3:3:0:0:
320,268,114562,2,0,P|320:224|308:208,1,45.0000017166138,0|0,3:3|3:3,3:3:0:0:
208,88,114937,2,0,P|208:116|212:136,1,45.0000017166138,4|0,3:3|3:3,3:3:0:0:
216,296,115312,5,0,3:3:0:0:
380,76,115500,1,0,3:3:0:0:
88,128,115687,2,0,P|88:156|96:184,1,45.0000017166138,4|0,3:3|3:3,3:3:0:0:
376,288,116062,5,0,3:3:0:0:
208,40,116250,1,0,3:3:0:0:
168,280,116437,2,0,P|188:248|200:248,1,45.0000017166138,4|0,3:3|3:3,3:3:0:0:
344,88,116812,5,4,3:3:0:0:
80,120,117000,1,4,3:3:0:0:
296,288,117187,1,4,3:3:0:0:
208,68,117375,2,4,P|248:52|264:64,1,60,0|4,3:3|3:3,3:3:0:0:
128,296,117750,5,4,3:3:0:0:
336,100,117937,1,0,3:3:0:0:
348,304,118125,1,4,3:3:0:0:
176,236,118312,1,0,3:3:0:0:
114,106,118499,5,0,3:3:0:0:
144,104,118593,1,0,3:3:0:0:
172,113,118687,1,0,3:3:0:0:
195,132,118781,1,0,3:3:0:0:
208,159,118874,1,0,3:3:0:0:
210,189,118968,1,0,3:3:0:0:
168,228,119062,5,0,3:3:0:0:
171,188,119155,1,0,3:3:0:0:
188,152,119249,1,0,3:3:0:0:
216,123,119343,1,0,3:3:0:0:
252,106,119437,1,4,3:3:0:0:
291,101,119531,1,0,3:3:0:0:
330,109,119624,1,0,3:3:0:0:
376,84,119718,5,0,3:3:0:0:
333,117,119811,1,0,3:3:0:0:
281,136,119905,1,0,3:3:0:0:
226,138,119999,1,0,3:3:0:0:
174,123,120093,1,0,3:3:0:0:
129,91,120186,1,4,3:3:0:0:
96,48,120280,1,0,3:3:0:0:
48,40,120375,5,0,3:3:0:0:
56,112,120468,1,0,3:3:0:0:
86,178,120562,1,0,3:3:0:0:
133,233,120656,1,0,3:3:0:0:
194,272,120750,1,0,3:3:0:0:
264,292,120843,1,0,3:3:0:0:
337,290,120937,1,4,3:3:0:0:
406,268,121031,1,0,3:3:0:0:
436,224,121125,5,0,3:3:0:0:
406,228,121218,1,0,3:3:0:0:
376,224,121312,1,0,3:3:0:0:
349,211,121406,1,0,3:3:0:0:
325,194,121500,1,0,3:3:0:0:
300,176,121593,1,0,3:3:0:0:
274,163,121687,1,4,3:3:0:0:
244,160,121781,1,0,3:3:0:0:
215,166,121875,1,0,3:3:0:0:
180,192,121968,5,0,3:3:0:0:
170,203,122061,1,0,3:3:0:0:
164,217,122155,1,0,3:3:0:0:
160,231,122249,1,0,3:3:0:0:
159,246,122343,1,0,3:3:0:0:
162,261,122437,1,4,3:3:0:0:
168,275,122530,1,0,3:3:0:0:
208,312,122625,5,0,3:3:0:0:
221,274,122718,1,0,3:3:0:0:
226,234,122812,1,0,3:3:0:0:
222,195,122906,1,0,3:3:0:0:
209,157,123000,1,0,3:3:0:0:
188,123,123093,1,0,3:3:0:0:
159,95,123187,1,4,3:3:0:0:
124,80,123281,5,0,3:3:0:0:
168,94,123374,1,0,3:3:0:0:
215,88,123468,1,0,3:3:0:0:
262,77,123562,1,0,3:3:0:0:
309,69,123656,1,0,3:3:0:0:
355,78,123749,1,0,3:3:0:0:
396,112,123843,5,0,3:3:0:0:
416,148,123937,1,4,3:3:0:0:
415,194,124030,1,0,3:3:0:0:
388,229,124124,1,0,3:3:0:0:
346,243,124218,1,0,3:3:0:0:
300,256,124312,5,0,3:3:0:0:
277,310,124405,1,0,3:3:0:0:
224,335,124499,1,0,3:3:0:0:
180,204,124687,5,4,3:3:0:0:
296,99,124875,5,0,3:3:0:0:
345,38,124968,1,4,3:3:0:0:
423,37,125062,1,0,3:3:0:0:
472,98,125156,1,0,3:3:0:0:
455,174,125250,1,0,3:3:0:0:
392,208,125343,5,0,3:3:0:0:
314,229,125436,1,4,3:3:0:0:
238,199,125530,1,0,3:3:0:0:
160,174,125624,1,0,3:3:0:0:
90,213,125718,1,0,3:3:0:0:
84,288,125812,5,0,3:3:0:0:
133,349,125905,1,0,3:3:0:0:
210,350,125999,1,0,3:3:0:0:
260,289,126093,1,0,3:3:0:0:
243,213,126187,1,4,3:3:0:0:
240,136,126281,5,0,3:3:0:0:
274,65,126374,1,0,3:3:0:0:
350,48,126468,1,0,3:3:0:0:
411,98,126562,1,0,3:3:0:0:
411,175,126656,1,0,3:3:0:0:
372,236,126750,5,0,3:3:0:0:
334,255,126843,1,0,3:3:0:0:
293,262,126937,1,4,3:3:0:0:
252,257,127031,1,0,3:3:0:0:
213,240,127125,1,0,3:3:0:0:
182,213,127218,1,0,3:3:0:0:
168,184,127312,2,0,B|168:144|168:144|144:136|144:136|168:72,1,120,0|0,3:3|3:3,3:3:0:0:
320,88,127875,5,0,3:3:0:0:
344,120,127968,1,0,3:3:0:0:
352,164,128062,1,0,3:3:0:0:
236,140,128250,1,0,3:3:0:0:
168,272,128437,2,0,P|116:256|108:192,1,120,0|0,3:3|3:3,3:3:0:0:
280,68,129000,5,0,3:3:0:0:
306,81,129093,1,0,3:3:0:0:
324,105,129187,1,4,3:3:0:0:
329,134,129281,1,4,3:3:0:0:
324,164,129375,2,0,P|308:204|260:224,1,90,4|0,3:3|3:3,3:3:0:0:
196,132,129750,5,0,3:3:0:0:
172,172,129843,1,0,3:3:0:0:
176,216,129937,1,0,3:3:0:0:
372,68,130125,5,0,3:3:0:0:
192,312,130312,1,0,3:3:0:0:
178,262,130405,1,0,3:3:0:0:
194,213,130499,1,0,3:3:0:0:
211,163,130593,1,0,3:3:0:0:
204,116,130687,2,0,B|160:104|160:104|144:64|144:64|104:96|120:148|156:124,1,180,0|0,3:3|3:3,3:3:0:0:
308,120,131250,5,0,3:3:0:0:
160,288,131437,1,4,3:3:0:0:
348,256,131625,2,0,P|316:208|272:196,1,90.0000034332277,0|0,3:3|3:3,3:3:0:0:
132,120,132000,1,0,3:3:0:0:
196,304,132187,2,0,P|216:248|240:236,1,90.0000034332277,4|0,3:3|3:3,3:3:0:0:
280,64,132562,5,0,3:3:0:0:
116,164,132750,1,0,3:3:0:0:
292,292,132937,1,0,3:3:0:0:
368,132,133125,1,0,3:3:0:0:
326,118,133218,1,0,3:3:0:0:
282,126,133312,1,0,3:3:0:0:
238,132,133406,1,0,3:3:0:0:
192,116,133500,6,0,P|144:84|100:80,1,90.0000034332277,0|0,3:3|3:3,3:3:0:0:
184,300,133875,1,0,3:3:0:0:
288,84,134062,1,0,3:3:0:0:
96,184,134250,1,0,3:3:0:0:
292,236,134437,2,0,P|284:176|256:156,1,90.0000034332277,0|0,3:3|3:3,3:3:0:0:
208,68,134812,5,0,3:3:0:0:
153,79,134905,1,0,3:3:0:0:
115,119,134999,1,0,3:3:0:0:
108,174,135093,1,0,3:3:0:0:
132,220,135187,2,0,P|176:248|200:296,1,90.0000034332277,4|0,3:3|3:3,3:3:0:0:
308,116,135562,5,0,3:3:0:0:
128,68,135750,1,0,3:3:0:0:
180,232,135937,2,0,P|216:196|256:196,1,90.0000034332277,0|0,3:3|3:3,3:3:0:0:
256,276,136312,1,0,3:3:0:0:
248,360,136500,2,0,P|296:352|328:284,1,90.0000034332277,0|0,3:3|3:3,3:3:0:0:
132,96,136875,5,0,3:3:0:0:
192,276,137062,2,0,P|232:220|268:196,2,90.0000034332277,0|0|0,3:3|3:3|3:3,3:3:0:0:
352,136,137625,1,0,3:3:0:0:
116,200,137812,1,0,3:3:0:0:
304,280,138000,2,0,P|280:208|256:172,1,90.0000034332277,0|0,3:3|3:3,3:3:0:0:
304,64,138375,5,0,3:3:0:0:
338,79,138468,1,0,3:3:0:0:
364,105,138562,1,0,3:3:0:0:
378,140,138656,1,0,3:3:0:0:
378,177,138750,1,0,3:3:0:0:
364,212,138843,1,0,3:3:0:0:
339,239,138937,1,0,3:3:0:0:
160,100,139125,5,0,3:3:0:0:
248,296,139312,1,0,3:3:0:0:
324,116,139500,2,0,P|264:80|252:88,1,90.0000034332277,0|0,3:3|3:3,3:3:0:0:
116,256,139875,1,0,3:3:0:0:
152,68,140062,5,0,3:3:0:0:
344,332,140250,1,0,3:3:0:0:
396,104,140437,2,0,P|336:72|308:76,1,90.0000034332277,0|0,3:3|3:3,3:3:0:0:
84,300,140812,1,0,3:3:0:0:
384,240,141000,1,0,3:3:0:0:
124,72,141187,6,0,L|168:100,1,45.0000017166138,0|0,3:3|3:3,3:3:0:0:
168,240,141375,2,0,P|236:228|264:176,1,90.0000034332277,0|0,3:3|3:3,3:3:0:0:
400,312,141750,2,0,L|368:268,1,45.0000017166138,0|0,3:3|3:3,3:3:0:0:
328,68,141937,1,0,3:3:0:0:
112,272,142125,1,0,3:3:0:0:
172,72,142312,5,0,3:3:0:0:
154,113,142405,1,0,3:3:0:0:
153,157,142499,1,0,3:3:0:0:
168,199,142593,1,0,3:3:0:0:
188,232,142687,2,0,P|204:184|276:184,1,90.0000034332277,0|0,3:3|3:3,3:3:0:0:
280,324,143062,5,0,3:3:0:0:
320,320,143156,1,0,3:3:0:0:
352,290,143249,1,0,3:3:0:0:
358,247,143343,1,0,3:3:0:0:
334,210,143437,1,4,3:3:0:0:
104,280,143625,1,0,3:3:0:0:
232,56,143812,5,0,3:3:0:0:
204,300,144000,1,0,3:3:0:0:
384,136,144187,1,4,3:3:0:0:
112,144,144375,2,4,L|124:248,1,90.0000034332277,4|4,3:3|3:3,3:3:0:0:
264,64,144750,1,0,3:3:0:0:
172,320,144937,5,0,3:3:0:0:
320,284,145125,1,0,3:3:0:0:
261,254,145218,1,0,3:3:0:0:
231,194,145312,1,0,3:3:0:0:
193,139,145406,1,0,3:3:0:0:
132,113,145500,1,0,3:3:0:0:
120,280,145687,5,0,3:3:0:0:
408,180,145875,2,0,P|376:108|352:108,1,90.0000034332277,0|0,3:3|3:3,3:3:0:0:
200,252,146250,1,0,3:3:0:0:
360,288,146437,1,0,3:3:0:0:
116,152,146625,5,0,3:3:0:0:
141,135,146718,1,0,3:3:0:0:
169,127,146812,1,0,3:3:0:0:
199,128,146906,1,0,3:3:0:0:
228,138,147000,1,0,3:3:0:0:
252,155,147093,1,0,3:3:0:0:
270,179,147187,1,0,3:3:0:0:
144,296,147375,5,0,3:3:0:0:
340,276,147562,2,0,P|340:200|264:136,1,180.000006866455,0|0,3:3|3:3,3:3:0:0:
232,248,148125,1,0,3:3:0:0:
144,76,148312,1,0,3:3:0:0:
324,72,148500,2,0,P|364:104|356:144,1,90.0000034332277,0|0,3:3|3:3,3:3:0:0:
108,248,148875,5,0,3:3:0:0:
160,108,149062,2,0,P|220:168|184:244,1,180.000006866455,0|0,3:3|3:3,3:3:0:0:
344,116,149625,1,0,3:3:0:0:
128,188,149812,1,0,3:3:0:0:
272,284,150000,1,0,3:3:0:0:
220,96,150187,1,0,3:3:0:0:
396,176,150375,5,0,3:3:0:0:
360,220,150468,1,0,3:3:0:0:
308,240,150562,1,0,3:3:0:0:
232,56,150750,5,0,3:3:0:0:
188,92,150843,1,0,3:3:0:0:
168,144,150937,1,0,3:3:0:0:
168,200,151031,1,0,3:3:0:0:
196,248,151125,2,0,P|240:288|280:260,1,90.0000034332277,0|0,3:3|3:3,3:3:0:0:
280,116,151500,5,0,3:3:0:0:
88,296,151687,1,0,3:3:0:0:
328,292,151875,1,0,3:3:0:0:
96,168,152062,2,0,P|140:124|172:120,1,90.0000034332277,0|0,3:3|3:3,3:3:0:0:
196,308,152437,1,0,3:3:0:0:
364,112,152625,6,0,P|312:88|272:96,1,90.0000034332277,0|0,3:3|3:3,3:3:0:0:
160,100,153000,1,0,3:3:0:0:
154,143,153093,1,0,3:3:0:0:
177,181,153187,1,4,3:3:0:0:
198,220,153281,1,0,3:3:0:0:
192,268,153374,2,0,P|192:308|272:304,1,120,0|0,3:3|3:3,3:3:0:0:
256,72,153937,5,0,3:3:0:0:
333,54,154030,1,0,3:3:0:0:
394,104,154124,1,0,3:3:0:0:
394,181,154218,1,0,3:3:0:0:
333,229,154312,1,0,3:3:0:0:
260,216,154405,5,0,3:3:0:0:
188,179,154498,1,0,3:3:0:0:
117,214,154592,1,0,3:3:0:0:
100,289,154686,1,0,3:3:0:0:
148,350,154780,1,0,3:3:0:0:
224,348,154874,2,0,P|300:324|332:224,1,180,0|0,3:3|3:3,3:3:0:0:
136,124,155624,5,0,3:3:0:0:
336,120,155812,2,0,P|268:96|308:152,1,180,0|0,3:3|3:3,3:3:0:0:
108,244,156749,5,0,3:3:0:0:
344,300,156937,2,0,P|332:248|324:236,1,60,0|0,3:3|3:3,3:3:0:0:
264,76,157312,1,0,3:3:0:0:
416,152,157499,1,0,3:3:0:0:
220,252,157687,2,0,P|196:192|160:264,1,180,0|0,3:3|3:3,3:3:0:0:
284,56,158437,5,0,3:3:0:0:
392,260,158624,2,0,P|360:200|360:272,1,180,0|0,3:3|3:3,3:3:0:0:
148,104,159374,5,0,3:3:0:0:
256,308,159562,1,0,3:3:0:0:
316,104,159749,1,0,3:3:0:0:
148,236,159937,2,0,P|156:188|180:176,1,60,0|0,3:3|3:3,3:3:0:0:
352,240,160312,1,4,3:3:0:0:
124,132,160687,6,0,L|184:128,1,60,0|0,3:3|3:3,3:3:0:0:
280,296,161062,1,4,3:3:0:0:
360,108,161249,1,4,3:3:0:0:
136,240,161437,1,4,3:3:0:0:
196,88,161624,2,4,P|240:104|244:136,1,60,4|4,3:3|3:3,3:3:0:0:
344,312,161999,5,4,3:3:0:0:
156,184,162187,1,4,3:3:0:0:
220,308,162374,1,4,3:3:0:0:
276,160,162562,2,4,L|224:128,1,60,4|4,3:3|3:3,3:3:0:0:
340,200,162937,2,0,L|396:236,1,60,0|0,3:3|3:3,3:3:0:0:
172,316,163312,5,0,3:3:0:0:
196,72,163499,1,0,3:3:0:0:
304,304,163687,2,0,P|240:296|232:288,1,60,4|0,3:3|3:3,3:3:0:0:
324,116,164062,1,4,3:3:0:0:
136,240,164249,2,0,P|160:192|188:192,1,60,0|0,3:3|3:3,3:3:0:0:
324,300,164624,5,4,3:3:0:0:
216,104,164812,1,4,3:3:0:0:
412,204,164999,1,4,3:3:0:0:
196,232,165187,1,4,3:3:0:0:
348,84,165374,1,4,3:3:0:0:
124,160,165562,6,0,P|176:128|224:160,1,120,0|0,3:3|3:3,3:3:0:0:
108,256,166124,1,0,3:3:0:0:
232,256,166312,1,4,3:3:0:0:
168,148,166499,1,0,3:3:0:0:
168,328,166687,1,0,3:3:0:0:
336,96,166874,6,0,P|276:136|292:176,1,120,0|0,3:3|3:3,3:3:0:0:
148,120,167437,1,0,3:3:0:0:
220,276,167624,1,4,3:3:0:0:
232,92,167812,1,0,3:3:0:0:
296,240,167999,1,0,3:3:0:0:
112,224,168187,6,0,L|124:156,1,60,0|0,3:3|3:3,3:3:0:0:
344,104,168562,1,0,3:3:0:0:
252,284,168749,1,0,3:3:0:0:
220,92,168937,2,0,P|180:128|172:152,1,60,4|0,3:3|3:3,3:3:0:0:
344,208,169312,5,8,3:3:0:0:
212,308,169499,1,0,3:3:0:0:
264,136,169687,1,0,3:3:0:0:
300,312,169874,1,4,3:3:0:0:
116,192,170062,5,4,3:3:0:0:
228,80,170249,1,4,3:3:0:0:
288,224,170437,1,4,3:3:0:0:
236,176,170624,2,0,P|208:216|216:248,1,60,4|0,3:3|3:3,3:3:0:0:
116,76,170999,5,0,3:3:0:0:
200,300,171187,1,0,3:3:0:0:
332,76,171374,1,0,3:3:0:0:
120,236,171562,2,0,P|124:184|140:160,1,60,0|0,3:3|3:3,3:3:0:0:
232,40,171937,5,0,3:3:0:0:
232,55,172030,1,0,3:3:0:0:
232,70,172124,1,0,3:3:0:0:
232,116,172218,5,0,3:3:0:0:
207,152,172311,1,0,3:3:0:0:
220,194,172405,1,0,3:3:0:0:
232,237,172499,1,0,3:3:0:0:
203,269,172593,1,0,3:3:0:0:
132,264,172687,5,0,3:3:0:0:
82,212,172780,1,0,3:3:0:0:
90,144,172874,1,0,3:3:0:0:
148,108,172968,1,0,3:3:0:0:
213,130,173062,5,0,3:3:0:0:
276,164,173155,1,0,3:3:0:0:
339,139,173249,1,0,3:3:0:0:
359,74,173343,1,0,3:3:0:0:
320,16,173437,2,0,P|264:72|304:160,1,180,0|0,3:3|3:3,3:3:0:0:
160,100,174562,6,0,B|276:96|128:196|128:196|256:172|256:172|292:220,1,360,0|0,3:3|3:3,3:3:0:0:
392,140,175874,2,0,P|360:96|344:96,1,60,0|0,3:3|3:3,3:3:0:0:
192,232,176249,1,0,3:3:0:0:
176,108,176437,6,0,P|232:80|196:140,1,180,0|0,3:3|3:3,3:3:0:0:
192,92,177562,5,0,3:3:0:0:
376,268,177749,1,0,3:3:0:0:
104,284,177937,1,0,3:3:0:0:
134,245,178030,1,0,3:3:0:0:
141,196,178124,1,0,3:3:0:0:
122,150,178218,1,0,3:3:0:0:
80,112,178312,5,0,3:3:0:0:
118,135,178405,1,0,3:3:0:0:
161,148,178499,1,0,3:3:0:0:
205,151,178593,1,0,3:3:0:0:
252,144,178687,2,0,P|312:148|244:180,1,180,0|0,3:3|3:3,3:3:0:0:
136,288,179437,5,0,3:3:0:0:
208,96,179624,1,0,3:3:0:0:
284,272,179812,1,0,3:3:0:0:
120,188,179999,2,0,L|120:120,1,60,0|0,3:3|3:3,3:3:0:0:
336,144,180374,5,0,3:3:0:0:
192,312,180562,1,0,3:3:0:0:
156,96,180749,2,0,P|212:140|140:148,1,180,4|0,3:3|3:3,3:3:0:0:
340,212,181499,1,0,3:3:0:0:
172,280,181687,1,0,3:3:0:0:
272,96,181874,5,0,3:3:0:0:
292,272,182062,1,0,3:3:0:0:
156,160,182249,1,0,3:3:0:0:
368,128,182437,2,0,L|368:204,1,60,0|0,3:3|3:3,3:3:0:0:
212,296,182812,5,0,3:3:0:0:
316,64,182999,1,0,3:3:0:0:
136,72,183187,1,0,3:3:0:0:
304,208,183374,1,0,3:3:0:0:
236,128,183562,2,0,P|128:120|208:160,1,300,4|0,3:3|3:3,3:3:0:0:
336,272,184687,6,0,L|288:228,1,60,0|0,3:3|3:3,3:3:0:0:
156,80,185062,2,0,L|204:128,1,60,0|0,3:3|3:3,3:3:0:0:
168,292,185437,1,4,3:3:0:0:
300,152,185624,1,4,3:3:0:0:
144,128,185812,5,0,3:3:0:0:
280,304,185999,1,0,3:3:0:0:
292,100,186187,1,4,3:3:0:0:
152,260,186374,2,0,L|160:192,1,60,0|0,3:3|3:3,3:3:0:0:
320,268,186749,1,0,3:3:0:0:
128,88,186937,5,0,3:3:0:0:
368,76,187124,1,0,3:3:0:0:
220,252,187312,1,0,3:3:0:0:
200,56,187499,1,0,3:3:0:0:
336,200,187687,2,0,P|284:152|304:224,1,180,4|0,3:3|3:3,3:3:0:0:
84,100,188437,5,0,3:3:0:0:
196,280,188624,1,0,3:3:0:0:
244,84,188812,1,0,3:3:0:0:
80,228,188999,2,0,B|120:232|120:232|136:192|136:192|160:252|160:252|184:200|184:200|232:256|280:272|344:228|308:128,1,420,0|0,3:3|3:3,3:3:0:0:
372,80,190499,5,0,3:3:0:0:
280,240,190687,2,0,P|228:248|264:268,1,120,0|0,3:3|3:3,3:3:0:0:
128,92,191249,1,0,3:3:0:0:
368,176,191437,1,0,3:3:0:0:
144,272,191624,1,0,3:3:0:0:
252,84,191812,6,0,L|312:116,1,60,0|0,3:3|3:3,3:3:0:0:
104,176,192187,1,0,3:3:0:0:
260,244,192374,1,0,3:3:0:0:
176,76,192562,1,0,3:3:0:0:
152,276,192749,6,0,P|180:264|216:288,1,60,0|0,3:3|3:3,3:3:0:0:
364,80,193124,1,0,3:3:0:0:
152,176,193312,1,0,3:3:0:0:
332,260,193499,1,0,3:3:0:0:
244,84,193687,1,0,3:3:0:0:
168,272,193874,5,0,3:3:0:0:
376,172,194062,1,0,3:3:0:0:
116,172,194249,2,0,P|128:124|148:120,1,60,0|0,3:3|3:3,3:3:0:0:
312,256,194624,1,0,3:3:0:0:
332,56,194812,2,0,B|304:87|304:87|280:56|280:56|280:92|280:92|180:44|136:140|168:216|232:220,1,360,0|0,3:3|3:3,3:3:0:0:
88,208,196124,5,4,3:3:0:0:
216,296,196312,1,0,3:3:0:0:
228,140,196499,1,0,3:3:0:0:
104,256,196687,1,0,3:3:0:0:
152,104,196874,2,0,P|200:88|240:104,1,90.0000034332277,0|0,3:3|3:3,3:3:0:0:
328,280,197249,5,0,3:3:0:0:
300,88,197437,1,0,3:3:0:0:
208,224,197624,1,0,3:3:0:0:
360,188,197812,1,0,3:3:0:0:
224,80,197999,2,0,P|176:136|184:184,1,90.0000034332277,0|0,3:3|3:3,3:3:0:0:
332,308,198374,5,0,3:3:0:0:
352,104,198562,2,0,P|296:104|288:128,1,90.0000034332277,0|0,3:3|3:3,3:3:0:0:
168,208,198937,1,0,3:3:0:0:
352,220,199124,1,0,3:3:0:0:
256,80,199312,2,0,L|260:180,1,90.0000034332277,0|0,3:3|3:3,3:3:0:0:
132,268,199687,5,0,3:3:0:0:
188,72,199874,1,0,3:3:0:0:
292,248,200062,2,0,P|240:192|224:204,1,90.0000034332277,0|0,3:3|3:3,3:3:0:0:
352,80,200437,1,0,3:3:0:0:
136,228,200624,1,0,3:3:0:0:
224,56,200812,5,0,3:3:0:0:
292,272,200999,2,0,B|272:248|272:248|288:200|288:200|232:208|232:208|256:152|256:152|176:152|176:152|216:96|216:96|140:96|140:96|172:40,1,480,0|0,3:3|3:3,3:3:0:0:
112,104,202687,1,0,3:3:0:0:
312,88,202874,1,0,3:3:0:0:
176,268,203062,2,0,P|200:216|232:212,1,90.0000034332277,0|0,3:3|3:3,3:3:0:0:
204,68,203437,6,0,P|260:100|272:132,1,90.0000034332277,0|0,3:3|3:3,3:3:0:0:
92,176,203812,1,0,3:3:0:0:
216,280,203999,1,0,3:3:0:0:
200,92,204187,1,0,3:3:0:0:
120,252,204374,2,0,P|168:204|168:176,1,90.0000034332277,0|0,3:3|3:3,3:3:0:0:
328,276,204749,5,0,3:3:0:0:
420,56,204937,1,0,3:3:0:0:
260,188,205124,2,0,P|240:124|216:200,1,180.000006866455,0|0,3:3|3:3,3:3:0:0:
96,60,205687,1,0,3:3:0:0:
112,280,205874,1,0,3:3:0:0:
300,112,206062,5,0,3:3:0:0:
140,180,206249,1,0,3:3:0:0:
312,256,206437,2,0,P|284:208|280:264,1,120,0|0,3:3|3:3,3:3:0:0:
216,76,206999,2,0,P|168:88|172:168,1,120,0|0,3:3|3:3,3:3:0:0:
144,288,207562,5,0,3:3:0:0:
272,120,207749,1,0,3:3:0:0:
184,100,207937,2,0,P|152:100|144:140,1,60,0|0,3:3|3:3,3:3:0:0:
312,268,208312,1,0,3:3:0:0:
352,104,208499,2,0,B|304:76|280:104,1,60,0|0,3:3|3:3,3:3:0:0:
96,256,208874,5,0,3:3:0:0:
288,80,209062,1,4,3:3:0:0:
276,280,209249,1,0,3:3:0:0:
136,120,209437,1,0,3:3:0:0:
360,152,209624,1,0,3:3:0:0:
168,256,209812,2,0,L|124:212,1,60,4|0,3:3|3:3,3:3:0:0:
264,76,210187,5,4,3:3:0:0:
328,276,210374,1,0,3:3:0:0:
100,172,210562,2,0,P|124:136|140:136,1,60,0|0,3:3|3:3,3:3:0:0:
172,304,210937,1,0,3:3:0:0:
280,104,211124,2,0,P|236:84|212:88,1,60,0|0,3:3|3:3,3:3:0:0:
304,272,211499,5,0,3:3:0:0:
136,104,211687,1,0,3:3:0:0:
308,84,211874,1,0,3:3:0:0:
335,95,211967,1,0,3:3:0:0:
359,113,212061,1,0,3:3:0:0:
376,137,212155,1,0,3:3:0:0:
387,165,212249,1,0,3:3:0:0:
390,195,212342,1,0,3:3:0:0:
384,224,212436,1,0,3:3:0:0:
120,192,212624,5,4,3:3:0:0:
268,88,212812,2,0,P|300:148|296:168,1,90.0000034332277,0|0,3:3|3:3,3:3:0:0:
132,76,213187,1,4,3:3:0:0:
260,264,213374,1,0,3:3:0:0:
364,144,213562,2,0,P|312:120|276:120,1,90.0000034332277,4|0,3:3|3:3,3:3:0:0:
120,112,213937,5,4,3:3:0:0:
232,296,214124,1,0,3:3:0:0:
120,224,214312,2,0,P|104:276|128:292,1,90.0000034332277,4|0,3:3|3:3,3:3:0:0:
296,104,214687,1,0,3:3:0:0:
296,264,214874,1,4,3:3:0:0:
116,96,215062,5,0,3:3:0:0:
152,280,215249,1,4,3:3:0:0:
264,72,215437,1,0,3:3:0:0:
293,105,215530,1,0,3:3:0:0:
332,127,215624,1,0,3:3:0:0:
377,132,215718,1,0,3:3:0:0:
420,121,215812,1,0,3:3:0:0:
420,68,215905,5,0,3:3:0:0:
429,129,215998,1,0,3:3:0:0:
409,188,216093,1,0,3:3:0:0:
365,232,216186,1,0,3:3:0:0:
306,251,216280,1,0,3:3:0:0:
244,241,216373,1,0,3:3:0:0:
200,184,216468,5,0,3:3:0:0:
118,143,216562,1,0,3:3:0:0:
36,183,216655,1,0,3:3:0:0:
16,271,216749,1,0,3:3:0:0:
72,342,216843,1,0,3:3:0:0:
160,340,216937,5,4,3:3:0:0:
227,286,217030,1,0,3:3:0:0:
254,201,217124,1,0,3:3:0:0:
304,125,217218,1,0,3:3:0:0:
394,119,217311,1,0,3:3:0:0:
455,184,217405,1,0,3:3:0:0:
442,273,217499,1,0,3:3:0:0:
364,319,217592,1,0,3:3:0:0:
280,300,217687,2,0,B|208:248|212:140|212:140|156:252|156:252,1,270.000010299683,0|0,3:3|3:3,3:3:0:0:
104,60,218437,5,0,3:3:0:0:
103,86,218530,1,0,3:3:0:0:
102,113,218624,1,0,3:3:0:0:
101,140,218718,1,0,3:3:0:0:
101,167,218812,1,0,3:3:0:0:
100,194,218905,1,0,3:3:0:0:
100,236,218999,5,0,3:3:0:0:
112,278,219092,1,0,3:3:0:0:
150,300,219186,1,0,3:3:0:0:
193,290,219280,1,0,3:3:0:0:
218,254,219374,1,0,3:3:0:0:
211,210,219467,1,0,3:3:0:0:
184,176,219562,5,0,3:3:0:0:
162,125,219655,1,0,3:3:0:0:
184,75,219749,1,0,3:3:0:0:
236,57,219843,1,0,3:3:0:0:
284,83,219937,1,0,3:3:0:0:
320,120,220030,5,0,3:3:0:0:
345,144,220123,1,0,3:3:0:0:
344,179,220217,1,0,3:3:0:0:
330,212,220311,1,0,3:3:0:0:
329,247,220405,1,0,3:3:0:0:
352,274,220498,1,0,3:3:0:0:
408,244,220593,5,0,3:3:0:0:
363,237,220686,1,0,3:3:0:0:
319,245,220780,1,0,3:3:0:0:
281,269,220874,1,0,3:3:0:0:
253,304,220968,1,0,3:3:0:0:
236,352,221062,5,0,3:3:0:0:
199,312,221155,1,0,3:3:0:0:
187,260,221249,1,0,3:3:0:0:
201,209,221343,1,0,3:3:0:0:
239,171,221437,1,0,3:3:0:0:
290,156,221530,1,0,3:3:0:0:
363,160,221624,5,0,3:3:0:0:
432,187,221718,1,0,3:3:0:0:
453,262,221812,1,0,3:3:0:0:
408,325,221905,1,0,3:3:0:0:
331,327,221999,1,0,3:3:0:0:
281,269,222093,1,0,3:3:0:0:
276,192,222187,1,0,3:3:0:0:
272,116,222280,5,0,3:3:0:0:
245,47,222374,1,0,3:3:0:0:
170,26,222468,1,0,3:3:0:0:
107,71,222561,1,0,3:3:0:0:
105,148,222655,1,0,3:3:0:0:
163,198,222749,5,0,3:3:0:0:
221,242,222843,1,0,3:3:0:0:
221,320,222937,1,0,3:3:0:0:
160,369,223030,1,0,3:3:0:0:
86,349,223124,1,0,3:3:0:0:
96,176,223312,5,0,3:3:0:0:
296,80,223499,2,0,P|328:140|312:164,1,90.0000034332277,0|0,3:3|3:3,3:3:0:0:
196,264,223874,1,0,3:3:0:0:
208,72,224062,1,0,3:3:0:0:
328,252,224249,1,0,3:3:0:0:
128,72,224437,5,0,3:3:0:0:
128,94,224530,1,0,3:3:0:0:
128,117,224624,1,0,3:3:0:0:
128,152,224718,5,0,3:3:0:0:
113,195,224811,1,4,3:3:0:0:
136,236,224905,1,0,3:3:0:0:
159,277,224999,1,0,3:3:0:0:
152,323,225093,1,0,3:3:0:0:
104,348,225187,5,0,3:3:0:0:
117,303,225280,1,0,3:3:0:0:
152,271,225374,1,0,3:3:0:0:
197,262,225468,1,0,3:3:0:0:
242,276,225562,1,4,3:3:0:0:
220,320,225655,5,0,3:3:0:0:
220,284,225748,1,0,3:3:0:0:
220,249,225842,1,0,3:3:0:0:
220,214,225936,1,0,3:3:0:0:
220,179,226030,1,0,3:3:0:0:
220,144,226123,1,0,3:3:0:0:
220,109,226218,5,0,3:3:0:0:
230,56,226311,1,4,3:3:0:0:
278,31,226405,1,0,3:3:0:0:
327,53,226499,1,0,3:3:0:0:
341,106,226593,1,0,3:3:0:0:
308,149,226686,1,0,3:3:0:0:
264,176,226780,5,0,3:3:0:0:
222,186,226873,1,0,3:3:0:0:
192,217,226967,1,0,3:3:0:0:
182,258,227061,1,4,3:3:0:0:
194,299,227155,1,0,3:3:0:0:
225,328,227248,1,0,3:3:0:0:
268,348,227343,5,0,3:3:0:0:
278,311,227436,1,0,3:3:0:0:
270,273,227530,1,0,3:3:0:0:
247,243,227624,1,0,3:3:0:0:
213,226,227718,1,0,3:3:0:0:
174,226,227811,1,4,3:3:0:0:
140,243,227905,1,0,3:3:0:0:
117,274,227999,1,0,3:3:0:0:
104,320,228093,5,0,3:3:0:0:
136,353,228186,1,0,3:3:0:0:
183,354,228280,1,0,3:3:0:0:
228,335,228374,1,0,3:3:0:0:
270,311,228468,1,0,3:3:0:0:
317,303,228561,1,4,3:3:0:0:
376,280,228655,5,0,3:3:0:0:
437,251,228749,1,0,3:3:0:0:
452,185,228843,1,0,3:3:0:0:
411,132,228937,1,0,3:3:0:0:
343,131,229030,1,0,3:3:0:0:
301,184,229124,1,0,3:3:0:0:
268,244,229218,5,0,3:3:0:0:
239,305,229312,1,4,3:3:0:0:
173,320,229406,1,0,3:3:0:0:
120,279,229500,1,0,3:3:0:0:
119,211,229593,1,0,3:3:0:0:
172,169,229687,1,0,3:3:0:0:
236,148,229780,5,0,3:3:0:0:
251,148,229873,1,0,3:3:0:0:
266,148,229967,1,0,3:3:0:0:
282,148,230061,1,0,3:3:0:0:
297,148,230155,1,0,3:3:0:0:
313,148,230248,1,0,3:3:0:0:
328,148,230342,1,0,3:3:0:0:
344,148,230437,5,4,3:3:0:0:
394,165,230530,1,0,3:3:0:0:
411,216,230624,1,0,3:3:0:0:
381,262,230718,1,0,3:3:0:0:
328,267,230812,1,4,3:3:0:0:
290,228,230905,1,0,3:3:0:0:
260,180,230999,1,0,3:3:0:0:
232,136,231093,5,0,3:3:0:0:
194,90,231186,1,4,3:3:0:0:
134,90,231280,1,0,3:3:0:0:
97,137,231374,1,0,3:3:0:0:
111,195,231468,1,0,3:3:0:0:
165,221,231561,1,4,3:3:0:0:
220,236,231655,1,0,3:3:0:0:
276,252,231748,1,0,3:3:0:0:
332,256,231843,5,0,3:3:0:0:
398,257,231936,1,4,3:3:0:0:
448,217,232030,1,0,3:3:0:0:
448,152,232124,1,0,3:3:0:0:
398,111,232218,1,0,3:3:0:0:
334,126,232311,1,4,3:3:0:0:
280,172,232405,1,0,3:3:0:0:
232,220,232498,1,0,3:3:0:0:
184,264,232593,5,0,3:3:0:0:
115,279,232686,1,4,3:3:0:0:
60,235,232780,1,0,3:3:0:0:
60,165,232874,1,0,3:3:0:0:
115,121,232968,1,0,3:3:0:0:
187,134,233062,1,4,3:3:0:0:
241,172,233155,1,0,3:3:0:0:
243,241,233249,1,0,3:3:0:0:
189,283,233343,5,0,3:3:0:0:
115,299,233437,1,4,3:3:0:0:
56,252,233530,1,0,3:3:0:0:
56,177,233624,1,0,3:3:0:0:
115,129,233718,1,0,3:3:0:0:
189,146,233811,1,4,3:3:0:0:
246,187,233905,1,0,3:3:0:0:
316,214,233998,1,0,3:3:0:0:
390,204,234093,5,0,3:3:0:0:
462,167,234186,1,4,3:3:0:0:
478,87,234280,1,0,3:3:0:0:
426,25,234374,1,0,3:3:0:0:
345,27,234468,1,0,3:3:0:0:
296,92,234561,1,4,3:3:0:0:
268,164,234655,1,0,3:3:0:0:
236,237,234748,1,0,3:3:0:0:
167,276,234843,5,0,3:3:0:0:
82,295,234937,1,4,3:3:0:0:
15,241,235030,1,0,3:3:0:0:
15,154,235124,1,0,3:3:0:0:
82,101,235218,1,0,3:3:0:0:
167,120,235312,1,4,3:3:0:0:
216,188,235405,1,0,3:3:0:0:
272,252,235498,1,4,3:3:0:0:
352,280,235593,5,0,3:3:0:0:
426,224,235686,1,4,3:3:0:0:
430,132,235780,1,0,3:3:0:0:
360,72,235874,1,4,3:3:0:0:
269,88,235968,1,0,3:3:0:0:
226,170,236061,5,4,3:3:0:0:
188,248,236155,1,0,3:3:0:0:
188,248,236249,1,4,3:3:0:0:
188,248,236343,1,0,3:3:0:0:
188,248,236437,2,0,B|176:220|176:220|196:204|196:204|152:184|152:184|208:148|224:132|232:108|232:88|216:56|208:48|196:32|160:16|108:20|80:76,1,360,0|0,3:3|3:3,3:3:0:0:
