osu file format v14

[General]
AudioFilename: audio.mp3
AudioLeadIn: 0
PreviewTime: -1
Countdown: 1
SampleSet: None
StackLeniency: 0.7
Mode: 0
LetterboxInBreaks: 0
WidescreenStoryboard: 0

[Editor]
DistanceSpacing: 1
BeatDivisor: 4
GridSize: 4
TimelineZoom: 3

[Metadata]
Title:Mortal Reminder
TitleUnicode:Mortal Reminder
Artist:Pentakill
ArtistUnicode:Pentakill
Creator:DJKratos
Version:The Guardian
Source:
Tags:Pentakill lol league of legends mortal reminder
BeatmapID:1724820
BeatmapSetID:740098

[Difficulty]
HPDrainRate:4
CircleSize:4
OverallDifficulty:9
ApproachRate:9.3
SliderMultiplier:2.2
SliderTickRate:1

[Events]
//Background and Video events
0,0,"maxresdefault.jpg",0,0
//Break Periods
//Storyboard Layer 0 (Background)
//Storyboard Layer 1 (Fail)
//Storyboard Layer 2 (Pass)
//Storyboard Layer 3 (Foreground)
//Storyboard Sound Samples

[TimingPoints]
186,375,4,3,1,100,1,0
12187,-133.333333333333,4,3,1,100,0,0
12467,-133.333333333333,4,3,1,100,0,0
12561,-133.333333333333,4,3,1,100,0,0
12937,-100,4,3,1,100,0,0
13124,-100,4,3,1,100,0,0
13499,-100,4,3,1,100,0,0
16030,-100,4,3,1,5,0,0
16124,-100,4,3,1,100,0,0
16686,-100,4,3,1,100,0,0
17061,-100,4,3,1,100,0,0
18467,-100,4,3,1,5,0,0
18561,-100,4,3,1,100,0,0
19124,-100,4,3,1,100,0,0
19499,-100,4,3,1,100,0,0
20999,-100,4,3,1,70,0,0
21186,-100,4,3,1,100,0,0
22311,-133.333333333333,4,3,1,100,0,1
25124,-66.6666666666667,4,3,1,100,0,1
25311,-133.333333333333,4,3,1,100,0,1
28499,-100,4,3,1,100,0,1
29061,-114.942528735632,4,3,1,100,0,1
29624,-133.333333333333,4,3,1,100,0,1
31124,-66.6666666666667,4,3,1,100,0,1
31686,-133.333333333333,4,3,1,100,0,1
34124,-133.333333333333,4,3,1,100,0,1
35061,-133.333333333333,4,3,1,50,0,0
37311,-100,4,3,1,100,0,0
38624,-100,4,3,1,100,0,0
43499,-133.333333333333,4,3,1,100,0,0
45749,-100,4,3,1,100,0,0
50436,-100,4,3,1,5,0,0
50624,-100,4,3,1,100,0,0
51936,-100,4,3,1,100,0,0
53249,-100,4,3,1,100,0,0
53811,-100,4,3,1,100,0,0
54561,-100,4,3,1,100,0,0
55311,-100,4,3,1,100,0,0
56249,-100,4,3,1,100,0,0
56811,-100,4,3,1,100,0,0
61499,-100,4,3,1,100,0,0
61874,-133.333333333333,4,3,1,100,0,0
62624,-100,4,3,1,100,0,0
62811,-100,4,3,1,100,0,0
62999,-100,4,3,1,100,0,0
63374,-100,4,3,1,100,0,0
63561,-100,4,3,1,100,0,0
64686,-133.333333333333,4,3,1,100,0,0
65061,-133.333333333333,4,3,1,5,0,0
65249,-133.333333333333,4,3,1,100,0,0
65999,-133.333333333333,4,3,1,100,0,0
66280,-133.333333333333,4,3,1,5,0,0
66374,-181.818181818181,4,3,1,100,0,0
66655,-133.333333333333,4,3,1,5,0,0
66749,-285.714285714284,4,3,1,100,0,0
67311,-100,4,3,1,100,0,0
71249,-133.333333333333,4,3,1,100,0,0
71999,-100,4,3,1,100,0,0
72561,-133.333333333333,4,3,1,100,0,0
75749,-133.333333333333,4,3,1,100,0,0
76030,-133.333333333333,4,3,1,5,0,0
76124,-100,4,3,1,100,0,0
76405,-100,4,3,1,100,0,0
76499,-86.9565217391304,4,3,1,100,0,0
76780,-86.9565217391304,4,3,1,5,0,0
76874,-100,4,3,1,100,0,0
77530,-100,4,3,1,5,0,0
77624,-100,4,3,1,100,0,0
78186,-100,4,3,1,100,0,0
78374,-100,4,3,1,100,0,0
78936,-100,4,3,1,5,0,0
79123,-100,4,3,1,100,0,0
79686,-100,4,3,1,100,0,0
80811,-100,4,3,1,5,0,0
80998,-100,4,3,1,100,0,0
81373,-133.333333333333,4,3,1,100,0,0
81748,-100,4,3,1,100,0,0
82123,-100,4,3,1,100,0,0
82498,-133.333333333333,4,3,1,100,0,0
83061,-133.333333333333,4,3,1,100,0,0
83529,-133.333333333333,4,3,1,5,0,0
83623,-181.818181818181,4,3,1,100,0,0
84092,-181.818181818181,4,3,1,5,0,0
84186,-181.818181818181,4,3,1,100,0,0
84467,-181.818181818181,4,3,1,5,0,0
84561,-133.333333333333,4,3,1,100,0,0
86061,-133.333333333333,4,3,1,70,0,0
89061,-105.263157894737,4,3,1,70,0,0
91123,-105.263157894737,4,3,1,20,0,0
91873,-105.263157894737,4,3,1,70,0,0
92061,-285.714285714284,4,3,1,70,0,0
93748,-285.714285714284,4,3,1,30,0,0
94686,-133.333333333333,4,3,1,50,0,0
94967,-133.333333333333,4,3,1,5,0,0
95061,-133.333333333333,4,3,1,50,0,0
96186,-133.333333333333,4,3,1,5,0,0
96373,-133.333333333333,4,3,1,70,0,0
99186,-133.333333333333,4,3,1,50,0,0
99373,-133.333333333333,4,3,1,60,0,0
99561,-133.333333333333,4,3,1,70,0,0
99936,-133.333333333333,4,3,1,30,0,0
100967,-133.333333333333,4,3,1,5,0,0
101061,-222.222222222222,4,3,1,30,0,0
101998,-222.222222222222,4,3,1,5,0,0
102186,-222.222222222222,4,3,1,40,0,0
102561,-222.222222222222,4,3,1,60,0,0
103123,-138.888888888889,4,3,1,40,0,0
103873,-133.333333333333,4,3,1,50,0,0
105186,-133.333333333333,4,3,1,30,0,0
105561,-133.333333333333,4,3,1,60,0,0
105936,-133.333333333333,4,3,1,20,0,0
108373,-133.333333333333,4,3,1,40,0,0
108561,-133.333333333333,4,3,1,70,0,0
109123,-133.333333333333,4,3,1,50,0,0
113811,-133.333333333333,4,3,1,70,0,0
114373,-100,4,3,1,50,0,0
114936,-100,4,3,1,70,0,0
115217,-100,4,3,1,5,0,0
115311,-100,4,3,1,50,0,0
115686,-100,4,3,1,70,0,0
115873,-100,4,3,1,5,0,0
115967,-100,4,3,1,70,0,0
116717,-100,4,3,1,5,0,0
116811,-100,4,3,1,70,0,0
116998,-100,4,3,1,50,0,0
117373,-100,4,3,1,70,0,0
117654,-100,4,3,1,5,0,0
117748,-100,4,3,1,70,0,0
117936,-100,4,3,1,50,0,0
118123,-100,4,3,1,70,0,0
118404,-100,4,3,1,5,0,0
118498,-95.2380952380952,4,3,1,70,0,0
118873,-133.333333333333,4,3,1,70,0,0
119061,-80,4,3,1,85,0,1
119248,-133.333333333333,4,3,1,85,0,1
119436,-86.9565217391304,4,3,1,85,0,1
119811,-133.333333333333,4,3,1,85,0,1
122061,-100,4,3,1,85,0,1
122811,-133.333333333333,4,3,1,85,0,1
123936,-100,4,3,1,85,0,1
124311,-133.333333333333,4,3,1,85,0,1
124873,-86.9565217391304,4,3,1,85,0,1
125623,-133.333333333333,4,3,1,85,0,1
126373,-86.9565217391304,4,3,1,85,0,1
127311,-100,4,3,1,85,0,0
129373,-133.333333333333,4,3,1,85,0,0
130686,-66.6666666666667,4,3,1,20,0,0
131061,-100,4,3,1,85,0,0
136404,-100,4,3,1,5,0,0
136498,-100,4,3,1,85,0,0

[HitObjects]
72,69,10123,6,8,P|83:99|60:164,1,55
225,215,10311,2,0,P|214:185|237:120,1,55,8|0,0:0|0:0,0:0:0:0:
73,237,10498,2,0,P|84:267|61:332,1,55
227,379,10686,1,0,0:0:0:0:
156,239,10873,1,0,0:0:0:0:
309,200,11062,6,0,P|361:185|420:205,1,110,8|0,0:0|0:0,0:0:0:0:
358,307,11436,2,0,P|305:321|253:306,1,110
309,200,11812,1,8,0:0:0:0:
410,271,11999,1,0,0:0:0:0:
488,164,12187,6,0,P|416:156|344:104,1,123.750004720688
344,104,12561,2,0,P|308:72|246:91,1,82.5000031471254,8|0,0:0|0:0,0:0:0:0:
248,236,12936,1,0,0:0:0:0:
124,144,13124,1,0,0:0:0:0:
101,127,13217,1,0,0:0:0:0:
79,111,13311,5,8,0:0:0:0:
31,260,13499,1,0,0:0:0:0:
184,244,13687,2,0,P|188:304|216:352,1,110
332,248,14062,1,8,0:0:0:0:
208,108,14249,1,0,0:0:0:0:
260,220,14437,5,0,0:0:0:0:
289,47,14624,1,0,0:0:0:0:
123,107,14812,1,8,0:0:0:0:
308,152,14999,1,0,0:0:0:0:
452,32,15187,2,0,L|452:160,1,110
332,236,15561,5,8,0:0:0:0:
456,328,15749,2,0,B|352:312|400:364|256:328,1,165
256,328,16124,2,0,P|200:356|248:288,1,220
376,188,16686,1,0,0:0:0:0:
365,173,16779,1,0,0:0:0:0:
354,158,16873,1,0,0:0:0:0:
208,60,17061,6,0,B|168:132|168:132|200:108|232:120,1,110,8|0,0:0|0:0,0:0:0:0:
212,324,17436,2,0,B|252:252|252:252|220:276|188:264,1,110
80,312,17811,1,8,0:0:0:0:
192,200,17999,1,0,0:0:0:0:
304,312,18186,2,0,B|312:240|376:216|376:216|356:164,1,165
352,144,18561,2,0,P|376:92|428:72,1,110,8|0,0:0|0:0,0:0:0:0:
456,192,18936,5,0,0:0:0:0:
308,240,19124,1,0,0:0:0:0:
294,243,19217,1,0,0:0:0:0:
281,247,19311,1,8,0:0:0:0:
156,152,19499,1,0,0:0:0:0:
112,296,19686,6,0,P|72:248|76:176,1,110
196,56,20061,1,8,0:0:0:0:
8,92,20249,1,0,0:0:0:0:
140,224,20436,1,0,0:0:0:0:
196,56,20624,1,0,0:0:0:0:
272,235,20811,1,8,0:0:0:0:
356,68,20999,2,0,L|388:52,2,27.5
384,100,21186,6,0,P|376:160|400:224,1,110
288,324,21561,2,0,P|296:264|272:200,1,110,8|0,0:0|0:0,0:0:0:0:
160,332,21936,1,0,0:0:0:0:
64,208,22124,1,0,0:0:0:0:
176,48,22311,5,0,0:0:0:0:
214,61,22404,1,0,0:0:0:0:
255,67,22498,1,0,0:0:0:0:
296,65,22592,1,0,0:0:0:0:
336,55,22686,1,0,0:0:0:0:
332,96,22779,1,0,0:0:0:0:
337,136,22873,1,0,0:0:0:0:
350,176,22967,1,0,0:0:0:0:
376,212,23061,6,0,L|420:240,3,41.2500015735627,8|0|0|0,0:0|0:0|0:0|0:0,0:0:0:0:
312,312,23436,2,0,L|284:356,3,41.2500015735627
248,228,23811,2,0,L|278:185,1,41.2500015735627,8|0,0:0|0:0,0:0:0:0:
140,287,23998,2,0,L|110:330,1,41.2500015735627
71,170,24186,5,0,0:0:0:0:
82,131,24280,1,0,0:0:0:0:
103,95,24374,1,0,0:0:0:0:
132,65,24467,1,0,0:0:0:0:
168,40,24561,2,0,L|208:80,1,41.2500015735627,8|0,0:0|0:0,0:0:0:0:
200,236,24749,2,0,L|160:196,1,41.2500015735627
336,184,24936,2,0,L|376:224,1,41.2500015735627
272,328,25124,5,0,0:0:0:0:
318,342,25217,1,0,0:0:0:0:
362,323,25311,1,8,0:0:0:0:
336,184,25499,1,0,0:0:0:0:
480,144,25686,2,0,L|511:170,1,41.2500015735627
352,72,25874,2,0,L|320:45,1,41.2500015735627
336,184,26061,2,0,L|367:210,1,41.2500015735627,8|0,0:0|0:0,0:0:0:0:
212,112,26249,2,0,L|180:85,1,41.2500015735627
244,236,26436,5,0,0:0:0:0:
224,272,26530,1,0,0:0:0:0:
197,293,26624,1,0,0:0:0:0:
158,307,26717,1,0,0:0:0:0:
117,306,26811,1,8,0:0:0:0:
79,291,26905,1,0,0:0:0:0:
49,263,26999,1,0,0:0:0:0:
31,226,27092,1,0,0:0:0:0:
28,184,27186,2,0,L|8:132,1,41.2500015735627
136,112,27373,6,0,L|156:60,1,41.2500015735627
28,40,27561,2,0,L|8:-12,1,41.2500015735627,8|0,0:0|0:0,0:0:0:0:
28,184,27748,2,0,L|48:236,3,41.2500015735627
156,114,28123,1,0,0:0:0:0:
157,128,28216,1,0,0:0:0:0:
158,141,28310,1,8,0:0:0:0:
159,155,28404,1,0,0:0:0:0:
176,180,28499,1,0,0:0:0:0:
224,204,28592,1,0,0:0:0:0:
278,200,28686,1,0,0:0:0:0:
322,168,28780,1,0,0:0:0:0:
343,118,28874,1,0,0:0:0:0:
240,44,29061,5,8,0:0:0:0:
217,85,29154,1,0,0:0:0:0:
219,132,29248,1,0,0:0:0:0:
241,174,29342,1,0,0:0:0:0:
265,216,29436,1,0,0:0:0:0:
267,263,29529,1,0,0:0:0:0:
240,304,29624,6,0,L|192:288,3,41.2500015735627,0|0|8|0,0:0|0:0|0:0|0:0,0:0:0:0:
340,352,29999,2,0,L|388:336,1,41.2500015735627
396,216,30186,2,0,L|444:200,3,41.2500015735627
296,136,30561,2,0,L|248:120,1,41.2500015735627,8|0,0:0|0:0,0:0:0:0:
412,60,30749,2,0,L|460:44,3,41.2500015735627
302,52,31124,1,0,0:0:0:0:
260,74,31218,1,0,0:0:0:0:
256,122,31311,1,8,0:0:0:0:
360,244,31499,1,0,0:0:0:0:
256,344,31686,5,0,0:0:0:0:
215,350,31779,1,0,0:0:0:0:
174,348,31873,1,0,0:0:0:0:
134,338,31967,1,0,0:0:0:0:
96,321,32061,1,8,0:0:0:0:
115,285,32155,1,0,0:0:0:0:
127,245,32249,1,0,0:0:0:0:
129,204,32343,1,0,0:0:0:0:
124,163,32437,1,0,0:0:0:0:
110,124,32530,1,0,0:0:0:0:
88,88,32624,2,0,L|44:64,3,41.2500015735627,0|0|8|0,0:0|0:0|0:0|0:0,0:0:0:0:
124,163,32999,6,0,L|168:139,1,41.2500015735627
92,276,33186,2,0,L|48:252,3,41.2500015735627
184,344,33561,2,0,L|228:320,1,41.2500015735627,8|0,0:0|0:0,0:0:0:0:
288,216,33749,2,0,L|332:192,3,41.2500015735627
340,160,34124,1,0,0:0:0:0:
333,111,34217,1,0,0:0:0:0:
308,68,34311,1,0,0:0:0:0:
269,39,34405,1,0,0:0:0:0:
245,31,34499,1,0,0:0:0:0:
221,28,34592,1,0,0:0:0:0:
196,29,34686,1,0,0:0:0:0:
60,168,35061,5,0,0:0:0:0:
80,194,35436,1,0,0:0:0:0:
100,220,35811,1,0,0:0:0:0:
120,246,36186,5,0,0:0:0:0:
140,272,36561,1,0,0:0:0:0:
160,299,36936,1,0,0:0:0:0:
280,284,37124,2,0,L|324:256,2,41.2500015735627,0|0|8,0:0|0:0|0:0,0:0:0:0:
192,196,37499,5,0,0:0:0:0:
304,120,37686,2,0,P|336:160|396:168,1,110
388,62,38061,2,0,P|293:18|210:82,1,220,8|0,0:0|0:0,0:0:0:0:
136,216,38624,2,0,P|128:252|136:284,1,55
56,128,38811,2,0,P|64:92|56:60,1,55,8|0,0:0|0:0,0:0:0:0:
36,228,38999,1,0,0:0:0:0:
288,296,39374,5,0,0:0:0:0:
298,287,39467,1,0,0:0:0:0:
308,278,39561,1,8,0:0:0:0:
376,172,39749,1,0,0:0:0:0:
296,64,39936,1,0,0:0:0:0:
288,53,40029,1,0,0:0:0:0:
279,43,40123,1,0,0:0:0:0:
436,64,40311,5,8,0:0:0:0:
436,64,40405,1,0,0:0:0:0:
436,64,40499,1,0,0:0:0:0:
424,220,40686,1,0,0:0:0:0:
391,244,40779,1,0,0:0:0:0:
352,259,40873,1,0,0:0:0:0:
311,264,40967,1,0,0:0:0:0:
271,258,41061,1,8,0:0:0:0:
136,332,41249,1,0,0:0:0:0:
134,174,41436,6,0,P|128:114|77:56,1,110
0,162,41811,1,8,0:0:0:0:
39,17,41999,1,0,0:0:0:0:
134,174,42186,2,0,L|274:174,1,110
408,244,42561,5,8,0:0:0:0:
419,229,42654,1,0,0:0:0:0:
430,215,42748,1,0,0:0:0:0:
441,200,42842,1,0,0:0:0:0:
453,186,42936,1,0,0:0:0:0:
464,171,43029,1,0,0:0:0:0:
475,157,43123,1,0,0:0:0:0:
432,40,43311,5,8,0:0:0:0:
308,136,43499,2,0,B|273:151|229:135|229:135|181:115|144:144,1,165.000006294251
76,248,44061,1,8,0:0:0:0:
40,124,44249,1,0,0:0:0:0:
49,105,44342,1,0,0:0:0:0:
61,89,44436,1,0,0:0:0:0:
76,75,44530,1,0,0:0:0:0:
94,65,44624,1,0,0:0:0:0:
114,58,44717,1,0,0:0:0:0:
134,55,44811,5,8,0:0:0:0:
168,176,44999,1,0,0:0:0:0:
88,268,45186,2,0,P|100:312|152:352,1,82.5000031471254
252,288,45561,1,8,0:0:0:0:
291,165,45749,2,0,B|314:188|354:193|354:193|341:210|341:210|384:220|412:264,1,165
440,232,46124,2,0,P|460:172|440:116,1,110,0|8,0:0|0:0,0:0:0:0:
248,88,46499,1,0,0:0:0:0:
378,169,46686,1,0,0:0:0:0:
384,15,46873,1,0,0:0:0:0:
224,208,47061,6,0,P|172:184|152:132,1,110,8|0,0:0|0:0,0:0:0:0:
174,45,47436,2,0,P|226:69|246:121,1,110
88,172,47811,1,8,0:0:0:0:
224,208,47999,1,0,0:0:0:0:
224,208,48092,1,0,0:0:0:0:
224,208,48186,1,0,0:0:0:0:
116,282,48374,1,0,0:0:0:0:
116,282,48467,1,0,0:0:0:0:
116,282,48561,1,8,0:0:0:0:
240,352,48749,6,0,B|296:296|296:296|304:240|304:240|372:176,1,220
440,292,49311,1,8,0:0:0:0:
476,168,49499,1,0,0:0:0:0:
459,146,49592,1,0,0:0:0:0:
442,124,49686,1,0,0:0:0:0:
292,172,49874,1,0,0:0:0:0:
212,40,50061,2,0,P|140:64|224:96,1,220,8|0,0:0|0:0,0:0:0:0:
40,88,50624,6,0,P|52:68|40:24,1,55
100,220,50811,2,0,P|88:240|100:284,1,55,8|0,0:0|0:0,0:0:0:0:
240,208,50999,1,0,0:0:0:0:
384,256,51374,1,0,0:0:0:0:
384,256,51467,1,0,0:0:0:0:
384,256,51561,1,8,0:0:0:0:
496,368,51749,1,0,0:0:0:0:
332,372,51936,1,0,0:0:0:0:
280,353,52029,1,0,0:0:0:0:
240,316,52123,1,0,0:0:0:0:
218,266,52217,1,0,0:0:0:0:
220,212,52311,1,8,0:0:0:0:
219,184,52404,1,8,0:0:0:0:
211,158,52498,1,8,0:0:0:0:
72,72,52686,6,0,P|56:100|56:136,1,55
144,292,52873,2,0,P|160:264|160:228,1,55,0|0,3:0|3:0,3:0:0:0:
324,197,53061,1,8,0:0:0:0:
205,74,53248,1,0,0:0:0:0:
284,264,53436,6,0,P|292:304|364:340,1,110
418,196,53811,2,0,P|410:156|338:120,1,110,8|0,0:0|0:0,0:0:0:0:
212,188,54186,1,0,0:0:0:0:
240,32,54374,1,0,0:0:0:0:
88,88,54561,1,0,0:0:0:0:
67,132,54655,1,0,0:0:0:0:
61,180,54749,1,0,0:0:0:0:
70,228,54842,1,0,0:0:0:0:
80,250,54936,1,0,0:0:0:0:
94,271,55030,1,0,0:0:0:0:
110,289,55123,1,0,0:0:0:0:
264,316,55311,5,8,0:0:0:0:
200,200,55499,1,0,0:0:0:0:
328,200,55686,1,0,0:0:0:0:
264,244,55874,1,0,0:0:0:0:
200,128,56062,1,8,0:0:0:0:
328,128,56249,1,0,0:0:0:0:
307,77,56342,1,0,0:0:0:0:
265,43,56436,1,0,0:0:0:0:
239,35,56530,1,0,0:0:0:0:
211,33,56624,1,0,0:0:0:0:
185,39,56718,1,0,0:0:0:0:
160,51,56812,1,8,0:0:0:0:
64,136,56999,1,0,0:0:0:0:
192,152,57186,6,0,P|192:224|156:284,1,110
236,376,57561,1,8,0:0:0:0:
285,266,57749,2,0,P|213:254|157:262,1,110
176,104,58124,2,0,P|248:116|304:108,1,110,0|8,0:0|0:0,0:0:0:0:
436,112,58499,2,0,P|448:40|440:-16,1,110
176,104,58874,1,0,0:0:0:0:
396,232,59061,5,8,0:0:0:0:
312,56,59249,1,0,0:0:0:0:
369,248,59436,1,0,0:0:0:0:
285,72,59624,1,0,0:0:0:0:
136,44,59811,2,0,P|104:76|40:100,1,110,8|0,0:0|0:0,0:0:0:0:
40,252,60186,5,0,0:0:0:0:
136,160,60374,1,0,0:0:0:0:
136,160,60467,1,0,0:0:0:0:
136,160,60561,1,8,0:0:0:0:
200,272,60749,2,0,B|264:280|328:260|328:260|364:228|424:220,1,220
448,340,61311,5,8,0:0:0:0:
456,152,61499,1,0,0:0:0:0:
464,141,61592,1,0,0:0:0:0:
472,130,61686,1,0,0:0:0:0:
288,180,61874,1,0,0:0:0:0:
223,37,62061,6,0,B|201:48|192:92|192:92|165:88|165:88|154:162|114:185,1,165,8|0,0:0|0:0,0:0:0:0:
81,300,62624,1,0,0:0:0:0:
102,317,62717,1,0,0:0:0:0:
123,334,62811,1,8,0:0:0:0:
145,351,62905,1,8,0:0:0:0:
166,369,62999,1,8,0:0:0:0:
406,261,63374,5,0,0:0:0:0:
406,261,63467,1,0,0:0:0:0:
406,261,63561,1,8,0:0:0:0:
379,107,63749,1,0,0:0:0:0:
216,92,63936,1,0,0:0:0:0:
202,79,64029,1,0,0:0:0:0:
188,67,64123,1,0,0:0:0:0:
40,104,64311,5,8,0:0:0:0:
39,145,64404,1,8,0:0:0:0:
38,186,64498,1,8,0:0:0:0:
37,227,64592,1,8,0:0:0:0:
36,268,64686,2,0,P|96:320|172:288,1,165,8|0,0:0|0:0,0:0:0:0:
240,176,65249,1,0,0:0:0:0:
142,109,65436,2,0,P|228:56|307:77,1,165.000006294251,8|0,0:0|0:0,0:0:0:0:
408,76,65999,6,0,L|427:211,1,123.750004720688
392,210,66374,2,0,L|362:112,1,90.7500027694703
328,134,66749,2,0,L|316:202,1,57.7499982376099,8|0,0:0|0:0,0:0:0:0:
276,208,67124,1,0,0:0:0:0:
144,48,67311,2,0,B|116:100|40:120|40:120|28:164|116:184,1,220
192,344,67874,5,0,0:0:0:0:
316,240,68061,2,0,P|368:192|348:276,1,220,8|0,0:0|0:0,0:0:0:0:
216,192,68624,2,0,B|188:152|196:112|196:112|244:88|244:88|208:48|232:8,1,220,0|8,0:0|0:0,0:0:0:0:
416,56,69186,1,8,0:0:0:0:
304,252,69374,1,8,0:0:0:0:
280,64,69561,5,8,0:0:0:0:
464,240,69749,1,8,0:0:0:0:
260,348,69936,2,0,B|208:368|152:336|152:336|80:304|32:336,1,220,8|0,0:0|0:0,0:0:0:0:
160,112,70499,1,0,0:0:0:0:
332,296,70686,5,8,0:0:0:0:
272,64,70874,1,0,0:0:0:0:
156,264,71061,1,0,0:0:0:0:
408,228,71249,2,0,B|392:184|428:152|428:152|436:96|376:64,1,165
112,48,71999,6,0,P|156:92|88:72,1,165,8|0,0:0|0:0,0:0:0:0:
60,47,72374,1,0,0:0:0:0:
52,220,72561,2,0,B|76:243|119:242|119:242|121:268|121:268|158:272|188:320,1,165
77,362,73124,1,0,0:0:0:0:
213,185,73311,1,8,0:0:0:0:
52,220,73499,1,0,0:0:0:0:
250,250,73686,1,0,0:0:0:0:
175,302,73873,6,0,P|268:336|332:296,1,165.000006294251
432,124,74436,1,8,0:0:0:0:
468,340,74624,1,8,0:0:0:0:
312,204,74811,1,8,0:0:0:0:
496,188,74999,1,8,0:0:0:0:
352,348,75186,6,0,P|280:352|244:332,1,82.5000031471254
184,216,75561,1,0,0:0:0:0:
40,280,75749,2,0,B|52:256|40:232|40:232|56:212|56:212|44:176|64:136,1,123.750004720688
96,168,76124,2,0,B|111:198|95:230|95:230|116:256|116:256|100:304|113:319,1,165
156,320,76499,2,0,B|174:283|155:245|155:245|180:213|180:213|161:156|177:137,1,189.750003619194,8|0,0:0|0:0,0:0:0:0:
228,156,76874,1,0,0:0:0:0:
372,336,77248,6,0,B|424:292|424:292|452:176,1,165,8|0,0:0|0:0,0:0:0:0:
416,168,77624,1,0,0:0:0:0:
320,48,77811,2,0,B|280:32|218:50|218:50|156:72|100:48,1,220
36,184,78374,1,0,0:0:0:0:
136,308,78561,6,8,B|208:320|208:320|264:304|264:304|368:316,1,220
440,184,79123,2,0,P|440:100|404:168,1,220,0|8,0:0|0:0,0:0:0:0:
328,228,79686,1,8,0:0:0:0:
214,149,79873,1,8,0:0:0:0:
251,18,80061,1,8,0:0:0:0:
387,13,80248,1,8,0:0:0:0:
432,144,80436,6,0,B|408:200|436:264|436:264|408:320|324:320,1,220,8|0,0:0|0:0,0:0:0:0:
166,263,80998,1,0,0:0:0:0:
152,40,81186,1,0,0:0:0:0:
338,75,81373,1,0,0:0:0:0:
347,93,81466,1,0,0:0:0:0:
359,109,81560,1,0,0:0:0:0:
374,124,81654,1,0,0:0:0:0:
390,136,81748,1,0,0:0:0:0:
406,146,81841,1,0,0:0:0:0:
411,186,81935,1,0,0:0:0:0:
398,225,82029,1,0,0:0:0:0:
368,256,82123,1,0,0:0:0:0:
344,272,82216,5,0,0:0:0:0:
312,247,82310,1,0,0:0:0:0:
272,241,82404,1,0,0:0:0:0:
233,254,82498,1,0,0:0:0:0:
205,267,82591,1,0,0:0:0:0:
174,271,82685,1,0,0:0:0:0:
145,263,82779,1,0,0:0:0:0:
119,245,82873,1,0,0:0:0:0:
88,96,83061,6,0,P|160:52|136:104,1,206.250007867813
149,94,83623,6,0,P|113:42|88:99,1,151.250004615784
88,120,84186,6,0,L|76:216,1,90.7500027694703
84,240,84561,1,8,0:0:0:0:
88,256,84623,1,0,0:0:0:0:
96,272,84686,2,0,P|136:288|172:280,1,55.0000020980836
292,228,84936,5,8,0:0:0:0:
288,212,84998,1,0,0:0:0:0:
280,196,85061,2,0,P|240:180|204:188,1,55.0000020980836
100,128,85311,1,0,0:0:0:0:
142,2,85436,1,0,0:0:0:0:
274,6,85561,1,0,0:0:0:0:
312,134,85686,1,8,0:0:0:0:
68,256,86061,5,0,0:0:0:0:
164,336,86248,1,0,0:0:0:0:
460,248,86811,1,0,0:0:0:0:
364,328,86998,1,0,0:0:0:0:
352,96,87561,5,8,0:0:0:0:
352,96,87748,1,0,0:0:0:0:
352,96,87936,2,0,B|328:112|289:87|289:87|256:64|222:92|222:92|213:156|157:185,1,247.500009441376
104,80,88686,1,0,0:0:0:0:
88,295,89061,6,0,B|152:271|208:303|208:303|281:272|281:272|418:213|320:87|186:168|281:272|281:272|328:295|352:359,1,626.999983257294,4|0,0:0|0:0,0:0:0:0:
506,359,90373,1,0,0:0:0:0:
442,202,90561,1,8,0:0:0:0:
136,40,91123,5,8,0:0:0:0:
70,106,91311,1,0,0:0:0:0:
136,173,91498,1,0,0:0:0:0:
203,106,91686,1,0,0:0:0:0:
70,240,91873,1,0,0:0:0:0:
112,332,92061,2,0,B|155:316|178:258|178:258|194:196|251:187,1,192.499994125366,4|0,0:0|0:0,0:0:0:0:
276,28,93186,5,0,0:0:0:0:
396,148,93373,1,0,0:0:0:0:
232,191,93561,1,8,0:0:0:0:
352,71,93748,1,0,0:0:0:0:
188,28,93936,1,0,0:0:0:0:
80,264,94686,6,0,P|140:274|187:313,1,123.750004720688
244,288,95061,2,0,B|276:272|324:280|324:280|370:228|370:228|444:176|480:272|380:320|370:228|370:228|378:176|378:176|321:173|281:116,1,495.000018882752,4|0,0:0|0:0,0:0:0:0:
370,89,96373,1,0,0:0:0:0:
158,21,96561,1,8,0:0:0:0:
84,240,97123,5,0,0:0:0:0:
88,256,97185,1,0,0:0:0:0:
96,272,97248,2,0,L|136:288,1,27.5000010490418,0|8,0:0|0:0,0:0:0:0:
264,224,97498,1,0,0:0:0:0:
137,354,97686,1,0,0:0:0:0:
7,228,97873,1,0,0:0:0:0:
133,97,98061,1,4,0:0:0:0:
448,344,99186,5,0,0:0:0:0:
447,170,99373,1,0,0:0:0:0:
297,257,99561,1,8,0:0:0:0:
281,240,99936,1,0,0:0:0:0:
80,296,100686,6,0,P|144:304|216:264,1,123.750004720688
240,304,101061,2,0,B|264:248|239:177|239:177|216:96|240:40,1,247.4999924469,4|0,0:0|0:0,0:0:0:0:
488,104,102186,1,0,0:0:0:0:
345,211,102373,1,0,0:0:0:0:
323,33,102561,1,8,0:0:0:0:
176,288,103123,1,0,0:0:0:0:
98,234,103311,5,4,0:0:0:0:
141,148,103498,2,0,P|187:207|175:290,1,158.400003867188
98,234,104061,1,8,0:0:0:0:
388,336,105186,5,0,0:0:0:0:
466,229,105373,1,0,0:0:0:0:
227,137,105560,1,8,0:0:0:0:
466,229,105936,1,0,0:0:0:0:
185,335,106498,5,0,0:0:0:0:
185,335,106686,2,0,P|291:316|335:324,1,123.750004720688
349,317,107061,2,0,B|386:298|406:237|406:237|502:170|570:298|423:374|406:236|406:236|411:159|451:105,1,495.000018882752,4|0,0:0|0:0,0:0:0:0:
276,220,108373,1,0,0:0:0:0:
276,34,108561,1,8,0:0:0:0:
505,207,109123,5,0,0:0:0:0:
425,346,109311,1,8,0:0:0:0:
324,204,109498,1,0,0:0:0:0:
262,311,109686,1,0,0:0:0:0:
212,236,109873,1,0,0:0:0:0:
165,316,110061,1,8,0:0:0:0:
76,48,110623,5,0,0:0:0:0:
140,156,110811,1,8,0:0:0:0:
436,48,111373,1,0,0:0:0:0:
372,156,111561,1,0,0:0:0:0:
128,224,112123,5,0,0:0:0:0:
151,257,112216,1,0,0:0:0:0:
175,291,112311,1,8,0:0:0:0:
375,175,112498,1,0,0:0:0:0:
148,44,112873,5,0,0:0:0:0:
312,24,113061,2,0,B|352:44|392:40|392:40|424:64|440:112,1,165.000006294251,4|0,0:0|0:0,0:0:0:0:
300,120,113623,1,0,0:0:0:0:
369,237,113811,1,8,0:0:0:0:
88,332,114373,5,0,0:0:0:0:
249,238,114561,1,0,0:0:0:0:
88,144,114749,1,0,0:0:0:0:
184,304,114936,2,0,P|252:328|332:272,1,165,8|0,0:0|0:0,0:0:0:0:
328,264,115311,1,0,0:0:0:0:
380,40,115498,5,0,0:0:0:0:
280,120,115686,2,0,P|235:133|175:80,1,110,8|0,0:0|0:0,0:0:0:0:
176,92,115967,1,0,0:0:0:0:
168,80,116060,1,0,0:0:0:0:
90,213,116248,1,0,0:0:0:0:
171,348,116436,2,0,B|212:358|254:342|254:342|301:326|348:348,1,165,8|0,0:0|0:0,0:0:0:0:
347,351,116811,1,8,0:0:0:0:
488,183,116998,1,0,0:0:0:0:
272,145,117186,1,0,0:0:0:0:
456,22,117373,2,0,L|282:22,1,165
268,40,117748,5,8,0:0:0:0:
119,40,117936,1,0,0:0:0:0:
196,168,118123,2,0,B|144:200|144:200|120:232|120:232|64:264,1,165,8|0,0:0|0:0,0:0:0:0:
72,275,118498,1,0,0:0:0:0:
80,286,118591,1,0,0:0:0:0:
89,297,118685,1,0,0:0:0:0:
98,308,118779,1,0,0:0:0:0:
104,317,118873,2,0,L|85:370,3,41.2500015735627
224,272,119248,6,0,L|243:219,1,41.2500015735627
308,344,119436,1,8,0:0:0:0:
370,339,119529,1,0,0:0:0:0:
424,307,119623,1,0,0:0:0:0:
459,255,119717,1,0,0:0:0:0:
472,192,119811,2,0,L|428:156,3,41.2500015735627
344,68,120186,2,0,L|375:41,3,41.2500015735627,8|0|0|0,0:0|0:0|0:0|0:0,0:0:0:0:
336,164,120561,5,0,0:0:0:0:
330,176,120654,1,0,0:0:0:0:
323,188,120748,1,0,0:0:0:0:
314,198,120842,1,0,0:0:0:0:
304,208,120936,1,8,0:0:0:0:
293,216,121029,1,0,0:0:0:0:
281,222,121123,1,0,0:0:0:0:
268,227,121217,1,0,0:0:0:0:
256,232,121311,2,0,L|232:296,3,41.2500015735627
188,156,121686,2,0,L|212:92,3,41.2500015735627,8|0|0|0,0:0|0:0|0:0|0:0,0:0:0:0:
88,160,122061,5,0,0:0:0:0:
90,105,122154,1,0,0:0:0:0:
117,58,122248,1,0,0:0:0:0:
163,29,122342,1,0,0:0:0:0:
217,24,122436,1,8,0:0:0:0:
248,68,122529,1,0,0:0:0:0:
296,94,122623,1,0,0:0:0:0:
350,94,122717,1,0,0:0:0:0:
400,72,122811,2,0,L|424:24,3,41.2500015735627
456,188,123186,2,0,L|432:236,3,41.2500015735627,8|0|0|0,0:0|0:0|0:0|0:0,0:0:0:0:
352,320,123561,5,0,0:0:0:0:
316,299,123654,1,0,0:0:0:0:
276,290,123748,1,0,0:0:0:0:
235,293,123842,1,0,0:0:0:0:
196,308,123936,1,8,0:0:0:0:
149,280,124029,1,0,0:0:0:0:
117,235,124123,1,0,0:0:0:0:
108,181,124217,1,0,0:0:0:0:
124,128,124311,2,0,L|100:76,3,41.2500015735627
168,20,124686,1,8,0:0:0:0:
408,36,124873,5,0,0:0:0:0:
434,93,124966,1,0,0:0:0:0:
445,155,125060,1,0,0:0:0:0:
438,217,125154,1,0,0:0:0:0:
415,276,125248,1,0,0:0:0:0:
356,252,125341,1,0,0:0:0:0:
293,245,125435,1,8,0:0:0:0:
231,256,125529,1,0,0:0:0:0:
172,284,125623,2,0,L|152:328,3,41.2500015735627
128,168,125998,2,0,L|148:124,3,41.2500015735627,0|0|8|0,0:0|0:0|0:0|0:0,0:0:0:0:
141,55,126373,5,0,0:0:0:0:
81,33,126467,1,0,0:0:0:0:
27,67,126561,1,0,0:0:0:0:
21,130,126655,1,0,0:0:0:0:
64,175,126748,1,0,0:0:0:0:
128,168,126842,1,0,0:0:0:0:
190,162,126936,1,8,0:0:0:0:
252,176,127029,1,0,0:0:0:0:
308,208,127123,1,0,0:0:0:0:
370,222,127217,1,0,0:0:0:0:
433,217,127310,5,0,0:0:0:0:
360,44,127498,1,0,0:0:0:0:
360,44,127561,1,0,0:0:0:0:
360,44,127623,2,0,L|300:72,1,36.6666666666667
192,152,127873,1,0,0:0:0:0:
280,292,128061,5,0,0:0:0:0:
104,352,128248,1,0,0:0:0:0:
212,172,128436,2,0,B|260:172|320:208|320:208|380:248|420:248,1,220
352,72,128998,2,0,P|360:52|400:32,1,55
332,224,129186,6,0,P|324:244|284:264,1,55
216,128,129373,2,0,B|112:164|188:188|80:216,1,165.000006294251
76,224,129842,1,0,0:0:0:0:
72,232,129936,1,0,0:0:0:0:
184,340,130123,1,0,0:0:0:0:
308,244,130311,5,0,0:0:0:0:
300,224,130404,1,0,0:0:0:0:
293,205,130498,1,0,0:0:0:0:
183,96,130686,2,0,L|166:83,15,20.6250007867813
132,89,131061,1,0,0:0:0:0:
136,126,131154,1,0,0:0:0:0:
142,164,131248,1,0,0:0:0:0:
147,201,131341,1,0,0:0:0:0:
153,234,131436,5,8,0:0:0:0:
270,349,131623,1,0,0:0:0:0:
301,164,131811,1,0,0:0:0:0:
446,291,131998,1,0,0:0:0:0:
465,102,132186,2,0,P|428:61|366:45,1,110,8|0,0:0|0:0,0:0:0:0:
301,164,132561,6,0,P|253:129|243:64,1,110
120,34,132936,1,8,0:0:0:0:
92,64,133029,1,0,0:0:0:0:
78,102,133123,1,0,0:0:0:0:
81,143,133217,1,0,0:0:0:0:
106,186,133311,1,0,0:0:0:0:
131,196,133404,1,0,0:0:0:0:
156,206,133498,1,0,0:0:0:0:
90,347,133686,5,8,0:0:0:0:
231,263,133873,1,0,0:0:0:0:
231,263,134061,2,0,L|356:230,1,110
484,365,134436,1,8,0:0:0:0:
481,206,134623,1,0,0:0:0:0:
481,178,134716,1,0,0:0:0:0:
481,151,134810,1,0,0:0:0:0:
481,123,134904,1,0,0:0:0:0:
481,96,134998,1,0,0:0:0:0:
427,100,135091,1,0,0:0:0:0:
382,70,135185,5,8,0:0:0:0:
224,26,135373,1,0,0:0:0:0:
311,122,135561,2,0,P|256:161|202:157,1,110
92,90,135936,1,8,0:0:0:0:
67,244,136123,2,0,B|99:262|145:239|145:239|195:216|252:244,1,165
245,268,136498,2,0,P|306:293|367:264,1,110,0|8,0:0|0:0,0:0:0:0:
301,197,136873,1,0,0:0:0:0:
323,361,137061,5,0,0:0:0:0:
469,243,137248,1,0,0:0:0:0:
383,143,137436,2,0,P|398:77|442:32,1,110
300,196,137811,2,0,P|265:154|258:101,1,110
