osu file format v14

[General]
AudioFilename: audio.mp3
AudioLeadIn: 0
PreviewTime: 68928
Countdown: 1
SampleSet: Soft
StackLeniency: 0.7
Mode: 0
LetterboxInBreaks: 0
WidescreenStoryboard: 0

[Editor]
Bookmarks: 19259,32769,38730,44690,57405,74292,95551,108266,121081,133696,159127,165485,190915,196081,209988,216345,229061,241776,260849,273564,286279,295816,321246,327604,348266,365749,381643,394359,407074
DistanceSpacing: 1.5
BeatDivisor: 4
GridSize: 4
TimelineZoom: 3.199999

[Metadata]
Title:Blade of the Ruined King
TitleUnicode:Blade of the Ruined King
Artist:Pentakill
ArtistUnicode:Pentakill
Creator:SaltyLucario
Version:From the Depths of Shadow Isles
Source:League of Legends
Tags:saltking salty Dora- doraemonelf botrk lol symphonic metal instrumental marathon choir yorick mordekaiser kayle sona karthus olaf grasp of the undying alex temple dzijan emin bob debelina christian linke eugene kang jason willey joe atlan mike pitman richard thomson smiley sean viranda tantula
BeatmapID:2109845
BeatmapSetID:1008086

[Difficulty]
HPDrainRate:5
CircleSize:4.5
OverallDifficulty:8
ApproachRate:9.7
SliderMultiplier:2.2
SliderTickRate:1

[Events]
//Background and Video events
0,0,"bg.jpg",0,0
//Break Periods
2,219249,222030
//Storyboard Layer 0 (Background)
//Storyboard Layer 1 (Fail)
//Storyboard Layer 2 (Pass)
//Storyboard Layer 3 (Foreground)
//Storyboard Layer 4 (Overlay)
//Storyboard Sound Samples

[TimingPoints]
217,397.350993377483,4,2,2,15,1,0
217,-100,4,2,2,15,0,0
6541,-100,4,2,2,20,0,0
6574,-100,4,2,2,20,0,0
12902,397.350993377483,4,2,2,25,1,0
12902,-100,4,2,2,25,0,0
18067,-100,4,2,2,35,0,0
18464,-100,4,2,2,50,0,0
18862,-100,4,2,2,55,0,0
19279,397.350993377483,4,2,2,55,1,0
19279,-100,4,2,2,55,0,0
21067,-133.333333333333,4,2,2,55,0,0
21663,-55.5555555555556,4,2,2,55,0,0
22060,-222.222222222222,4,2,2,55,0,0
22457,-166.666666666667,4,2,2,55,0,0
24245,-66.6666666666667,4,2,2,55,0,0
25040,-55.5555555555556,4,2,2,55,0,0
25239,-58.8235294117647,4,2,50,55,0,0
25636,-100,4,2,2,55,0,0
26033,-100,4,2,2,55,0,0
26629,-66.6666666666667,4,2,2,55,0,0
27623,-133.333333333333,4,2,2,55,0,0
28020,-55.5555555555556,4,2,2,55,0,0
28418,-83.3333333333333,4,2,2,55,0,0
28815,-76.9230769230769,4,2,2,55,0,0
29808,-55.5555555555556,4,2,2,55,0,0
30007,-74.0740740740741,4,2,2,55,0,0
30404,-83.3333333333333,4,2,2,55,0,0
31199,-83.3333333333333,4,2,2,60,0,0
31398,-83.3333333333333,4,2,2,70,0,0
31596,-83.3333333333333,4,2,50,65,0,0
31795,-83.3333333333333,4,2,2,60,0,0
31994,-100,4,2,2,60,0,0
32590,-100,4,2,2,60,0,0
32788,-166.666666666667,4,2,2,60,0,0
34775,-111.111111111111,4,2,2,60,0,0
35173,-166.666666666667,4,2,2,60,0,0
36762,-333.333333333334,4,2,2,60,0,0
37557,-111.111111111111,4,2,2,60,0,0
38351,-142.857142857143,4,2,2,60,0,0
38749,-166.666666666667,4,2,2,60,0,0
40735,-200,4,2,2,60,0,0
41133,-111.111111111111,4,2,2,60,0,0
41530,-142.857142857143,4,2,2,60,0,0
42325,-250,4,2,2,60,0,0
42722,-142.857142857143,4,2,2,60,0,0
43517,-142.857142857143,4,2,2,65,0,0
43914,-111.111111111111,4,2,2,65,0,0
44312,-100,4,2,2,75,0,0
44510,-100,4,2,2,65,0,0
56629,-100,4,2,50,80,0,0
56729,-100,4,2,2,75,0,0
57027,-100,4,2,2,75,0,0
57424,-333.333333333333,4,2,51,50,0,0
57524,-333.333333333333,4,2,3,40,0,0
58120,-333.333333333333,4,2,51,40,0,0
59014,-200,4,2,3,40,0,0
60603,-200,4,2,2,55,0,0
60802,-200,4,2,3,40,0,0
61298,-200,4,2,2,40,0,0
61398,-200,4,2,3,40,0,0
61795,-200,4,2,3,40,0,0
62192,-200,4,2,3,40,0,0
63782,-200,4,2,4,55,0,0
66166,-100,4,2,4,55,0,0
68947,-66.6666666666667,4,2,4,65,0,0
69345,-200,4,2,4,65,0,0
69742,-133.333333333333,4,2,4,70,0,0
70139,-166.666666666667,4,2,4,80,0,1
71133,-100,4,2,4,80,0,1
71331,-303.030303030303,4,2,4,80,0,1
71729,-200,4,2,4,80,0,1
72126,-76.9230769230769,4,2,4,80,0,1
73318,-166.666666666667,4,2,4,80,0,1
73914,-76.9230769230769,4,2,4,80,0,1
74908,-166.666666666667,4,2,4,80,0,1
75702,-76.923076923077,4,2,4,80,0,1
76497,-222.222222222222,4,2,4,80,0,1
78086,-200,4,2,4,80,0,1
79278,-76.9230769230769,4,2,4,80,0,1
79676,-166.666666666667,4,2,4,80,0,1
80471,-76.9230769230769,4,2,4,80,0,1
81265,-200,4,2,4,80,0,1
81663,-76.9230769230769,4,2,4,80,0,1
82855,-166.666666666667,4,2,4,80,0,1
83451,-76.9230769230769,4,2,4,80,0,1
83649,-100,4,2,4,80,0,1
84047,-200,4,2,4,80,0,1
85239,-76.9230769230769,4,2,4,80,0,1
86033,-166.666666666667,4,2,4,80,0,1
86828,-100,4,2,4,80,0,1
87226,-166.666666666667,4,2,4,80,0,1
88418,-76.9230769230769,4,2,4,80,0,1
89163,-76.9230769230769,4,2,4,80,0,1
89212,-166.666666666667,4,2,4,80,0,1
89808,-76.9230769230769,4,2,4,80,0,1
90802,-166.666666666667,4,2,50,80,0,1
90901,-166.666666666667,4,2,4,80,0,1
91100,-166.666666666667,4,2,50,80,0,1
91199,-166.666666666667,4,2,4,80,0,1
91994,-83.3333333333333,4,2,4,80,0,1
92391,-166.666666666667,4,2,4,80,0,1
93980,-200,4,2,4,80,0,1
95570,-250,4,2,4,65,0,0
98351,-153.846153846153,4,2,4,65,0,0
105106,-117.647058823529,4,2,4,65,0,0
107093,-117.647058823529,4,2,4,70,0,0
107292,-117.647058823529,4,2,4,73,0,0
107490,-117.647058823529,4,2,4,76,0,0
107689,-117.647058823529,4,2,4,79,0,0
107888,-117.647058823529,4,2,4,70,0,0
108285,-105.263157894737,4,2,5,75,0,0
121003,402.684563758389,4,2,51,60,1,0
121003,-100,4,2,51,60,0,0
121103,-100,4,2,51,60,0,0
121405,-100,4,2,40,60,0,0
122211,396.039603960396,4,2,51,60,1,0
122211,-100,4,2,51,60,0,0
122607,396.039603960396,4,2,51,60,1,0
122607,-100,4,2,51,60,0,0
123003,-100,4,2,51,60,0,0
124178,397.350993377483,4,2,40,60,1,0
124178,-100,4,2,40,60,0,0
124972,384.615384615385,4,2,40,60,1,0
124972,-100,4,2,40,60,0,0
125741,397.350993377483,4,2,40,60,1,0
125741,-100,4,2,40,60,0,0
127365,397.350993377483,4,2,4,55,1,0
127365,-100,4,2,4,55,0,0
127563,-153.846153846153,4,2,4,55,0,0
128557,-105.263157894737,4,2,4,55,0,0
130543,-153.846153846154,4,2,4,55,0,0
131735,-105.263157894737,4,2,4,55,0,0
132530,-76.9230769230769,4,2,4,70,0,0
133722,-166.666666666667,4,2,4,80,0,1
134715,-100,4,2,4,80,0,1
134914,-303.030303030303,4,2,4,80,0,1
135312,-200,4,2,4,80,0,1
135709,-76.9230769230769,4,2,4,80,0,1
136901,-166.666666666667,4,2,4,80,0,1
137497,-76.9230769230769,4,2,4,80,0,1
138490,-166.666666666667,4,2,4,80,0,1
139285,-76.923076923077,4,2,4,80,0,1
140080,-222.222222222222,4,2,4,80,0,1
141669,-200,4,2,4,80,0,1
142861,-76.9230769230769,4,2,4,80,0,1
143259,-166.666666666667,4,2,4,80,0,1
144053,-76.9230769230769,4,2,4,80,0,1
144848,-200,4,2,4,80,0,1
145245,-76.9230769230769,4,2,4,80,0,1
146437,-166.666666666667,4,2,4,80,0,1
147033,-76.9230769230769,4,2,4,80,0,1
147232,-100,4,2,4,80,0,1
147629,-200,4,2,4,80,0,1
148821,-76.9230769230769,4,2,4,80,0,1
149566,-76.9230769230769,4,2,4,80,0,1
149616,-166.666666666667,4,2,4,80,0,1
150411,-100,4,2,4,80,0,1
150808,-166.666666666667,4,2,4,80,0,1
152696,-76.9230769230769,4,2,4,80,0,1
152745,-76.9230769230769,4,2,4,80,0,1
152795,-166.666666666667,4,2,4,80,0,1
153391,-76.9230769230769,4,2,4,80,0,1
153987,-166.666666666667,4,2,4,80,0,1
155576,-83.3333333333333,4,2,4,80,0,1
155974,-166.666666666667,4,2,4,80,0,1
157166,-200,4,2,4,80,0,1
159153,-500,4,2,30,40,0,0
159252,-500,4,2,51,35,0,0
160543,-500,4,2,30,35,0,0
160742,-500,4,2,30,35,0,0
161437,-500,4,2,30,35,0,0
161540,397.350993377483,4,2,30,35,1,0
161540,-250,4,2,30,35,0,0
162326,397.350993377483,4,2,51,35,1,0
162326,-200,4,2,51,35,0,0
163915,-166.666666666667,4,2,51,35,0,0
164690,405.405405405405,4,2,51,55,1,0
164690,-166.666666666667,4,2,51,55,0,0
165485,397.350993377483,4,2,51,65,1,0
165485,-111.111111111111,4,2,51,65,0,0
168266,-249.999999999999,4,2,51,65,0,0
168663,-111.111111111111,4,2,51,65,0,0
171246,-111.111111111111,4,2,51,30,0,0
171445,-111.111111111111,4,2,51,50,0,0
171643,-111.111111111111,4,2,51,70,0,0
174226,-90.9090909090908,4,2,51,70,0,0
174624,-249.999999999999,4,2,51,70,0,0
175021,-111.111111111111,4,2,51,70,0,0
176213,-111.111111111111,4,2,51,40,0,0
176412,-111.111111111111,4,2,51,60,0,0
176610,-111.111111111111,4,2,51,70,0,0
177802,-333.333333333331,4,2,51,70,0,0
178200,-71.4285714285714,4,2,51,60,0,0
178994,-222.222222222222,4,2,51,60,0,0
180584,-83.3333333333333,4,2,51,60,0,0
180981,-200,4,2,51,60,0,0
181379,-105.263157894737,4,2,51,60,0,0
184160,-71.4285714285714,4,2,51,60,0,0
184557,-105.263157894737,4,2,51,60,0,0
186147,-153.846153846153,4,2,51,60,0,0
186941,-86.9565217391304,4,2,51,60,0,0
187339,-153.846153846153,4,2,51,60,0,0
187736,-105.263157894737,4,2,51,60,0,0
188928,-90.9090909090909,4,2,51,60,0,0
189326,-105.263157894737,4,2,51,60,0,0
190319,-79.9999999999999,4,2,51,80,0,0
190937,397.350993377483,4,2,6,70,1,0
190937,-79.9999999999999,4,2,6,70,0,1
191731,-76.9230769230769,4,2,6,70,0,1
193321,-86.9565217391304,4,2,6,70,0,1
194910,-76.9230769230769,4,2,6,70,0,1
199281,-66.6666666666667,4,2,6,70,0,1
199678,-76.9230769230769,4,2,6,70,0,1
206831,-181.818181818181,4,2,6,70,0,1
208023,-100,4,2,6,70,0,1
216367,-333.333333333333,4,2,52,70,0,0
219049,-333.333333333333,4,2,52,5,0,0
222526,-333.333333333333,4,2,4,45,0,0
223122,-222.222222222222,4,2,4,45,0,0
228685,-100,4,2,4,45,0,0
229480,-200,4,2,4,45,0,0
232658,-125,4,2,2,50,0,0
235042,-100,4,2,2,50,0,0
238619,-100,4,2,2,60,0,0
240208,-100,4,2,2,65,0,0
241797,-333.333333333333,4,2,6,70,0,0
242393,-333.333333333333,4,2,4,30,0,0
244579,-333.333333333333,4,2,6,30,0,0
244976,-333.333333333333,4,2,4,30,0,0
246566,-400,4,2,2,10,0,0
247360,428.571428571429,4,2,2,15,1,0
247360,-250,4,2,2,15,0,0
247788,408.163265306122,4,2,2,13,1,0
247788,-250,4,2,2,13,0,0
247992,379.746835443038,4,2,2,8,1,0
247992,-250,4,2,2,8,0,0
248181,397.350993377483,4,2,2,18,1,0
248181,-250,4,2,2,18,0,0
248777,-250,4,2,2,20,0,0
249373,384.615384615385,4,2,2,15,1,0
249373,-333.333333333333,4,2,2,15,0,0
250141,416.666666666667,4,2,2,17,1,0
250141,-285.714285714286,4,2,2,17,0,0
250557,-285.714285714286,4,2,2,14,0,0
250870,-285.714285714286,4,2,2,14,0,0
250976,397.350993377483,4,2,2,14,1,0
250976,-285.714285714286,4,2,2,14,0,0
251373,-285.714285714286,4,2,2,16,0,0
251770,-222.222222222222,4,2,2,18,0,0
252565,-200,4,2,2,20,0,0
253360,-166.666666666667,4,2,2,23,0,0
254154,357.142857142857,4,2,2,26,1,0
254154,-166.666666666667,4,2,2,26,0,0
254508,410.958904109589,4,2,2,26,1,0
254508,-250,4,2,2,26,0,0
255124,397.350993377483,4,2,2,19,1,0
255124,-200,4,2,2,19,0,0
255322,-200,4,2,2,17,0,0
255422,-200,4,2,2,17,0,0
255521,-166.666666666667,4,2,2,17,0,0
255720,-222.222222222222,4,2,2,12,0,0
256097,397.350993377483,4,2,2,12,1,0
256097,-222.222222222222,4,2,2,12,0,0
256494,-222.222222222222,4,2,2,15,0,0
257289,416.666666666667,4,2,2,18,1,0
257289,-200,4,2,2,18,0,0
257706,397.350993377483,4,2,2,18,1,0
257706,-181.818181818182,4,2,2,18,0,0
258103,-181.818181818182,4,2,2,21,0,0
258898,-166.666666666667,4,2,2,23,0,0
259295,-142.857142857143,4,2,2,23,0,0
259692,-133.333333333333,4,2,2,23,0,0
260090,-125,4,2,2,27,0,0
260487,-117.647058823529,4,2,2,32,0,0
260870,397.350993377483,4,2,2,35,1,0
260870,-111.111111111111,4,2,2,35,0,0
261267,-111.111111111111,4,2,2,25,0,0
261664,-111.111111111111,4,2,2,33,0,0
262062,-111.111111111111,4,2,2,25,0,0
262459,-111.111111111111,4,2,2,31,0,0
262856,-95.2380952380952,4,2,2,25,0,0
263254,-111.111111111111,4,2,2,31,0,0
263651,-111.111111111111,4,2,2,25,0,0
264048,-111.111111111111,4,2,2,33,0,0
264446,-111.111111111111,4,2,2,25,0,0
264843,-111.111111111111,4,2,2,35,0,0
265240,-111.111111111111,4,2,2,27,0,0
265638,-111.111111111111,4,2,2,37,0,0
266035,-111.111111111111,4,2,2,30,0,0
266432,-111.111111111111,4,2,2,40,0,0
266830,-111.111111111111,4,2,2,34,0,0
267227,-111.111111111111,4,2,2,44,0,0
267624,-111.111111111111,4,2,2,32,0,0
268022,-111.111111111111,4,2,2,42,0,0
268419,-111.111111111111,4,2,2,30,0,0
268817,-111.111111111111,4,2,2,44,0,0
269015,-111.111111111111,4,2,2,50,0,0
269214,-111.111111111111,4,2,7,60,0,0
269611,-111.111111111111,4,2,2,60,0,0
269810,-111.111111111111,4,2,2,55,0,0
270009,-111.111111111111,4,2,2,50,0,0
270207,-111.111111111111,4,2,2,45,0,0
270406,-111.111111111111,4,2,7,30,0,0
270803,-111.111111111111,4,2,7,45,0,0
270903,-111.111111111111,4,2,7,40,0,0
271201,-111.111111111111,4,2,7,35,0,0
271598,-111.111111111111,4,2,7,45,0,0
271995,-111.111111111111,4,2,7,60,0,0
272790,-111.111111111111,4,2,7,75,0,0
273187,-111.111111111111,4,2,7,90,0,0
273585,-250,4,2,52,100,0,1
273684,-250,4,2,4,30,0,0
275870,-250,4,2,52,5,0,0
275969,-250,4,2,52,30,0,0
276744,410.958904109589,4,2,4,55,1,1
276744,-166.666666666667,4,2,4,55,0,1
276846,-166.666666666667,4,2,4,55,0,0
277360,397.350993377483,4,2,4,25,1,0
277360,-166.666666666667,4,2,4,25,0,0
277558,-166.666666666667,4,2,2,25,0,0
278353,397.350993377483,4,2,2,25,1,0
278353,-166.666666666667,4,2,4,25,0,0
279744,-166.666666666667,4,2,4,65,0,0
279942,-200,4,2,4,70,0,1
281532,-166.666666666667,4,2,4,70,0,1
282724,-83.3333333333333,4,2,4,70,0,1
283121,-166.666666666667,4,2,4,70,0,1
285505,-200,4,2,4,70,0,1
286302,264.900662251656,6,2,30,40,1,0
286302,-100,4,2,30,40,0,0
286566,-100,4,2,4,40,0,0
286903,281.69014084507,6,2,4,50,1,0
286903,-100,4,2,4,50,0,0
287114,226.415094339623,6,2,4,50,1,0
287114,-100,4,2,4,50,0,0
287340,260.869565217391,6,2,4,50,1,0
287340,-100,4,2,4,50,0,0
287887,267.857142857143,6,2,4,50,1,0
287887,-100,4,2,4,50,0,0
288154,279.06976744186,6,2,4,60,1,0
288154,-100,4,2,4,60,0,0
288671,264.900662251656,6,2,4,60,1,0
288671,-100,4,2,4,60,0,0
289455,264.900662251656,6,2,51,60,1,0
289455,-495.049504950495,4,2,51,60,0,0
292700,-495.049504950495,4,2,51,5,0,0
292766,-495.049504950495,4,2,51,60,0,0
293958,-495.049504950495,4,2,51,5,0,0
294488,-495.049504950495,4,2,51,60,0,0
295150,-495.049504950495,4,2,51,5,0,0
295740,264.900662251656,4,2,51,10,1,0
295740,-495.049504950495,4,2,51,10,0,0
295868,264.900662251656,6,2,2,10,1,0
295868,-375,4,2,2,10,0,0
296662,-375,4,2,2,13,0,0
297457,-375,4,2,2,11,0,0
297987,-375,4,2,2,14,0,0
298781,-375,4,2,2,12,0,0
299046,-375,4,2,2,15,0,0
300636,-375,4,2,2,13,0,0
301166,-375,4,2,2,16,0,0
301960,-375,4,2,2,15,0,0
302225,-272.727272727273,4,2,2,25,0,0
305404,-270.27027027027,4,2,2,30,0,0
307788,315.789473684211,6,2,2,30,1,0
307788,-217.391304347826,4,2,2,30,0,0
308261,285.714285714286,6,2,2,30,1,0
308546,-272.727272727273,4,2,2,20,0,0
308822,264.900662251656,6,2,2,16,1,0
308822,-272.727272727273,4,2,2,16,0,0
309351,-272.727272727273,4,2,2,18,0,0
309881,-272.727272727273,4,2,2,15,0,0
310941,-272.727272727273,4,2,2,18,0,0
311471,-272.727272727273,4,2,2,17,0,0
312000,-272.727272727273,4,2,2,20,0,0
312530,-272.727272727273,4,2,2,18,0,0
313060,-272.727272727273,4,2,2,15,0,0
314649,-272.727272727273,4,2,2,14,0,0
314914,-272.727272727273,4,2,2,18,0,0
315179,-272.727272727273,4,2,2,20,0,0
315709,-272.727272727273,4,2,2,17,0,0
316239,-272.727272727273,4,2,2,13,0,0
318378,264.900662251656,6,2,2,13,1,0
318378,-272.727272727273,4,2,2,13,0,0
318907,-272.727272727273,4,2,2,17,0,0
319304,-272.727272727273,4,2,2,13,0,0
319437,-272.727272727273,4,2,2,19,0,0
319834,-272.727272727273,4,2,2,13,0,0
319967,-272.727272727273,4,2,2,17,0,0
320364,-272.727272727273,4,2,2,13,0,0
320497,-272.727272727273,4,2,2,19,0,0
320894,-272.727272727273,4,2,2,13,0,0
321027,-272.727272727273,4,2,2,19,0,0
321257,264.900662251656,6,2,31,55,1,0
321257,-230.769230769231,4,2,31,55,0,0
327614,-150.000000000015,4,2,4,60,0,0
333972,-136.363636363636,4,2,51,65,0,0
334038,-136.363636363636,4,2,4,65,0,0
334104,-136.363636363636,4,2,51,65,0,0
334237,-136.363636363636,4,2,4,65,0,0
336356,-107.142857142857,4,2,4,65,0,0
337151,-107.142857142857,4,2,2,65,0,0
337217,-107.142857142857,4,2,4,65,0,0
337283,-107.142857142857,4,2,2,65,0,0
337415,-136.363636363636,4,2,4,65,0,0
338740,-107.142857142857,4,2,4,65,0,0
339005,-136.363636363636,4,2,4,65,0,0
340329,-136.363636363636,4,2,51,75,0,1
340396,-136.363636363636,4,2,4,75,0,1
342184,-115.384615384615,4,2,4,75,0,1
342713,-100,4,2,4,75,0,1
343508,-100,4,2,2,75,0,1
343574,-100,4,2,4,75,0,1
343773,-125,4,2,4,75,0,1
345892,-93.75,4,2,4,75,0,1
347482,-93.75,4,2,4,80,0,1
347747,-93.75,4,2,4,85,0,1
347835,-93.75,4,2,4,80,0,1
348011,-93.75,4,2,4,90,0,1
348276,-600,4,2,52,100,0,0
350594,-600,4,2,52,5,0,0
350665,264.900662251656,6,2,52,45,1,0
350665,-375,4,2,52,45,0,0
350929,-375,4,2,52,30,0,0
351459,-230.769230769231,4,2,52,30,0,0
352235,264.900662251656,6,2,52,30,1,0
352235,-100,4,2,52,30,0,0
353049,264.900662251656,6,2,52,75,1,0
353049,-230.769230769231,4,2,52,75,0,0
353843,-230.769230769231,4,2,4,75,0,0
358611,-166.666666666666,4,2,4,75,0,0
359406,-230.769230769231,4,2,4,75,0,0
362320,-157.894736842105,4,2,4,75,0,0
362585,-230.769230769231,4,2,4,75,0,0
364969,-157.894736842105,4,2,4,75,0,0
365764,-200,4,2,4,75,0,0
372651,-150,4,2,4,75,0,0
378479,-750,4,2,2,45,0,0
379274,-750,4,2,2,5,0,0
379316,264.900662251656,6,2,2,65,1,0
379316,-750,4,2,2,65,0,0
381567,-750,4,2,2,5,0,0
381658,264.900662251656,6,2,4,60,1,0
381658,-555.555555555556,4,2,4,60,0,0
382994,264.900662251656,6,2,4,60,1,0
382994,-555.555555555556,4,2,4,60,0,0
383247,264.900662251656,6,2,4,60,1,0
383247,-555.555555555556,4,2,4,60,0,0
386180,264.900662251656,6,2,2,60,1,0
386180,-555.555555555556,4,2,2,60,0,0
386423,264.900662251656,6,2,4,60,1,0
386423,-555.555555555556,4,2,4,60,0,0
387217,-250,4,2,4,60,0,0
388012,-200,4,2,4,60,0,0
394370,-157.894736842105,4,2,4,60,0,0
395164,-142.857142857143,4,2,4,60,0,0
395959,-130.434782608696,4,2,4,60,0,0
397019,-157.894736842936,4,2,4,60,0,0
397548,-142.857142857143,4,2,2,60,0,0
397681,-142.857142857143,4,2,2,60,0,0
397813,-142.857142857143,4,2,4,60,0,0
398343,-130.434782608696,4,2,4,60,0,0
399138,-120,4,2,4,60,0,0
399932,-111.111111111111,4,2,4,60,0,0
403906,-100,4,2,4,60,0,0
405495,-100,4,2,51,60,0,0
405628,-100,4,2,4,85,0,0
406290,-100,4,2,4,85,0,0
407085,-1000,4,2,4,85,0,0
408608,-1000,4,2,4,5,0,0
408674,-133.333333333333,4,2,4,85,0,0

[Colours]
Combo1 : 72,86,108
Combo2 : 202,11,16
Combo3 : 98,70,121
Combo4 : 95,78,61

[HitObjects]
74,335,217,5,6,0:2:0:0:
82,317,415,1,0,0:0:0:0:
84,297,614,1,0,0:0:0:0:
37,172,813,5,0,0:0:0:0:
70,208,1011,1,2,0:2:0:0:
119,215,1210,1,0,0:0:0:0:
32,141,1409,5,2,0:2:0:0:
38,172,1607,1,0,0:0:0:0:
196,203,1806,5,0,0:0:0:0:
148,17,2005,5,0,0:0:0:0:
171,82,2203,1,2,0:2:0:0:
150,148,2402,1,0,0:0:0:0:
229,31,2601,5,2,0:2:0:0:
247,37,2799,1,0,0:0:0:0:
88,86,2998,5,2,0:2:0:0:
70,92,3197,1,0,0:0:0:0:
282,124,3395,5,6,0:2:0:0:
301,128,3594,1,0,0:0:0:0:
317,138,3793,1,0,0:0:0:0:
293,293,3991,5,0,0:0:0:0:
270,248,4190,1,2,0:2:0:0:
272,197,4389,1,0,0:0:0:0:
329,313,4587,5,2,0:2:0:0:
293,293,4786,1,0,0:0:0:0:
445,282,4985,5,0,0:0:0:0:
387,114,5183,5,0,0:0:0:0:
402,182,5382,1,2,0:2:0:0:
381,249,5581,1,0,0:0:0:0:
323,66,5779,5,2,0:2:0:0:
330,157,5978,1,0,0:0:0:0:
240,262,6177,5,2,0:2:0:0:
248,117,6375,1,2,0:2:0:0:
76,22,6574,5,4,0:2:0:0:
101,171,6773,1,0,0:0:0:0:
99,203,6872,1,0,0:0:0:0:
98,235,6971,1,2,0:2:0:0:
153,78,7170,5,0,0:0:0:0:
295,107,7369,1,0,0:0:0:0:
266,249,7567,1,0,0:0:0:0:
124,220,7766,1,2,0:2:0:0:
257,82,7965,5,0,0:0:0:0:
286,88,8064,1,0,0:0:0:0:
315,95,8164,1,2,0:2:0:0:
421,211,8362,5,0,0:0:0:0:
455,57,8561,1,0,0:0:0:0:
295,107,8760,1,0,0:0:0:0:
433,248,8958,5,6,0:2:0:0:
459,124,9157,1,0,0:0:0:0:
304,204,9356,5,6,0:2:0:0:
342,361,9554,1,0,0:0:0:0:
150,267,9753,5,6,0:2:0:0:
189,90,9952,1,0,0:0:0:0:
184,46,10051,1,0,0:0:0:0:
177,2,10150,1,0,0:0:0:0:
54,162,10349,5,0,0:0:0:0:
83,304,10548,1,2,0:2:0:0:
225,275,10746,1,0,0:0:0:0:
196,133,10945,1,2,0:2:0:0:
35,249,11144,5,0,0:0:0:0:
44,291,11243,1,0,0:0:0:0:
53,333,11342,1,4,0:2:0:0:
228,285,11541,5,0,0:0:0:0:
73,262,11740,1,2,0:2:0:0:
174,136,11938,1,0,0:0:0:0:
241,309,12137,5,2,0:2:0:0:
62,284,12336,1,0,0:0:0:0:
294,153,12534,1,2,0:2:0:0:
294,153,12902,5,6,3:2:0:0:
336,212,13001,1,0,0:0:0:0:
402,213,13100,1,0,0:0:0:0:
415,189,13200,1,0,0:0:0:0:
413,177,13299,1,2,0:2:0:0:
407,167,13398,1,0,0:0:0:0:
377,249,13498,6,0,P|414:259|447:252,1,55
235,215,13696,2,0,P|207:214|180:225,1,55,2|0,3:2|0:0,0:0:0:0:
416,189,13895,2,0,P|450:172|470:148,1,55,2|0,0:2|0:0,0:0:0:0:
219,290,14094,1,2,3:2:0:0:
207,297,14193,1,0,0:0:0:0:
196,315,14292,1,0,0:0:0:0:
203,360,14392,1,0,0:0:0:0:
261,378,14491,1,0,0:0:0:0:
302,317,14590,1,0,0:0:0:0:
208,288,14690,6,0,P|181:301|134:304,1,55,2|0,0:2|0:0,0:0:0:0:
252,129,14888,2,0,P|278:134|305:147,1,55,2|0,3:2|0:0,0:0:0:0:
102,246,15087,2,0,P|72:238|34:209,1,55,2|0,0:2|0:0,0:0:0:0:
260,214,15286,5,2,3:2:0:0:
326,229,15385,1,0,0:0:0:0:
350,218,15484,1,0,0:0:0:0:
357,196,15584,1,0,0:0:0:0:
390,103,15683,5,2,3:2:0:0:
344,152,15782,1,0,0:0:0:0:
341,178,15882,1,0,0:0:0:0:
357,196,15981,1,0,0:0:0:0:
430,275,16080,5,6,3:2:0:0:
409,210,16180,1,0,0:0:0:0:
388,195,16279,1,0,0:0:0:0:
357,196,16378,1,0,0:0:0:0:
344,211,16478,1,0,0:0:0:0:
352,235,16577,1,0,0:0:0:0:
381,153,16676,6,0,P|418:160|453:191,1,55,2|0,0:2|0:0,0:0:0:0:
217,154,16875,2,0,P|192:166|160:170,1,55,2|0,3:2|0:0,0:0:0:0:
389,226,17074,2,0,P|412:255|417:298,1,55,2|0,0:2|0:0,0:0:0:0:
169,100,17272,1,2,3:2:0:0:
149,88,17372,1,0,0:0:0:0:
142,68,17471,1,0,0:0:0:0:
148,46,17570,1,0,0:0:0:0:
220,17,17670,1,0,0:0:0:0:
265,81,17769,1,0,0:0:0:0:
156,63,17868,6,0,P|126:65|87:79,1,55,2|0,3:2|0:0,0:0:0:0:
349,116,18067,2,0,P|375:124|405:125,1,55,2|0,3:2|0:0,0:0:0:0:
136,210,18266,2,0,P|106:212|69:226,1,55,0|0,3:2|0:0,0:0:0:0:
267,14,18464,6,0,L|271:70,1,55,2|0,3:2|0:0,0:0:0:0:
268,290,18663,2,0,L|272:232,1,55,0|0,3:2|0:0,0:0:0:0:
180,26,18862,2,0,L|184:84,1,55,8|0,3:1|0:0,0:0:0:0:
348,270,19060,1,0,0:0:0:0:
349,255,19160,1,0,0:0:0:0:
502,312,19279,6,0,B|442:302|422:310|422:310|407:301|407:301|382:343|326:333,1,164.970860927153,4|0,3:1|0:0,0:0:0:0:
249,336,19676,1,10,0:2:0:0:
246,285,19775,1,0,0:0:0:0:
243,235,19875,1,2,0:2:0:0:
80,67,20073,5,0,3:2:0:0:
71,175,20471,1,8,0:2:0:0:
69,74,20835,5,0,3:2:0:0:
90,170,21067,2,0,B|83:141,1,27.128477870234,2|0,0:2|0:0,0:0:0:0:
150,56,21265,5,8,0:2:0:0:
3,112,21464,1,0,0:0:0:0:
224,108,21663,6,0,B|290:85|290:85|261:77,1,98.9999969787599,2|0,3:2|0:0,0:0:0:0:
84,275,21861,2,0,B|18:298|18:298|49:308,1,98.9999969787599
230,136,22060,6,0,L|315:105,1,74.2499977340699,10|0,0:2|0:0,0:0:0:0:
289,254,22457,6,0,B|281:231|281:231|228:216|293:111,1,131.99999597168,6|10,3:2|0:2,0:0:0:0:
274,344,23053,1,2,0:2:0:0:
349,312,23153,1,0,0:0:0:0:
365,317,23252,5,0,3:2:0:0:
470,353,23649,1,8,0:2:0:0:
371,300,24047,5,0,3:2:0:0:
460,157,24245,2,0,B|448:202|448:202|458:215|458:215|451:245,1,82.5000031471254
279,347,24444,1,10,3:2:0:0:
273,274,24543,1,0,0:0:0:0:
269,202,24643,1,2,0:2:0:0:
426,85,24841,1,2,3:2:0:0:
195,176,25040,6,0,B|123:164|123:164|151:137,1,98.9999969787599
282,343,25239,2,0,B|225:327|225:327|164:327|164:327|90:311|90:311|123:284|123:284|160:230,1,280.500005350113,8|0,0:1|0:0,0:0:0:0:
351,384,25636,6,0,B|364:335|364:335|345:304|345:304|367:258|340:217,1,165,4|0,3:2|0:0,0:0:0:0:
244,140,26033,1,10,0:2:0:0:
283,158,26133,1,0,0:0:0:0:
343,111,26232,1,2,0:2:0:0:
169,15,26431,1,0,3:2:0:0:
164,21,26530,1,0,0:0:0:0:
109,60,26629,6,0,B|152:104|152:104|91:116,1,82.5000031471254
61,278,26828,2,0,B|77:218|77:218|118:261,1,82.5000031471254,8|0,0:2|0:0,0:0:0:0:
274,210,27027,2,0,B|214:225|214:225|232:167,1,82.5000031471254
62,35,27226,5,0,3:2:0:0:
97,72,27325,1,0,0:0:0:0:
131,108,27424,1,2,0:2:0:0:
32,268,27623,6,0,B|59:292|56:197|56:197|80:225|80:225,1,123.750004720688,8|0,0:2|0:0,0:0:0:0:
79,345,28020,6,0,B|2:334|2:334|24:381,1,98.9999969787599,2|0,3:2|0:0,0:0:0:0:
311,277,28219,2,0,B|349:274|388:288|388:288|366:241,1,98.9999969787599
32,268,28418,6,0,B|76:274|76:274|102:289|135:286|135:286|154:320|154:320|183:317|217:331,1,197.965027070104,10|0,0:2|0:0,0:0:0:0:
379,269,28815,6,0,B|346:225|365:170|365:170|337:212|338:238|338:238|325:219|326:185|326:185|311:221|308:228|308:228|294:203|294:203|286:228|285:229|285:229|263:215|248:231|248:231|229:246|209:249|193:241|193:241,1,428.999980361939,0|2,3:2|0:2,0:0:0:0:
357,100,29610,1,0,3:2:0:0:
379,269,29808,6,0,B|392:343|392:343|417:309,1,98.9999969787599
276,105,30007,2,0,B|297:173|305:257|305:257|317:216|360:195,1,222.750000849724,10|0,3:2|0:0,0:0:0:0:
358,51,30404,2,0,B|303:25|267:28|267:28|220:46|220:46|190:34|156:40,1,197.99999395752,0|0,3:2|0:0,0:0:0:0:
55,125,30802,5,8,0:2:0:0:
187,110,31000,1,0,0:0:0:0:
77,47,31199,5,0,3:2:0:0:
86,292,31398,2,0,L|83:211,1,65.9999979858399,0|0,3:2|0:0,0:0:0:0:
168,39,31596,6,0,L|169:81,1,32.99999899292,8|0,3:1|3:2,0:0:0:0:
180,314,31795,1,0,3:2:0:0:
261,41,31994,6,0,B|250:75|263:98|263:98|240:134|240:134|258:178|258:178|239:223|264:236|264:236|284:228|284:228|291:250|291:250|264:289|293:340,1,330,0|8,3:2|0:2,0:0:0:0:
365,316,32788,6,0,P|352:289|408:275,1,98.9999969787599,0|0,3:2|0:0,0:0:0:0:
409,282,33186,1,8,0:2:0:0:
354,101,33583,5,0,3:2:0:0:
350,117,33782,1,0,0:0:0:0:
422,77,33980,2,0,L|428:125,1,32.99999899292,8|0,0:2|0:0,0:0:0:0:
451,169,34179,2,0,L|445:124,1,32.99999899292
453,14,34378,6,0,B|418:2|387:11|387:11|345:54,1,98.9999969787599,0|0,3:2|0:0,0:0:0:0:
364,33,34775,2,0,B|333:62|333:62|309:63|309:63|260:61|196:21,1,148.49999546814,8|0,0:2|0:0,0:0:0:0:
230,40,35173,2,0,P|240:105|203:118,1,98.9999969787599,0|0,3:2|0:0,0:0:0:0:
123,129,35570,6,0,P|157:140|176:152,1,32.99999899292
202,192,35769,2,0,P|167:181|152:173,1,32.99999899292,8|0,0:2|0:0,0:0:0:0:
92,104,35967,6,0,P|145:107|174:121,1,65.9999979858399,0|0,3:2|0:0,0:0:0:0:
227,214,36365,2,0,P|174:211|143:198,1,65.9999979858399,8|0,0:2|0:0,0:0:0:0:
21,255,36762,6,0,B|14:240|14:240|19:217,2,32.99999899292,0|0|0,3:2|0:0|0:0,0:0:0:0:
152,225,37358,1,8,0:2:0:0:
265,327,37557,6,0,B|280:349|280:349|229:332|229:332|159:326|114:351|114:351|46:316|144:272|123:325,1,296.99999093628,0|8,3:2|0:2,0:0:0:0:
351,375,38351,2,0,B|357:331|337:303|337:303|356:282|348:232,1,115.49999647522,0|0,3:2|0:0,0:0:0:0:
304,150,38749,6,0,L|307:206,1,32.99999899292
281,255,38947,2,0,L|278:200,1,32.99999899292,8|0,0:2|0:0,0:0:0:0:
336,118,39146,2,0,L|330:208,1,65.9999979858399,0|0,3:2|0:0,0:0:0:0:
253,285,39543,2,0,L|256:200,1,65.9999979858399,8|0,0:2|0:0,0:0:0:0:
265,42,39941,5,0,3:2:0:0:
282,48,40139,1,0,0:0:0:0:
187,76,40338,2,0,L|137:90,1,32.99999899292
82,71,40537,2,0,L|133:56,1,32.99999899292
238,20,40735,6,0,B|245:45|265:74|265:74|251:110,1,82.5,0|0,3:2|0:0,0:0:0:0:
257,94,41133,2,0,B|243:124|243:124|270:162|296:253,1,148.49999546814
288,229,41530,2,0,P|227:223|167:264,1,115.49999647522,0|0,3:2|0:0,0:0:0:0:
129,327,41928,6,0,P|128:298|122:281,1,38.4999988250733
85,216,42126,2,0,P|84:235|91:264,1,38.4999988250733,8|0,0:2|0:0,0:0:0:0:
183,377,42325,6,0,P|198:317|195:295,1,66,0|0,3:2|0:0,0:0:0:0:
177,220,42722,2,0,L|246:235,1,38.4999988250733
296,246,42921,2,0,L|363:261,1,38.4999988250733
419,277,43120,5,0,3:2:0:0:
342,63,43318,5,0,3:2:0:0:
296,246,43517,1,0,3:2:0:0:
472,194,43716,1,0,3:2:0:0:
215,122,43914,6,0,B|210:117|210:117|194:123|186:115|186:115|171:128|171:128|146:133|135:126|135:126|101:120|98:157|60:135|44:137,1,148.49999546814,2|0,3:2|0:0,0:0:0:0:
76,67,44312,6,0,L|146:50,1,55,0|0,1:2|0:0,0:0:0:0:
302,10,44510,1,0,3:2:0:0:
122,254,44709,6,0,L|130:179,1,55,4|0,3:1|0:0,0:0:0:0:
154,381,44908,2,0,B|142:353|142:353|150:304,1,55
227,194,45106,5,0,1:2:0:0:
54,207,45305,2,0,L|-5:212,1,55,0|0,3:2|0:0,0:0:0:0:
234,285,45504,2,0,L|419:306,1,165,0|0,3:2|0:0,0:0:0:0:
495,345,45901,2,0,B|469:323|469:323|302:341,1,165,0|0,1:2|0:0,0:0:0:0:
439,222,46298,6,0,L|533:208,1,55,0|0,3:2|0:0,0:0:0:0:
277,237,46497,2,0,L|333:246,1,55
479,288,46696,5,0,1:2:0:0:
301,169,46894,2,0,P|272:155|245:169,1,55
470,71,47093,1,0,3:2:0:0:
467,125,47192,1,0,3:2:0:0:
464,180,47292,1,0,3:2:0:0:
352,49,47490,1,0,1:2:0:0:
401,265,47689,1,0,3:2:0:0:
436,19,47888,5,4,3:2:0:0:
399,49,47987,1,0,0:0:0:0:
352,49,48086,1,0,0:0:0:0:
194,6,48285,2,0,P|235:-2|261:8,1,55,0|0,1:2|0:0,0:0:0:0:
54,36,48484,2,0,P|95:44|118:35,1,55
279,95,48682,6,0,P|215:82|173:112,1,110,0|0,3:2|0:0,0:0:0:0:
171,120,48980,1,0,0:0:0:0:
166,137,49080,1,0,1:2:0:0:
165,152,49179,1,0,0:0:0:0:
234,154,49278,5,0,3:2:0:0:
171,120,49378,1,0,3:2:0:0:
106,135,49477,2,0,B|61:145|61:145|70:120,1,55,0|0,3:2|0:0,0:0:0:0:
303,226,49676,2,0,B|348:236|348:236|338:213,1,55,0|0,3:2|0:0,0:0:0:0:
97,284,49875,2,0,B|52:294|52:294|63:268,1,55,0|0,1:2|0:0,0:0:0:0:
284,374,50073,2,0,B|329:384|329:384|321:361,1,55
246,280,50272,6,0,B|293:293|293:293|409:325,1,165,0|0,3:2|0:0,0:0:0:0:
510,259,50669,1,0,1:2:0:0:
462,247,50769,1,0,3:2:0:0:
413,235,50868,1,0,3:2:0:0:
365,222,50967,1,0,3:2:0:0:
317,207,51067,6,0,B|345:187|345:187|340:121|340:121|331:140,1,110,4|0,3:2|0:0,0:0:0:0:
216,296,51464,2,0,P|250:290|277:298,1,55,0|0,1:2|0:0,0:0:0:0:
229,100,51663,2,0,P|195:94|167:101,1,55
148,331,51861,2,0,B|125:258|163:218|163:218|152:252|161:273,1,165,0|0,3:2|0:0,0:0:0:0:
203,119,52259,2,0,P|232:195|226:277,1,165,0|0,1:2|0:0,0:0:0:0:
147,71,52656,6,0,B|174:44|174:44|278:54,1,110,4|0,3:2|0:0,0:0:0:0:
390,210,53053,2,0,P|335:217|304:206,1,55,0|0,1:2|0:0,0:0:0:0:
363,4,53252,1,0,3:2:0:0:
356,58,53351,1,0,3:2:0:0:
350,113,53451,1,0,3:2:0:0:
454,318,53649,1,0,3:2:0:0:
452,133,53848,1,0,1:2:0:0:
355,346,54047,1,0,3:2:0:0:
289,158,54245,6,0,L|379:171,1,55,4|0,3:2|0:0,0:0:0:0:
161,226,54444,2,0,L|219:216,1,55
411,195,54643,5,0,1:2:0:0:
238,289,54841,1,0,0:0:0:0:
247,63,55040,1,0,3:2:0:0:
326,250,55239,6,0,B|327:279|327:279|312:313,1,55
181,120,55437,2,0,L|170:66,1,55,0|0,1:2|0:0,0:0:0:0:
77,263,55636,1,0,3:2:0:0:
71,317,55735,1,0,3:2:0:0:
65,372,55835,6,0,B|40:357|40:357|90:350,1,55,4|0,3:2|0:0,0:0:0:0:
295,262,56033,2,0,B|320:247|320:247|274:238,1,55,0|0,3:2|0:0,0:0:0:0:
56,155,56232,2,0,B|-14:126|-14:126|110:92,1,165,0|0,1:2|0:0,0:0:0:0:
231,70,56629,5,6,3:2:0:0:
189,83,56729,1,0,3:2:0:0:
189,127,56828,1,0,3:2:0:0:
231,141,56928,1,0,3:2:0:0:
166,69,57027,5,0,1:2:0:0:
164,152,57126,1,0,3:2:0:0:
242,177,57226,1,0,3:2:0:0:
291,109,57325,1,0,3:2:0:0:
143,171,57424,6,0,L|261:202,1,115.49999647522,4|0,0:2|0:0,0:0:0:0:
255,201,58219,2,0,B|192:220|192:220|243:246,1,115.49999647522
236,242,59014,6,0,B|255:249|255:249|281:285|269:331,1,82.5,2|0,0:2|0:0,0:0:0:0:
272,307,59411,2,0,L|321:304,1,27.5
381,301,59610,2,0,B|381:290|381:290|408:281|446:302,1,55,2|0,0:2|0:0,0:0:0:0:
483,248,59908,5,0,0:0:0:0:
475,228,60007,1,0,0:0:0:0:
446,227,60106,1,0,0:0:0:0:
419,204,60206,1,2,0:2:0:0:
492,287,60404,1,0,0:0:0:0:
470,111,60603,6,0,B|468:77|468:77|478:44|478:44|469:5|469:5|414:29|374:24,1,192.5,4|0,0:2|0:0,0:0:0:0:
388,24,61398,6,0,P|334:25|317:15,1,55,2|0,0:2|0:0,0:0:0:0:
263,99,61795,2,0,P|316:100|334:91,1,55
412,177,62192,6,0,P|349:184|315:170,1,82.5,2|0,0:1|0:0,0:0:0:0:
331,178,62590,2,0,L|281:184,1,27.5
233,193,62788,2,0,L|181:200,1,27.5,2|0,0:1|0:0,0:0:0:0:
125,120,62987,5,0,0:0:0:0:
119,152,63086,1,0,0:0:0:0:
114,184,63186,1,0,0:0:0:0:
68,40,63384,1,2,0:1:0:0:
222,67,63583,1,2,0:2:0:0:
88,300,63782,5,4,3:2:0:0:
181,263,63980,2,0,L|67:274,1,110
23,207,64577,1,0,0:0:0:0:
168,350,64775,5,0,3:2:0:0:
220,344,64875,1,0,3:2:0:0:
273,339,64974,1,0,1:2:0:0:
453,322,65173,1,0,3:2:0:0:
363,122,65371,6,0,L|360:250,1,110,4|0,3:2|0:0,0:0:0:0:
358,303,65967,1,0,0:0:0:0:
457,104,66166,6,0,L|470:32,1,55,4|0,3:2|0:0,0:0:0:0:
262,103,66365,2,0,B|239:29|239:29|223:181,1,220,0|0,1:2|0:0,0:0:0:0:
222,202,66861,1,0,0:0:0:0:
157,139,66961,6,0,P|88:117|151:184,1,220,4|0,3:1|0:0,0:0:0:0:
162,48,67557,1,0,0:0:0:0:
162,48,67954,5,0,3:2:0:0:
165,102,68053,1,0,3:2:0:0:
170,156,68153,1,0,1:2:0:0:
175,321,68351,2,0,B|189:295|189:295|185:249,1,55,0|0,3:2|0:0,0:0:0:0:
98,144,68550,2,0,B|124:143|171:155|171:155|196:112|250:106,1,165,0|0,3:2|0:0,0:0:0:0:
239,210,68947,6,0,P|250:178|272:207,1,82.5000031471254,2|0,0:2|0:0,0:0:0:0:
418,21,69146,2,0,P|439:47|404:53,1,82.5000031471254,2|0,0:2|0:0,0:0:0:0:
490,282,69345,6,0,P|456:287|468:255,1,82.5,2|0,0:2|0:0,0:0:0:0:
474,359,69742,2,0,P|418:340|390:248,1,123.750004720688,2|0,0:2|0:0,0:0:0:0:
455,194,70139,6,0,B|428:196|406:221|406:221|384:216|347:219|328:256|328:256|313:250,1,164.9999949646,4|0,3:1|0:0,0:0:0:0:
163,142,70735,1,2,3:2:0:0:
234,132,70835,1,0,3:2:0:0:
291,178,70934,1,2,1:2:0:0:
54,40,71133,2,0,L|59:102,1,55,0|0,3:2|0:0,0:0:0:0:
214,268,71331,6,0,P|219:234|218:207,1,54.4499998338318,0|0,3:2|0:0,0:0:0:0:
168,60,71729,2,0,B|170:74|170:74|166:85|166:85|160:166,1,82.5,8|0,3:2|0:0,0:0:0:0:
284,18,72126,6,0,P|276:49|304:34,1,71.4999967269899,2|0,0:2|0:0,0:0:0:0:
430,220,72325,1,2,3:2:0:0:
365,197,72424,1,0,3:2:0:0:
307,235,72524,5,2,1:2:0:0:
296,133,72722,1,0,3:2:0:0:
349,331,72921,6,0,P|383:319|423:334,1,71.4999967269899,0|0,3:2|0:0,0:0:0:0:
140,220,73120,2,0,P|106:208|67:223,1,71.4999967269899,2|0,3:2|0:0,0:0:0:0:
400,252,73318,6,0,B|378:245|341:256|341:256|314:276|305:277,1,98.9999969787599,14|0,3:2|0:0,0:0:0:0:
173,344,73716,1,0,3:2:0:0:
233,304,73815,1,0,3:2:0:0:
250,234,73914,2,0,B|252:193|252:193|221:252,1,71.4999967269899,0|0,3:2|0:0,0:0:0:0:
157,48,74113,6,0,B|101:42|101:42|130:78,1,71.4999967269899,0|0,1:2|0:0,0:0:0:0:
317,132,74312,2,0,B|373:126|373:126|342:161,1,71.4999967269899,0|0,3:2|0:0,0:0:0:0:
164,226,74510,2,0,B|108:220|108:220|141:255,1,71.4999967269899,0|0,3:2|0:0,0:0:0:0:
307,279,74709,2,0,B|363:273|363:273|334:308,1,71.4999967269899
33,104,74908,6,0,B|66:115|66:115|85:116|98:106|98:106|135:95|179:108|179:108|156:126,1,164.9999949646,10|0,3:2|0:0,0:0:0:0:
197,282,75504,1,0,3:2:0:0:
136,245,75603,1,0,3:2:0:0:
130,168,75702,6,0,B|157:192|157:192|154:249,1,71.4999967269899,0|0,1:2|0:0,0:0:0:0:
90,374,75901,2,0,B|63:350|63:350|67:295,1,71.4999967269899
224,223,76100,2,0,B|224:259|224:259|183:294,1,71.4999967269899,0|0,3:2|0:0,0:0:0:0:
0,315,76298,2,0,B|0:278|0:278|42:243,1,71.4999967269899,0|0,3:2|0:0,0:0:0:0:
334,353,76497,6,0,B|322:385|234:355|234:355|234:348|263:351,1,123.74999622345,4|0,3:1|0:0,0:0:0:0:
404,333,77093,1,2,3:2:0:0:
356,279,77192,1,0,3:2:0:0:
367,208,77292,5,2,1:2:0:0:
469,179,77490,1,0,3:2:0:0:
246,127,77689,5,2,3:2:0:0:
139,91,77888,1,0,3:2:0:0:
369,45,78086,6,0,B|392:41|392:41|408:33|409:33|435:40|473:32,1,82.5,8|0,3:2|0:0,0:0:0:0:
291,99,78484,5,2,3:2:0:0:
279,2,78682,1,0,3:2:0:0:
183,150,78881,5,2,1:2:0:0:
171,247,79080,1,0,3:2:0:0:
298,361,79278,6,0,P|300:341|281:288,1,71.4999967269899,2|0,3:2|0:0,0:0:0:0:
57,190,79477,2,0,P|43:223|44:260,1,71.4999967269899,2|0,3:2|0:0,0:0:0:0:
304,227,79676,6,0,B|333:238|333:238|345:251|356:274|356:274|397:254|433:265|433:265|410:278,1,164.9999949646,14|0,3:2|0:0,0:0:0:0:
467,190,80272,1,0,3:2:0:0:
394,195,80371,1,0,3:2:0:0:
335,153,80471,6,0,B|330:102|330:102|350:127,1,71.4999967269899,0|0,1:2|0:0,0:0:0:0:
169,171,80669,2,0,B|174:120|174:120|154:148,1,71.4999967269899,0|0,3:2|0:0,0:0:0:0:
343,274,80868,2,0,B|338:223|338:223|360:250,1,71.4999967269899,0|0,3:2|0:0,0:0:0:0:
159,297,81067,2,0,B|164:246|164:246|145:275,1,71.4999967269899
257,42,81265,6,0,B|262:113|262:113|250:98,1,82.5,10|0,3:2|0:0,0:0:0:0:
130,55,81663,6,0,P|174:89|165:95,1,71.4999967269899,2|0,0:2|0:0,0:0:0:0:
308,203,81861,2,0,P|259:194|276:163,1,71.4999967269899,2|0,3:2|0:0,0:0:0:0:
35,157,82060,5,2,1:2:0:0:
125,132,82259,1,0,3:2:0:0:
201,279,82457,5,2,3:2:0:0:
111,254,82656,1,0,3:2:0:0:
280,102,82855,6,0,B|313:82|353:94|353:94|370:67|394:62,1,98.9999969787599,14|0,3:2|0:0,0:0:0:0:
509,179,83252,1,0,3:2:0:0:
446,145,83351,1,0,3:2:0:0:
375,155,83451,2,0,B|325:174|325:174|369:190,1,71.4999967269899,2|0,3:2|0:0,0:0:0:0:
445,321,83649,2,0,B|424:333|424:333|433:236,1,110,2|0,1:2|3:2,0:0:0:0:
330,95,84047,6,0,B|318:115|318:115|325:187,1,82.5,2|0,3:2|0:0,0:0:0:0:
349,335,84444,2,0,B|354:313|354:313|348:294|347:242,1,82.5,10|0,3:2|0:0,0:0:0:0:
244,129,84841,1,2,0:2:0:0:
154,280,85040,1,0,3:2:0:0:
214,242,85139,1,0,3:2:0:0:
285,252,85239,6,0,P|307:264|356:245,1,71.4999967269899,10|0,1:2|0:0,0:0:0:0:
123,194,85437,2,0,P|101:206|50:185,1,71.4999967269899,2|0,3:2|0:0,0:0:0:0:
323,173,85636,5,0,3:2:0:0:
72,324,85835,1,0,3:2:0:0:
38,263,85934,2,0,P|11:247|-1:234,1,35.749998363495
59,195,86033,6,0,B|87:175|108:176|108:176|138:191|169:181,1,98.9999969787599,14|0,3:2|0:0,0:0:0:0:
289,228,86431,1,0,3:2:0:0:
218,218,86530,1,0,3:2:0:0:
158,256,86629,1,2,3:2:0:0:
375,219,86828,2,0,B|457:206|457:206|405:183,1,110,10|0,1:2|3:2,0:0:0:0:
378,341,87226,6,0,B|331:339|310:326|310:326|301:340|263:354,1,98.9999969787599,2|0,3:2|0:0,0:0:0:0:
152,269,87623,2,0,B|201:249|220:254|220:254|229:268|266:284,1,98.9999969787599,12|0,3:2|0:0,0:0:0:0:
399,197,88020,2,0,B|349:193|330:181|330:181,1,65.9999979858399,2|0,0:2|3:2,0:0:0:0:
314,175,88285,1,0,3:2:0:0:
292,181,88351,1,0,3:2:0:0:
270,187,88418,6,0,L|280:93,1,71.4999967269899,10|0,1:2|0:0,0:0:0:0:
297,325,88616,1,2,3:2:0:0:
277,330,88682,1,0,3:2:0:0:
255,336,88749,1,0,3:2:0:0:
233,342,88815,6,0,L|244:245,1,71.4999967269899,8|0,1:2|0:0,0:0:0:0:
480,195,89014,1,0,3:2:0:0:
413,210,89113,2,0,P|409:239|397:262,1,35.749998363495
345,207,89212,6,0,B|353:172|353:172|336:139|349:99,1,98.9999969787599,4|0,3:1|0:0,0:0:0:0:
403,0,89610,1,0,3:2:0:0:
436,63,89709,1,0,3:2:0:0:
416,131,89808,2,0,B|463:131|463:131|434:162,1,71.4999967269899,0|0,3:2|0:0,0:0:0:0:
207,51,90007,5,10,1:2:0:0:
302,29,90206,1,0,3:2:0:0:
141,165,90404,5,2,3:2:0:0:
46,143,90603,1,0,3:2:0:0:
211,328,90802,6,0,B|231:314|231:314|274:322|309:320,1,98.9999969787599,2|0,3:2|0:0,0:0:0:0:
433,271,91199,5,2,3:2:0:0:
273,243,91398,1,2,3:2:0:0:
405,133,91596,5,10,1:2:0:0:
426,341,91795,1,2,0:2:0:0:
331,150,91994,6,0,P|326:108|350:89,1,65.9999979858399,2|0,3:2|0:0,0:0:0:0:
503,255,92192,2,0,P|522:279|513:310,1,65.9999979858399,2|0,0:2|0:0,0:0:0:0:
229,308,92391,6,0,B|235:260|235:260|221:230|234:232|234:234|236:208,1,98.9999969787599,6|0,3:2|0:0,0:0:0:0:
252,144,92788,1,2,0:2:0:0:
289,355,92987,5,0,3:2:0:0:
223,383,93086,1,0,3:2:0:0:
161,346,93186,5,10,1:2:0:0:
50,373,93384,1,0,3:2:0:0:
0,176,93583,5,2,3:2:0:0:
111,203,93782,1,0,0:0:0:0:
274,94,93980,6,0,B|237:112|204:85|204:85|163:75|132:99|132:99|158:100|167:109,1,165,14|2,3:2|3:2,0:0:0:0:
400,36,94775,5,14,1:2:0:0:
379,149,94974,1,0,0:0:0:0:
512,231,95173,5,8,0:3:0:0:
491,118,95371,1,0,0:0:0:0:
357,286,95570,6,0,L|346:363,1,66,4|0,0:3|0:0,0:0:0:0:
269,265,95967,2,0,L|297:261,1,22,8|0,0:3|0:0,0:0:0:0:
221,321,96166,2,0,L|252:338,1,22,8|0,0:3|0:0,0:0:0:0:
231,194,96365,5,0,3:3:0:0:
144,323,96563,1,0,0:0:0:0:
154,289,96663,1,0,0:0:0:0:
140,243,96762,1,8,0:3:0:0:
58,133,96961,1,0,0:0:0:0:
78,292,97159,5,0,3:3:0:0:
144,111,97358,1,8,0:3:0:0:
98,189,97557,1,0,0:0:0:0:
118,180,97656,1,0,0:0:0:0:
140,178,97755,1,0,0:0:0:0:
161,181,97855,1,0,0:0:0:0:
223,220,97954,5,8,3:3:0:0:
194,45,98153,2,0,L|188:82,1,22
149,133,98351,2,0,B|160:126|160:126|188:140|240:121,1,71.4999967269899
382,132,98749,5,4,3:3:0:0:
318,93,98947,1,0,0:0:0:0:
310,166,99146,1,0,0:0:0:0:
388,50,99345,5,8,0:3:0:0:
433,242,99543,1,8,0:3:0:0:
464,127,99742,5,0,0:0:0:0:
435,118,99841,1,0,0:0:0:0:
389,130,99941,1,8,0:3:0:0:
283,223,100139,1,0,0:0:0:0:
464,295,100338,5,0,3:3:0:0:
315,346,100537,1,8,0:3:0:0:
354,191,100735,1,8,0:3:0:0:
357,177,100835,1,0,0:0:0:0:
356,156,100934,1,0,0:0:0:0:
344,134,101033,1,0,0:0:0:0:
286,97,101133,5,0,3:3:0:0:
278,118,101232,1,0,0:0:0:0:
277,145,101331,1,8,3:3:0:0:
234,137,101431,1,0,0:0:0:0:
176,149,101530,1,8,3:3:0:0:
58,237,101729,1,8,3:3:0:0:
121,40,101928,6,0,L|122:81,1,35.749998363495,4|0,3:3|0:0,0:0:0:0:
127,147,102126,1,0,0:0:0:0:
100,29,102325,2,0,L|102:69,1,35.749998363495
219,80,102524,5,8,0:3:0:0:
32,128,102722,1,0,3:3:0:0:
244,216,102921,5,0,0:0:0:0:
306,245,103020,1,0,0:0:0:0:
320,275,103120,1,8,0:3:0:0:
289,384,103318,1,0,0:0:0:0:
401,208,103517,5,0,3:3:0:0:
246,291,103716,1,8,0:3:0:0:
252,119,103914,1,0,0:0:0:0:
267,121,104014,1,0,0:0:0:0:
281,121,104113,1,0,0:0:0:0:
300,118,104212,1,0,0:0:0:0:
364,77,104312,6,0,L|369:125,1,35.749998363495,8|0,3:3|0:0,0:0:0:0:
169,169,104510,1,0,0:0:0:0:
203,103,104610,1,0,0:0:0:0:
194,51,104709,1,0,0:0:0:0:
281,194,104908,1,0,0:0:0:0:
101,254,105106,6,0,B|101:229|101:229|127:242,1,46.7500008916855,0|0,3:3|0:0,0:0:0:0:
205,267,105305,5,0,0:0:0:0:
152,306,105404,1,0,0:0:0:0:
101,349,105504,1,0,0:0:0:0:
59,167,105702,5,8,0:3:0:0:
256,224,105901,1,0,3:3:0:0:
205,38,106100,6,0,B|204:79|204:79|241:64,1,46.7500008916855
197,183,106298,2,0,B|233:163|233:163|224:157,1,46.7500008916855,8|0,0:3|0:0,0:0:0:0:
333,115,106497,2,0,B|297:93|297:93|294:102,1,46.7500008916855
135,90,106696,5,0,3:3:0:0:
283,18,106894,1,0,0:0:0:0:
323,257,107093,6,0,L|313:191,1,46.7500008916855,8|0,0:3|0:0,0:0:0:0:
419,85,107292,2,0,L|431:23,1,46.7500008916855,8|0,0:3|0:0,0:0:0:0:
485,294,107490,2,0,L|472:229,1,46.7500008916855,8|0,0:3|0:0,0:0:0:0:
285,147,107689,2,0,P|320:144|361:153,1,46.7500008916855,8|0,3:3|0:0,0:0:0:0:
394,355,107888,5,0,1:3:0:0:
435,122,108086,1,0,3:3:0:0:
229,316,108285,6,0,B|246:321|246:321|334:296,1,104.499997209549,4|2,3:2|0:2,0:0:0:0:
285,147,108682,1,2,1:2:0:0:
129,337,108881,2,0,B|213:311|213:311|230:316,1,104.499997209549,2|2,0:2|3:2,0:0:0:0:
37,372,109278,5,0,0:0:0:0:
52,301,109378,1,0,0:0:0:0:
4,347,109477,2,0,B|2:321|2:320|26:291,1,52.2499986047745,0|0,1:2|0:0,0:0:0:0:
111,174,109676,2,0,B|127:195|127:196|123:225,1,52.2499986047745
1,115,109875,6,0,B|54:164|57:87|134:91|152:121|152:121|201:128|224:95,1,208.999994419098,0|2,3:2|1:2,0:0:0:0:
181,36,110371,1,0,0:0:0:0:
177,50,110471,1,2,3:2:0:0:
280,199,110669,6,0,B|262:172|261:167|277:136,1,52.2499986047745,2|0,3:2|0:0,0:0:0:0:
374,52,110868,1,0,3:2:0:0:
362,128,110967,1,0,0:0:0:0:
349,59,111067,2,0,B|362:94|368:105|411:64|459:87,1,104.499997209549,0|2,1:2|3:2,0:0:0:0:
512,267,111464,6,0,B|467:197|436:270|446:232|407:260|407:260|367:246|437:316|372:215|312:268,1,208.999994419098,4|0,3:2|1:2,0:0:0:0:
352,340,111961,1,0,0:0:0:0:
354,327,112060,1,0,3:2:0:0:
302,319,112159,1,0,3:2:0:0:
264,282,112259,1,0,3:2:0:0:
229,135,112457,2,0,L|221:195,1,52.2499986047745,0|0,3:2|0:0,0:0:0:0:
166,345,112656,2,0,B|205:312|138:257|100:230|170:181|158:268,1,156.749995814324,0|0,1:2|0:0,0:0:0:0:
223,186,113053,6,0,B|214:160|127:131|71:152|154:179|50:178|50:178|64:196,1,208.999994419098,0|0,3:2|1:2,0:0:0:0:
0,18,113649,1,0,0:0:0:0:
6,63,113749,1,0,0:0:0:0:
39,23,113848,2,0,B|152:10|89:84|173:24|149:15|201:28|206:43|206:43|243:27|265:57,1,208.999994419098,0|0,3:2|1:2,0:0:0:0:
309,21,114345,1,0,0:0:0:0:
303,72,114444,1,0,3:2:0:0:
328,117,114543,1,0,3:2:0:0:
402,121,114643,6,0,B|403:177|366:168|344:190|344:190|400:236|304:240|383:317,1,208.999994419098,4|0,3:2|1:2,0:0:0:0:
215,384,115239,1,0,3:2:0:0:
233,335,115338,1,0,3:2:0:0:
218,284,115437,1,0,3:2:0:0:
100,150,115636,1,0,3:2:0:0:
96,170,115735,1,0,0:0:0:0:
60,190,115835,2,0,L|69:252,1,52.2499986047745,0|0,1:2|0:0,0:0:0:0:
220,114,116033,2,0,L|228:59,1,52.2499986047745
36,149,116232,6,0,L|129:162,1,52.2499986047745,0|0,3:2|0:0,0:0:0:0:
253,24,116431,2,0,L|147:38,1,104.499997209549,0|0,0:0|1:2,0:0:0:0:
332,80,116828,2,0,B|356:57|356:50|345:18,1,52.2499986047745
212,191,117027,2,0,B|187:194|192:217|192:217|227:253|159:267|189:334,1,156.749995814324,0|0,3:2|0:0,0:0:0:0:
306,310,117424,2,0,B|262:274|256:273|186:308,1,104.499997209549,0|0,1:2|3:2,0:0:0:0:
431,371,117822,6,0,B|409:353|447:333|424:316|424:316|428:297|470:273|391:265|424:224,1,156.749995814324,4|0,3:2|0:0,0:0:0:0:
499,76,118219,2,0,B|489:124|543:100|497:188,1,104.499997209549,0|0,1:2|3:2,0:0:0:0:
433,140,118517,1,0,3:2:0:0:
425,88,118616,1,0,3:2:0:0:
330,204,118815,5,0,3:2:0:0:
373,186,118914,1,0,0:0:0:0:
288,174,119014,2,0,B|271:202|262:187|218:183,1,52.2499986047745,0|0,1:2|0:0,0:0:0:0:
121,35,119212,2,0,B|145:49|147:65|193:44,1,52.2499986047745
179,228,119411,6,0,B|163:211|142:215|142:215|207:123|81:191|114:214|51:202,1,156.749995814324,0|0,3:2|0:0,0:0:0:0:
100,290,119808,1,0,1:2:0:0:
125,284,119908,1,0,0:0:0:0:
160,327,120007,1,0,0:0:0:0:
196,303,120106,1,0,0:0:0:0:
263,338,120206,5,0,3:2:0:0:
307,325,120305,1,0,3:2:0:0:
307,281,120404,1,0,3:2:0:0:
263,267,120504,1,0,3:2:0:0:
330,340,120603,5,0,1:2:0:0:
332,257,120702,1,0,3:2:0:0:
254,232,120802,1,0,3:2:0:0:
205,300,120901,1,0,3:2:0:0:
351,241,121003,5,4,0:2:0:0:
339,225,121103,1,0,0:0:0:0:
324,216,121204,1,0,0:0:0:0:
314,213,121305,1,0,0:0:0:0:
212,211,121405,5,2,0:2:0:0:
240,187,121506,1,0,0:0:0:0:
247,178,121607,1,0,0:0:0:0:
250,168,121707,1,0,0:0:0:0:
349,142,121808,5,2,0:2:0:0:
299,101,121909,1,0,0:0:0:0:
285,102,122009,1,0,0:0:0:0:
278,101,122110,1,0,0:0:0:0:
166,77,122211,5,2,0:2:0:0:
178,62,122310,1,0,0:0:0:0:
219,64,122409,1,0,0:0:0:0:
248,37,122508,1,0,0:0:0:0:
233,146,122607,5,2,0:2:0:0:
198,135,122706,1,0,0:0:0:0:
145,147,122805,1,0,0:0:0:0:
101,131,122904,1,0,0:0:0:0:
134,238,123003,5,6,0:2:0:0:
190,205,123102,1,0,0:0:0:0:
247,230,123201,1,0,0:0:0:0:
307,188,123300,1,0,0:0:0:0:
365,268,123399,5,6,0:2:0:0:
309,258,123498,1,0,0:0:0:0:
285,337,123597,5,2,0:2:0:0:
325,330,123696,1,0,0:0:0:0:
428,279,123795,5,2,0:2:0:0:
396,269,123894,1,0,0:0:0:0:
365,268,123993,1,0,0:0:0:0:
354,283,124092,1,0,0:0:0:0:
446,340,124178,5,6,0:2:0:0:
453,296,124277,1,0,0:0:0:0:
461,285,124376,1,0,0:0:0:0:
462,272,124476,1,0,0:0:0:0:
408,213,124575,5,2,0:2:0:0:
416,217,124674,1,0,0:0:0:0:
443,197,124774,1,0,0:0:0:0:
483,200,124873,1,0,0:0:0:0:
419,131,124972,5,2,0:2:0:0:
378,144,125068,1,0,0:0:0:0:
358,129,125164,1,0,0:0:0:0:
341,127,125260,1,0,0:0:0:0:
265,83,125356,5,2,0:2:0:0:
275,94,125452,1,0,0:0:0:0:
278,125,125548,1,0,0:0:0:0:
288,152,125645,1,0,0:0:0:0:
191,158,125741,5,2,0:2:0:0:
192,121,125840,1,0,0:0:0:0:
180,72,125939,1,0,0:0:0:0:
185,53,126039,1,0,0:0:0:0:
87,87,126138,5,6,0:2:0:0:
114,128,126237,1,0,0:0:0:0:
98,171,126337,1,2,0:2:0:0:
108,214,126436,1,0,0:0:0:0:
149,291,126535,5,2,0:2:0:0:
173,257,126635,1,0,0:0:0:0:
68,282,126734,5,0,0:0:0:0:
117,356,126833,1,0,0:0:0:0:
183,352,126933,1,2,0:2:0:0:
208,330,127032,1,0,0:0:0:0:
263,326,127131,1,0,0:0:0:0:
512,260,127365,5,4,3:2:0:0:
471,330,127563,2,0,B|468:354|468:354|460:372,1,35.749998363495
441,202,127762,2,0,B|449:207|449:207|441:117,1,71.4999967269899
504,52,128159,2,0,L|510:110,1,35.749998363495
237,23,128358,5,0,3:2:0:0:
303,34,128457,1,0,3:2:0:0:
372,44,128557,2,0,L|455:61,1,52.2499986047745,0|0,1:2|0:0,0:0:0:0:
180,77,128755,2,0,B|144:84|144:84|173:56,1,52.2499986047745,0|0,3:2|0:0,0:0:0:0:
419,120,128954,5,4,3:2:0:0:
385,129,129053,1,0,0:0:0:0:
348,109,129153,1,0,0:0:0:0:
304,123,129252,1,0,0:0:0:0:
293,217,129351,5,0,0:0:0:0:
339,192,129451,1,0,0:0:0:0:
403,203,129550,1,0,0:0:0:0:
440,185,129649,1,0,0:0:0:0:
409,285,129749,6,0,L|350:255,1,52.2499986047745,0|0,3:2|0:0,0:0:0:0:
190,184,129947,2,0,L|198:212,1,26.1249993023873,0|0,1:2|3:2,0:0:0:0:
231,362,130146,6,0,B|238:321|238:321|218:340,1,52.2499986047745
157,313,130345,2,0,B|150:354|150:354|168:335,1,52.2499986047745
251,106,130543,6,0,L|287:240,1,107.249995090485,4|0,3:1|0:0,0:0:0:0:
339,271,130941,2,0,B|329:266|329:266|254:288,1,71.4999967269899
161,200,131338,2,0,L|198:210,1,35.749998363495
55,34,131537,5,0,3:2:0:0:
66,100,131636,1,0,3:2:0:0:
76,169,131735,2,0,L|94:253,1,52.2499986047745,0|0,1:2|0:0,0:0:0:0:
271,282,131934,2,0,L|260:226,1,52.2499986047745,0|0,3:2|0:0,0:0:0:0:
50,342,132133,5,0,3:2:0:0:
109,310,132232,1,0,0:0:0:0:
172,335,132331,1,0,0:0:0:0:
208,306,132431,1,0,0:0:0:0:
296,339,132530,6,0,P|308:368|334:348,1,71.4999967269899,2|0,0:2|0:0,0:0:0:0:
198,199,132729,2,0,P|186:170|160:193,1,71.4999967269899,2|0,0:2|0:0,0:0:0:0:
408,341,132927,5,2,1:2:0:0:
471,326,133027,1,0,3:2:0:0:
477,261,133126,1,0,3:2:0:0:
416,235,133225,1,0,3:2:0:0:
489,341,133325,5,2,1:2:0:0:
499,246,133424,1,0,3:2:0:0:
413,210,133523,1,0,3:2:0:0:
350,282,133623,1,0,3:2:0:0:
512,221,133722,6,0,B|428:193|428:193|385:224|353:205|353:205,1,164.9999949646,4|0,3:1|0:0,0:0:0:0:
239,129,134318,1,2,3:2:0:0:
307,153,134417,1,0,3:2:0:0:
375,138,134517,1,2,1:2:0:0:
198,262,134715,2,0,L|200:177,1,55,0|0,3:2|0:0,0:0:0:0:
129,20,134914,6,0,P|134:58|133:86,1,54.4499998338318,0|0,3:2|0:0,0:0:0:0:
50,231,135312,2,0,B|60:229|71:217|71:217|110:222|140:230,1,82.5,8|0,3:2|0:0,0:0:0:0:
217,345,135709,6,0,P|181:358|179:324,1,71.4999967269899,2|0,0:2|0:0,0:0:0:0:
321,170,135908,1,2,3:2:0:0:
301,238,136007,1,0,3:2:0:0:
329,304,136106,5,2,1:2:0:0:
229,267,136305,1,0,3:2:0:0:
433,241,136504,6,0,P|476:234|507:199,1,71.4999967269899,0|0,3:2|0:0,0:0:0:0:
223,174,136702,2,0,P|187:170|159:148,1,71.4999967269899,2|0,3:2|0:0,0:0:0:0:
448,167,136901,6,0,B|471:147|504:148|504:148|463:130,1,98.9999969787599,14|0,3:2|0:0,0:0:0:0:
324,110,137298,1,0,3:2:0:0:
395,114,137398,1,0,3:2:0:0:
443,61,137497,2,0,B|462:27|462:27|425:45,1,71.4999967269899,0|0,3:2|0:0,0:0:0:0:
241,100,137696,6,0,B|235:46|235:46|266:85,1,71.4999967269899,0|0,1:2|0:0,0:0:0:0:
211,263,137894,2,0,B|205:317|205:317|236:274,1,71.4999967269899,0|0,3:2|0:0,0:0:0:0:
126,103,138093,2,0,B|120:49|120:49|149:89,1,71.4999967269899,0|0,3:2|0:0,0:0:0:0:
97,246,138292,2,0,B|91:300|91:300|123:258,1,71.4999967269899
51,88,138490,6,0,B|57:151|57:151|91:152|112:178|112:178|135:171|135:171|139:197,1,164.9999949646,10|0,3:2|0:0,0:0:0:0:
284,149,139086,1,0,3:2:0:0:
208,152,139186,1,0,3:2:0:0:
159,99,139285,6,0,B|197:96|197:96|239:135,1,71.4999967269899,0|0,1:2|0:0,0:0:0:0:
331,254,139484,2,0,B|293:257|293:257|247:220,1,71.4999967269899
261,65,139682,2,0,B|289:89|289:89|294:146,1,71.4999967269899,0|0,3:2|0:0,0:0:0:0:
232,295,139881,2,0,B|203:270|203:270|199:208,1,71.4999967269899,0|0,3:2|0:0,0:0:0:0:
361,62,140080,6,0,B|373:77|373:77|368:114|378:133|378:133|382:161|369:194,1,123.74999622345,4|0,3:1|0:0,0:0:0:0:
508,242,140676,1,2,3:2:0:0:
439,218,140775,1,0,3:2:0:0:
377,254,140874,5,2,1:2:0:0:
275,216,141073,1,0,3:2:0:0:
188,372,141272,5,2,3:2:0:0:
290,334,141470,1,0,3:2:0:0:
100,213,141669,6,0,B|76:210|76:210|67:243|94:278,1,82.5,8|0,3:2|0:0,0:0:0:0:
177,144,142066,5,2,3:2:0:0:
192,252,142265,1,0,3:2:0:0:
338,123,142464,5,2,1:2:0:0:
353,15,142663,1,0,3:2:0:0:
368,235,142861,6,0,P|381:252|386:221,1,71.4999967269899,2|0,3:2|0:0,0:0:0:0:
257,58,143060,2,0,P|244:41|240:72,1,71.4999967269899,2|0,3:2|0:0,0:0:0:0:
457,288,143259,6,0,B|440:318|370:330|370:330|340:304|299:290,1,164.9999949646,14|0,3:2|0:0,0:0:0:0:
179,358,143855,1,0,3:2:0:0:
240,319,143954,1,0,3:2:0:0:
258,247,144053,6,0,B|265:196|265:196|276:234,1,71.4999967269899,0|0,1:2|0:0,0:0:0:0:
66,296,144252,2,0,B|59:245|59:245|47:284,1,71.4999967269899,0|0,3:2|0:0,0:0:0:0:
240,117,144451,2,0,B|247:66|247:66|260:102,1,71.4999967269899,0|0,3:2|0:0,0:0:0:0:
60,167,144649,2,0,B|53:116|53:116|41:155,1,71.4999967269899
151,350,144848,6,0,B|144:282|144:282|156:306,1,82.5,10|0,3:2|0:0,0:0:0:0:
276,358,145245,6,0,P|228:328|202:353,1,71.4999967269899,2|0,0:2|0:0,0:0:0:0:
457,258,145444,2,0,P|505:228|534:254,1,71.4999967269899,2|0,3:2|0:0,0:0:0:0:
239,193,145643,5,2,1:2:0:0:
135,177,145841,1,0,3:2:0:0:
38,316,146040,5,2,3:2:0:0:
142,300,146239,1,0,3:2:0:0:
294,113,146437,6,0,B|253:105|251:132|207:119|207:119|192:122,1,98.9999969787599,14|0,3:2|0:0,0:0:0:0:
302,40,146835,1,0,3:2:0:0:
362,78,146934,1,0,3:2:0:0:
432,62,147033,2,0,B|468:51|468:51|431:88,1,71.4999967269899,2|0,3:2|0:0,0:0:0:0:
409,243,147232,2,0,B|396:258|396:258|409:130,1,110,2|0,1:2|3:2,0:0:0:0:
315,284,147629,6,0,B|320:294|320:294|313:369,1,82.5,2|0,3:2|0:0,0:0:0:0:
206,218,148027,2,0,B|203:251|214:288|214:288|208:300,1,82.5,10|0,3:2|0:0,0:0:0:0:
287,154,148424,1,2,0:2:0:0:
109,244,148623,1,0,3:2:0:0:
136,178,148722,1,0,3:2:0:0:
113,109,148821,6,0,P|93:98|91:146,1,71.4999967269899,10|0,1:2|0:0,0:0:0:0:
132,329,149020,2,0,P|152:340|158:296,1,71.4999967269899,2|0,3:2|0:0,0:0:0:0:
11,165,149219,5,0,3:2:0:0:
226,239,149417,1,0,3:2:0:0:
296,250,149517,2,0,P|292:272|279:293,1,35.749998363495
354,209,149616,6,0,B|365:242|365:242|361:290|353:308,1,98.9999969787599,14|0,3:2|0:0,0:0:0:0:
227,374,150014,1,0,3:2:0:0:
297,358,150113,1,0,3:2:0:0:
366,375,150212,1,2,3:2:0:0:
157,346,150411,2,0,B|67:358|67:358|95:322,1,110,10|0,1:2|3:2,0:0:0:0:
0,188,150808,6,0,B|63:194|63:194|92:184|111:199,1,98.9999969787599,2|0,3:2|0:0,0:0:0:0:
250,261,151206,2,0,B|223:266|223:266|188:266|188:266|166:281|139:269,1,98.9999969787599,12|0,3:2|0:0,0:0:0:0:
84,263,151603,1,2,0:2:0:0:
270,189,151802,1,0,3:2:0:0:
322,236,151901,1,0,0:0:0:0:
393,242,152000,5,10,1:2:0:0:
499,195,152199,1,2,3:2:0:0:
444,339,152398,5,8,1:2:0:0:
409,143,152596,1,0,3:2:0:0:
395,73,152696,2,0,P|370:81|349:97,1,35.749998363495
432,13,152795,6,0,B|397:-3|367:8|367:8|334:0|308:1,1,98.9999969787599,4|0,3:1|0:0,0:0:0:0:
273,136,153192,1,0,3:2:0:0:
294,68,153292,1,0,3:2:0:0:
255,8,153391,2,0,B|236:-8|236:-8|229:56,1,71.4999967269899,0|0,3:2|0:0,0:0:0:0:
219,236,153590,5,10,1:2:0:0:
321,209,153788,1,0,3:2:0:0:
218,364,153987,6,0,B|185:358|185:358|161:361|162:361|139:353|125:335|103:368,1,98.9999969787599,2|0,3:2|0:0,0:0:0:0:
0,217,154384,2,0,B|-6:228|-6:228|20:225|44:216|64:222|64:222|80:202|105:224,1,98.9999969787599,2|0,3:2|0:0,0:0:0:0:
124,268,154782,1,2,3:2:0:0:
120,66,154980,1,2,3:2:0:0:
107,139,155080,1,0,0:0:0:0:
152,199,155179,5,10,1:2:0:0:
14,143,155378,1,2,0:2:0:0:
205,267,155576,6,0,P|236:244|279:263,1,65.9999979858399,2|0,3:2|0:0,0:0:0:0:
307,62,155775,2,0,P|276:85|233:67,1,65.9999979858399,2|0,0:2|0:0,0:0:0:0:
258,318,155974,6,0,B|309:314|309:314|330:278|353:302,1,98.9999969787599,6|0,3:2|0:0,0:0:0:0:
469,378,156371,1,2,0:2:0:0:
412,336,156470,1,0,0:0:0:0:
408,263,156570,1,0,3:2:0:0:
485,125,156768,5,10,1:2:0:0:
474,238,156967,1,0,3:2:0:0:
400,92,157166,6,0,B|386:63|386:63|395:41|387:26|387:26|394:-8,1,82.5,2|0,3:2|0:0,0:0:0:0:
291,122,157563,2,0,B|292:142|292:142|283:156|290:179|290:179|331:227|291:284,1,165,14|2,3:2|3:2,0:0:0:0:
264,296,158225,1,0,3:2:0:0:
241,290,158292,1,0,3:2:0:0:
220,283,158358,5,14,1:2:0:0:
21,360,158557,1,0,3:2:0:0:
112,170,158755,5,0,3:2:0:0:
165,344,158954,1,0,0:0:0:0:
4,58,159153,6,0,L|163:67,1,154,4|0,0:2|0:0,0:0:0:0:
227,23,160742,2,0,L|311:29,1,77
303,28,161540,6,0,P|295:75|327:120,1,88,2|0,0:2|0:0,0:0:0:0:
400,144,162136,2,0,L|363:152,1,22
239,170,162326,6,0,P|231:243|301:178,1,220,2|0,3:2|0:0,0:0:0:0:
243,100,163319,1,0,0:0:0:0:
199,113,163518,1,0,0:0:0:0:
114,99,163716,1,0,0:0:0:0:
14,16,163915,2,0,B|22:64|22:64|16:71|16:71|22:91|22:91|18:95|18:95|44:142|38:226,1,197.99999395752,2|0,0:2|0:0,0:0:0:0:
13,351,164690,6,0,B|31:339|31:339|55:343|55:343|63:333|63:333|74:330|74:330|99:333|99:333|97:325|97:325|101:322|101:322,1,98.9999969787599,2|0,0:2|0:0,0:0:0:0:
126,280,165095,2,0,B|116:289|116:289|91:286|91:286|80:289|80:289|72:299|72:299|48:295|48:295|30:306|30:306,1,98.9999969787599,2|0,0:2|0:0,0:0:0:0:
205,379,165485,6,0,B|186:333|186:333|205:256,1,99.3365969787598,4|0,3:3|0:0,0:0:0:0:
239,96,165882,1,2,0:2:0:0:
245,144,165981,1,2,0:2:0:0:
251,193,166081,1,2,0:2:0:0:
268,325,166279,1,2,0:2:0:0:
375,160,166478,6,0,L|300:176,1,49.6682984893798,2|0,0:2|0:0,0:0:0:0:
404,320,166677,2,0,L|479:336,1,49.6682984893798,2|0,0:2|0:0,0:0:0:0:
407,132,166875,2,0,L|332:148,1,49.6682984893798
375,291,167074,6,0,B|452:305|452:305|480:291,1,99.3365969787598,0|0,0:0|3:2,0:0:0:0:
247,182,167471,2,0,B|229:183|229:183|210:192|210:192|189:192|189:192|176:202|176:202|158:197|158:197|138:206|138:206|117:183|76:177,1,148.50659546814,0|0,3:3|0:0,0:0:0:0:
25,266,167869,6,0,P|85:262|99:251,1,49.6682984893798,2|0,3:2|0:0,0:0:0:0:
92,85,168067,2,0,P|65:138|67:156,1,49.6682984893798,2|0,3:2|0:0,0:0:0:0:
228,244,168266,6,0,B|211:207|211:207|179:186,1,66.0029333333333,8|0,0:2|0:0,0:0:0:0:
180,304,168663,6,0,B|227:325|227:325|313:284,1,99.3365969787598,4|0,3:3|0:0,0:0:0:0:
466,232,169061,1,2,0:2:0:0:
423,207,169160,1,2,0:2:0:0:
378,186,169259,1,2,0:2:0:0:
268,128,169458,1,0,0:0:0:0:
459,92,169657,6,0,L|470:178,1,49.6682984893798
390,322,169855,2,0,B|398:299|398:299|380:273|380:273|406:227|375:182,1,148.50659546814,0|0,3:2|0:0,0:0:0:0:
297,111,170253,5,0,0:0:0:0:
459,92,170451,1,0,3:2:0:0:
320,232,170650,1,0,3:3:0:0:
271,225,170749,1,0,0:0:0:0:
221,218,170849,1,0,0:0:0:0:
59,205,171047,5,0,3:2:0:0:
232,292,171246,1,2,0:2:0:0:
210,92,171445,1,2,0:2:0:0:
139,300,171643,6,0,P|129:260|133:238,1,49.6682984893798,2|0,0:2|0:0,0:0:0:0:
210,92,171842,2,0,P|139:114|69:102,1,99.3365969787598,4|0,3:3|0:0,0:0:0:0:
287,173,172239,5,2,0:2:0:0:
323,130,172339,1,2,0:2:0:0:
375,149,172438,1,2,3:2:0:0:
507,205,172637,1,0,0:0:0:0:
443,33,172835,6,0,B|448:74|448:74|434:64,1,50.1665984893798
438,219,173034,2,0,B|433:178|433:178|447:188,1,49.6682984893798,0|0,3:2|0:0,0:0:0:0:
416,27,173233,2,0,B|421:68|421:68|407:58,1,49.6682984893798
412,213,173432,5,2,0:2:0:0:
331,44,173630,6,0,B|289:47|289:47|302:59,1,49.6682984893798,0|0,3:2|0:0,0:0:0:0:
95,110,173829,2,0,B|136:106|136:106|123:94,1,49.6682984893798,0|0,3:2|0:0,0:0:0:0:
341,68,174028,2,0,B|299:71|299:71|312:83,1,49.6682984893798
117,212,174226,6,0,P|173:207|199:184,1,60.7057018463134,0|0,3:2|0:0,0:0:0:0:
231,0,174425,2,0,P|207:50|214:85,1,60.7057018463134,4|0,3:3|0:0,0:0:0:0:
356,213,174624,6,0,B|338:177|338:177|300:153,1,66.0029333333333,8|0,3:2|0:0,0:0:0:0:
318,277,175021,6,0,B|373:288|373:288|410:266,1,99.3365969787598,4|0,3:3|0:0,0:0:0:0:
232,207,175418,1,2,0:2:0:0:
182,216,175518,1,2,0:2:0:0:
133,226,175617,1,2,3:2:0:0:
3,256,175816,1,0,3:2:0:0:
173,373,176014,6,0,L|162:318,1,49.6682984893798
116,138,176213,1,2,0:2:0:0:
124,161,176312,1,0,0:0:0:0:
76,149,176412,6,0,P|42:147|7:160,1,49.6682984893798,2|0,3:2|0:0,0:0:0:0:
203,38,176610,2,0,B|221:37|230:26|230:26|296:20|359:53,1,148.50659546814,2|0,0:2|0:0,0:0:0:0:
422,113,177008,5,2,0:2:0:0:
278,97,177206,1,2,0:2:0:0:
456,245,177405,5,2,3:2:0:0:
433,35,177604,1,0,0:0:0:0:
369,213,177802,6,0,L|377:275,1,49.5021984893798,10|0,0:2|0:0,0:0:0:0:
414,157,178200,6,0,B|385:142|385:142|299:153|299:153|222:120,1,154.523595300293,4|0,3:1|0:0,0:0:0:0:
47,44,178597,5,2,0:2:0:0:
97,31,178696,1,2,0:2:0:0:
147,16,178796,1,2,3:2:0:0:
67,250,178994,6,0,B|72:238|72:238|64:167,1,74.2532977340698,0|0,3:2|0:0,0:0:0:0:
123,312,179392,2,0,B|118:324|118:324|126:395,1,74.2532977340698
238,234,179789,2,0,B|226:239|226:239|193:229|193:229|155:231,1,74.2532977340698,2|0,3:2|0:0,0:0:0:0:
224,164,180186,5,0,0:0:0:0:
303,187,180385,1,0,0:0:0:0:
192,93,180584,6,0,B|137:104|137:104|176:135,1,66.2243979858398,2|0,3:2|0:0,0:0:0:0:
307,258,180783,2,0,B|362:247|362:247|323:216,1,66.2243979858398,2|0,0:2|0:0,0:0:0:0:
203,70,180981,6,0,L|107:87,1,82.5036666666666,10|0,0:2|0:0,0:0:0:0:
268,134,181379,6,0,L|401:152,1,104.855297209549,4|0,3:3|0:0,0:0:0:0:
512,287,181776,1,2,0:2:0:0:
460,294,181875,1,2,0:2:0:0:
407,301,181975,1,2,0:2:0:0:
176,245,182173,1,2,3:2:0:0:
335,360,182372,6,0,L|331:292,1,52.4276486047744
268,134,182571,2,0,B|258:160|258:160|276:177|276:177|236:229|274:300,1,156.75696248099,2|0,0:2|0:0,0:0:0:0:
338,238,182968,5,0,3:2:0:0:
166,162,183167,1,0,0:0:0:0:
203,351,183365,1,2,0:2:0:0:
210,300,183465,1,2,0:2:0:0:
216,248,183564,1,2,0:2:0:0:
98,106,183763,5,0,3:2:0:0:
136,273,183961,1,0,0:0:0:0:
218,61,184160,6,0,B|186:81|186:81|267:127|304:11|409:105,1,231.010259617106,10|0,0:2|0:0,0:0:0:0:
330,245,184557,6,0,B|315:222|315:222|326:125,1,104.855297209549,4|0,3:3|0:0,0:0:0:0:
453,308,184955,1,2,0:2:0:0:
392,290,185054,1,2,0:2:0:0:
350,336,185153,1,2,0:2:0:0:
377,359,185253,1,0,0:0:0:0:
324,318,185352,6,0,L|230:329,1,52.4276486047744,0|0,3:2|0:0,0:0:0:0:
194,186,185551,2,0,L|288:197,1,52.4276486047744
191,335,185749,5,2,0:2:0:0:
126,339,185849,1,0,0:0:0:0:
104,280,185948,1,0,0:0:0:0:
150,239,186047,1,0,0:0:0:0:
66,266,186147,6,0,B|49:249|56:218|56:218|40:208|40:208|59:176|53:147,1,107.254761757152,0|0,3:2|0:0,0:0:0:0:
64,8,186544,5,2,0:2:0:0:
113,47,186643,1,2,0:2:0:0:
93,106,186743,1,2,0:2:0:0:
30,102,186842,1,0,0:0:0:0:
125,144,186941,6,0,L|225:126,1,63.4650512063979,2|0,3:2|0:0,0:0:0:0:
274,286,187140,2,0,L|211:297,1,63.4650512063979,2|0,0:2|0:0,0:0:0:0:
130,115,187339,6,0,B|188:107|188:107|206:90,1,71.7430967269898,10|0,0:2|0:0,0:0:0:0:
268,46,187637,1,0,0:0:0:0:
268,46,187736,6,0,B|352:61|352:61|369:105,1,104.855297209549,4|0,3:3|0:0,0:0:0:0:
403,261,188134,1,2,0:2:0:0:
351,253,188233,1,2,0:2:0:0:
299,244,188332,1,2,0:2:0:0:
99,211,188531,1,0,3:2:0:0:
248,114,188730,6,0,L|257:180,1,52.4276486047744,2|0,0:2|0:0,0:0:0:0:
176,330,188928,2,0,B|178:305|194:289|194:289|191:277|173:260|173:260|177:243|197:224|197:224|174:201|174:151,1,181.508072205607,2|0,0:2|0:0,0:0:0:0:
103,96,189326,6,0,B|114:112|133:111|133:111|150:98|173:95|173:95|195:108|247:112,1,104.855297209549,0|0,3:2|0:0,0:0:0:0:
369,66,189723,2,0,L|303:82,1,52.4276486047744,2|0,0:2|0:0,0:0:0:0:
274,231,189922,2,0,L|340:215,1,52.4276486047744,0|0,3:2|3:2,0:0:0:0:
457,167,190120,5,2,3:2:0:0:
386,349,190319,2,0,P|393:314|369:259,1,68.9837499999999,2|0,0:2|0:0,0:0:0:0:
295,108,190518,5,2,3:2:0:0:
320,316,190716,1,2,3:2:0:0:
343,47,190937,5,4,3:1:0:0:
301,29,191036,1,0,0:0:0:0:
271,40,191135,1,0,0:0:0:0:
249,44,191235,1,0,0:0:0:0:
200,37,191334,5,2,3:2:0:0:
229,102,191433,1,0,3:2:0:0:
203,168,191533,1,2,3:2:0:0:
0,107,191731,6,0,L|103:117,1,71.4999967269899,10|0,1:2|0:0,0:0:0:0:
185,246,191930,2,0,L|85:253,1,71.4999967269899,2|0,3:2|0:0,0:0:0:0:
31,91,192129,5,2,3:2:0:0:
54,87,192228,1,0,0:0:0:0:
81,94,192327,1,0,0:0:0:0:
106,88,192427,1,0,0:0:0:0:
158,179,192526,5,10,3:2:0:0:
153,151,192625,1,0,0:0:0:0:
215,118,192725,1,2,0:2:0:0:
220,83,192824,1,0,0:0:0:0:
167,36,192923,2,0,P|198:44|244:28,1,71.4999967269899,2|0,0:2|0:0,0:0:0:0:
463,137,193122,5,2,3:2:0:0:
384,113,193221,1,0,3:2:0:0:
301,148,193321,6,0,L|319:210,1,63.250001206398,10|0,1:2|0:0,0:0:0:0:
512,258,193519,2,0,L|491:320,1,63.250001206398,0|0,3:2|0:0,0:0:0:0:
331,162,193718,6,0,L|349:224,1,63.250001206398,2|0,3:2|0:0,0:0:0:0:
487,243,193917,2,0,L|466:303,1,63.250001206398,0|0,3:2|0:0,0:0:0:0:
213,188,194115,5,6,3:2:0:0:
186,182,194215,1,0,0:0:0:0:
153,199,194314,1,0,0:0:0:0:
134,193,194413,1,0,0:0:0:0:
109,171,194513,5,2,3:2:0:0:
127,243,194612,1,0,3:2:0:0:
88,305,194711,1,2,3:2:0:0:
300,207,194910,6,0,L|373:219,1,71.4999967269899,8|0,1:2|0:0,0:0:0:0:
212,345,195109,2,0,L|137:358,1,71.4999967269899,2|0,3:2|0:0,0:0:0:0:
284,159,195307,5,2,3:2:0:0:
324,178,195407,1,0,0:0:0:0:
359,173,195506,1,0,0:0:0:0:
378,179,195605,1,0,0:0:0:0:
353,288,195705,6,0,B|347:242|347:242|309:280,1,71.4999967269899,10|0,3:2|0:0,0:0:0:0:
468,177,195903,2,0,B|474:131|474:131|511:170,1,71.4999967269899,2|0,0:2|0:0,0:0:0:0:
357,80,196102,2,0,B|351:34|351:34|314:73,1,71.4999967269899,2|0,0:2|0:0,0:0:0:0:
398,298,196301,5,2,3:2:0:0:
395,278,196367,1,0,3:2:0:0:
393,262,196433,1,0,3:2:0:0:
391,246,196499,6,0,L|281:276,1,71.4999967269899,10|0,1:2|0:0,0:0:0:0:
141,165,196698,2,0,L|254:195,1,71.4999967269899,2|0,3:2|0:0,0:0:0:0:
421,268,196897,6,0,L|310:299,1,71.4999967269899,2|0,3:2|0:0,0:0:0:0:
129,128,197095,2,0,L|240:161,1,71.4999967269899,2|0,3:2|0:0,0:0:0:0:
383,355,197294,5,6,3:2:0:0:
353,361,197393,1,0,0:0:0:0:
312,342,197493,1,2,0:2:0:0:
263,341,197592,1,0,0:0:0:0:
232,363,197691,5,2,3:2:0:0:
257,295,197791,1,0,3:2:0:0:
221,233,197890,1,2,3:2:0:0:
74,72,198089,5,10,1:2:0:0:
98,127,198188,1,0,0:0:0:0:
57,192,198287,2,0,P|50:217|83:202,1,71.4999967269899,2|0,3:2|0:0,0:0:0:0:
208,4,198486,5,2,3:2:0:0:
203,33,198586,1,0,0:0:0:0:
225,70,198685,1,0,0:0:0:0:
230,106,198784,1,0,0:0:0:0:
150,173,198884,5,8,3:2:0:0:
175,160,198983,1,0,0:0:0:0:
215,176,199082,1,2,0:2:0:0:
256,174,199182,1,2,0:2:0:0:
298,135,199281,2,0,B|284:193|284:193|306:257,1,82.5000031471254,2|0,0:2|0:0,0:0:0:0:
428,324,199480,5,2,3:2:0:0:
423,309,199546,1,0,3:2:0:0:
418,292,199612,1,0,3:2:0:0:
412,275,199678,6,0,L|388:191,1,71.4999967269899,10|0,1:2|0:0,0:0:0:0:
489,77,199877,2,0,L|465:176,1,71.4999967269899,0|0,3:2|0:2,0:0:0:0:
372,300,200076,5,2,3:2:0:0:
347,218,200175,1,0,0:0:0:0:
327,137,200274,2,0,B|314:94|314:94|327:60,1,71.4999967269899,2|0,3:2|0:0,0:0:0:0:
239,355,200473,5,6,3:2:0:0:
253,325,200572,1,0,0:0:0:0:
243,283,200672,1,0,0:0:0:0:
248,251,200771,1,0,0:0:0:0:
277,225,200870,5,2,3:2:0:0:
211,252,200970,1,2,3:2:0:0:
145,224,201069,1,2,3:2:0:0:
97,48,201268,5,10,1:2:0:0:
144,100,201367,1,0,0:0:0:0:
156,153,201466,2,0,P|154:190|130:255,1,71.4999967269899,2|0,3:2|0:0,0:0:0:0:
33,328,201665,5,2,3:2:0:0:
111,292,201764,2,0,P|136:304|115:332,1,71.4999967269899
21,309,201963,1,0,0:0:0:0:
76,227,202062,6,0,P|111:217|158:230,1,71.4999967269899,10|0,3:2|0:0,0:0:0:0:
246,344,202261,1,0,0:0:0:0:
234,315,202360,1,0,0:0:0:0:
251,290,202460,1,0,0:0:0:0:
245,255,202559,1,0,0:0:0:0:
223,235,202658,5,2,3:2:0:0:
292,253,202758,1,0,3:2:0:0:
357,224,202857,1,8,1:2:0:0:
201,346,203056,5,0,0:0:0:0:
284,367,203155,1,0,0:0:0:0:
366,345,203254,6,0,L|464:315,1,71.4999967269899,8|0,1:2|0:0,0:0:0:0:
287,176,203453,2,0,L|190:206,1,71.4999967269899
506,331,203652,5,6,3:2:0:0:
504,287,203751,1,0,0:0:0:0:
475,258,203850,1,0,0:0:0:0:
464,240,203950,1,0,0:0:0:0:
492,172,204049,5,2,3:2:0:0:
416,201,204148,1,2,3:2:0:0:
345,166,204248,1,2,3:2:0:0:
343,201,204347,1,0,0:0:0:0:
367,279,204446,5,2,1:2:0:0:
300,254,204546,1,0,0:0:0:0:
250,276,204645,1,2,3:2:0:0:
223,267,204744,1,0,0:0:0:0:
166,183,204844,5,2,3:2:0:0:
154,212,204943,1,0,0:0:0:0:
174,258,205042,1,0,0:0:0:0:
143,309,205142,1,0,0:0:0:0:
64,270,205241,5,2,3:2:0:0:
98,201,205340,1,0,0:0:0:0:
67,141,205440,1,2,3:2:0:0:
85,124,205539,1,0,0:0:0:0:
219,168,205638,2,0,L|106:143,1,71.4999967269899,2|2,0:2|0:2,0:0:0:0:
216,339,205837,5,2,3:2:0:0:
236,337,205903,1,0,3:2:0:0:
252,335,205970,1,0,3:2:0:0:
271,333,206036,6,0,B|289:303|289:303|353:290,1,71.4999967269899,2|0,1:2|0:0,0:0:0:0:
491,334,206235,2,0,L|392:360,1,71.4999967269899,2|0,3:2|0:0,0:0:0:0:
340,157,206433,5,2,3:2:0:0:
391,235,206533,1,2,0:2:0:0:
470,213,206632,1,2,3:2:0:0:
483,145,206731,1,0,0:0:0:0:
340,157,206831,6,0,B|327:171|327:171|239:165,1,90.7500027694703,6|0,3:2|0:0,0:0:0:0:
161,62,207228,5,0,3:2:0:0:
199,120,207327,1,0,3:2:0:0:
187,190,207427,1,0,3:2:0:0:
88,338,207625,5,0,1:2:0:0:
112,136,207824,1,2,3:2:0:0:
206,297,208023,6,0,L|124:299,1,55,2|0,3:2|0:0,0:0:0:0:
48,239,208221,2,0,L|102:238,1,55,2|0,0:2|0:0,0:0:0:0:
285,217,208420,5,2,3:2:0:0:
184,369,208619,1,2,3:2:0:0:
200,139,208817,6,0,L|221:222,1,55,2|0,0:2|0:0,0:0:0:0:
245,313,209016,1,2,3:2:0:0:
328,95,209215,6,0,P|392:111|342:60,1,165,2|0,1:2|0:0,0:0:0:0:
267,149,209612,5,2,3:2:0:0:
305,188,209711,1,0,3:2:0:0:
357,202,209811,1,0,3:2:0:0:
411,194,209910,1,0,3:2:0:0:
474,115,210009,6,0,L|488:250,1,110,6|0,3:2|0:0,0:0:0:0:
421,340,210307,1,0,0:0:0:0:
427,288,210407,1,0,3:2:0:0:
362,302,210506,1,0,3:2:0:0:
302,273,210605,2,0,P|333:268|361:274,1,55,0|0,3:2|0:0,0:0:0:0:
183,359,210804,6,0,L|164:281,1,55,0|0,1:2|0:0,0:0:0:0:
237,171,211003,2,0,L|224:208,2,36.6666666666667,2|0|0,3:2|0:0|0:0,0:0:0:0:
120,158,211201,6,0,L|106:118,2,36.6666666666667
211,75,211400,1,2,3:2:0:0:
271,22,211499,1,0,0:0:0:0:
359,75,211599,6,0,L|412:106,2,36.6666666666667,2|0|0,3:2|0:0|0:0,0:0:0:0:
462,52,211797,2,0,L|512:18,2,36.6666666666667
463,160,211996,5,2,3:2:0:0:
454,181,212062,1,2,0:2:0:0:
433,214,212129,1,2,0:2:0:0:
445,239,212195,2,0,L|461:302,2,36.6666666666667,2|0|0,3:2|0:0|0:0,0:0:0:0:
478,353,212393,5,2,1:2:0:0:
441,359,212460,1,0,0:0:0:0:
403,338,212526,1,0,0:0:0:0:
375,345,212592,2,0,L|329:335,2,36.6666666666667,2|0|0,3:2|0:0|0:0,0:0:0:0:
258,383,212791,5,2,3:2:0:0:
264,360,212857,1,0,0:0:0:0:
263,337,212923,1,0,0:0:0:0:
242,301,212989,1,2,3:2:0:0:
238,276,213056,1,0,0:0:0:0:
251,246,213122,1,0,0:0:0:0:
276,203,213188,5,4,0:2:0:0:
227,212,213254,1,0,0:0:0:0:
194,211,213321,1,0,0:0:0:0:
166,204,213387,2,0,P|131:191|86:204,1,55,2|0,0:2|0:0,0:0:0:0:
40,308,213586,5,2,3:2:0:0:
69,249,213685,1,2,3:2:0:0:
42,188,213784,1,2,3:2:0:0:
17,23,213983,5,2,1:2:0:0:
58,41,214049,1,0,0:0:0:0:
100,45,214115,1,0,0:0:0:0:
121,37,214182,2,0,L|174:46,2,36.6666666666667,2|0|0,3:2|0:0|0:0,0:0:0:0:
206,133,214380,5,2,3:2:0:0:
223,128,214446,1,0,0:0:0:0:
251,129,214513,1,0,0:0:0:0:
286,152,214579,1,2,0:2:0:0:
322,149,214645,1,0,0:0:0:0:
357,128,214711,1,0,0:0:0:0:
373,87,214778,5,2,3:2:0:0:
387,132,214844,1,0,0:0:0:0:
398,158,214910,1,0,0:0:0:0:
412,178,214976,2,0,L|441:205,2,36.6666666666667
388,269,215175,2,0,L|440:289,2,36.6666666666667,2|0|0,0:2|0:0|0:0,0:0:0:0:
273,230,215374,5,2,3:2:0:0:
283,265,215440,1,2,3:2:0:0:
293,299,215506,1,2,3:2:0:0:
303,334,215572,6,0,L|297:379,3,36.6666666666667,2|0|0|0,1:2|0:0|0:0|3:2,0:0:0:0:
203,259,215837,2,0,L|191:221,3,36.6666666666667,2|0|0|0,3:2|0:0|3:2|0:0,0:0:0:0:
71,303,216102,5,2,3:2:0:0:
76,288,216168,1,2,3:2:0:0:
73,269,216235,1,2,0:0:0:0:
65,246,216301,1,2,0:0:0:0:
52,228,216367,6,0,B|141:257|201:244|201:244|248:200|316:220|316:220|354:260|432:231|432:231|415:233|415:233|401:220|401:220|381:221,1,445.421310907732,4|0,0:2|0:0,0:0:0:0:
79,326,222526,5,4,0:3:0:0:
72,272,222625,1,4,0:3:0:0:
63,220,222725,1,4,0:3:0:0:
6,373,222923,1,4,0:3:0:0:
168,340,223122,6,0,P|224:334|252:343,1,74.2499977340699,8|0,0:3|0:0,0:0:0:0:
241,339,223519,2,0,P|225:273|301:309,1,173.24999471283
300,288,224314,2,0,P|339:332|374:335,1,74.2499977340699
351,335,224711,6,0,L|386:333,1,24.74999924469
443,327,224910,2,0,L|477:325,1,24.74999924469
395,249,225109,6,0,L|358:246,1,24.74999924469
302,240,225307,2,0,L|269:237,1,24.74999924469
221,162,225506,2,0,L|318:156,1,74.2499977340699
426,169,225903,6,0,P|395:171|407:68,1,173.24999471283
397,68,226698,2,0,B|350:102|318:73|274:45|220:81,1,173.24999471283
230,74,227493,2,0,P|250:126|229:158,1,74.2499977340699
244,140,227890,2,0,L|251:174,1,24.74999924469
270,232,228089,2,0,L|276:265,1,24.74999924469
422,337,228287,5,0,3:2:0:0:
428,304,228387,1,0,3:2:0:0:
434,271,228486,5,0,3:2:0:0:
385,278,228586,1,0,3:2:0:0:
336,286,228685,2,0,L|275:296,1,55,8|0,0:2|0:0,0:0:0:0:
423,191,228884,2,0,L|483:200,1,55
279,138,229082,5,0,0:0:0:0:
370,118,229281,1,8,0:3:0:0:
343,212,229480,2,0,P|277:222|234:247,1,110,8|0,0:3|0:0,0:0:0:0:
183,303,230076,5,8,0:3:0:0:
210,136,230274,2,0,L|198:21,1,110,12|0,0:3|0:0,0:0:0:0:
132,75,230870,5,8,0:3:0:0:
307,116,231069,2,0,P|335:106|379:106,1,55,12|0,0:3|0:0,0:0:0:0:
452,187,231466,5,4,0:3:0:0:
462,29,231665,1,8,0:3:0:0:
351,171,231864,1,12,0:3:0:0:
366,189,231963,2,0,B|382:209|382:209|379:170,1,55
416,109,232261,5,4,0:3:0:0:
438,280,232460,1,8,0:3:0:0:
336,192,232658,6,0,B|370:181|370:181|356:205,1,44,2|0,0:2|0:0,0:0:0:0:
299,296,232857,2,0,B|333:307|333:307|318:283,1,44
213,198,233056,2,0,B|247:187|247:187|231:212,1,44,2|0,0:2|0:0,0:0:0:0:
204,316,233254,1,2,0:2:0:0:
230,314,233354,1,0,0:0:0:0:
181,302,233453,6,0,B|188:336|188:336|159:329,1,44
100,233,233652,2,0,B|93:267|93:267|123:259,1,44
185,136,233850,6,0,B|194:133|194:133|187:169,1,44,2|0,0:2|0:0,0:0:0:0:
106,60,234049,2,0,B|96:57|96:57|103:93,1,44,2|0,0:2|0:0,0:0:0:0:
100,233,234248,5,10,3:2:0:0:
116,226,234347,1,0,0:0:0:0:
133,239,234446,1,0,0:0:0:0:
162,233,234546,1,0,0:0:0:0:
228,248,234645,5,10,0:2:0:0:
214,195,234744,1,0,0:0:0:0:
237,155,234844,1,10,0:2:0:0:
239,125,234943,1,0,0:0:0:0:
198,70,235042,2,0,B|313:112|219:36|310:28|300:107|316:59|377:66,1,165,10|0,0:2|0:0,0:0:0:0:
464,27,235440,1,10,0:2:0:0:
416,216,235638,5,10,0:2:0:0:
432,147,235738,1,0,0:0:0:0:
425,94,235837,2,0,B|447:110|459:108|489:100,1,55,10|0,0:2|0:0,0:0:0:0:
304,194,236036,2,0,B|283:205|269:209|238:200,1,55
331,40,236235,6,0,B|343:67|344:78|324:136,1,55
449,242,236433,1,2,0:2:0:0:
453,225,236533,1,2,0:2:0:0:
398,174,236632,2,0,B|320:262|295:141|370:213|267:190,1,110,10|0,0:2|0:0,0:0:0:0:
262,255,236930,1,0,0:0:0:0:
290,263,237029,1,0,0:0:0:0:
187,139,237228,6,0,B|167:129|159:133|135:152,1,55,2|0,0:2|0:0,0:0:0:0:
169,271,237427,2,0,B|186:258|187:249|183:217,1,55,2|0,0:2|0:0,0:0:0:0:
71,189,237625,2,0,B|73:210|80:215|106:229,1,55,2|0,0:2|0:0,0:0:0:0:
218,114,237824,6,0,B|205:96|196:95|165:98,1,55,2|0,0:2|0:0,0:0:0:0:
181,300,238023,2,0,B|202:297|207:290|220:260,1,55
37,175,238221,2,0,B|27:194|31:202|77:222|57:298,1,110,2|0,0:2|0:0,0:0:0:0:
249,341,238619,5,2,3:2:0:0:
254,308,238718,1,0,3:2:0:0:
259,275,238817,1,0,3:2:0:0:
264,242,238917,1,0,3:2:0:0:
270,209,239016,1,0,3:2:0:0:
294,231,239115,1,0,3:2:0:0:
316,255,239215,5,8,3:2:0:0:
310,186,239314,1,0,3:2:0:0:
382,154,239413,5,0,3:2:0:0:
374,208,239513,1,0,3:2:0:0:
402,250,239612,1,0,3:2:0:0:
411,293,239711,1,0,3:2:0:0:
359,341,239811,1,0,3:2:0:0:
353,360,239910,1,0,3:2:0:0:
344,384,240009,5,8,3:2:0:0:
410,369,240109,1,0,3:2:0:0:
474,362,240208,6,0,L|531:374,5,36.6666666666667,2|0|0|0|0|0,3:2|3:2|3:2|3:2|3:2|3:2,0:0:0:0:
446,277,240605,5,2,3:2:0:0:
453,259,240672,1,0,3:2:0:0:
453,237,240738,1,0,3:2:0:0:
441,203,240804,1,0,3:2:0:0:
410,179,240870,1,0,3:2:0:0:
367,174,240936,1,0,3:2:0:0:
330,190,241003,6,0,L|349:253,2,36.6666666666667,2|0|0,3:2|3:2|3:2,0:0:0:0:
236,92,241201,2,0,L|218:158,2,36.6666666666667,0|0|0,3:2|3:2|3:2,0:0:0:0:
231,230,241400,5,2,3:2:0:0:
124,32,241599,1,2,3:2:0:0:
155,94,241698,1,2,0:2:0:0:
129,181,241797,6,0,B|103:234|137:268|137:268|78:276|82:370|162:367|178:325|178:325|261:275|236:382|374:318,1,461.999985900879,4|0,0:1|0:0,0:0:0:0:
477,244,244976,5,4,0:3:0:0:
345,262,245175,1,8,0:3:0:0:
387,322,245374,1,8,0:3:0:0:
453,176,245572,1,4,0:3:0:0:
453,176,245970,5,8,0:3:0:0:
446,151,246069,1,8,0:3:0:0:
439,126,246168,1,4,0:3:0:0:
439,126,246566,6,0,P|405:143|348:141,1,96.25,2|0,0:2|0:0,0:0:0:0:
347,140,247360,2,0,P|321:134|269:143,1,66,2|0,0:2|0:0,0:0:0:0:
282,137,247788,6,0,L|277:100,1,22,2|0,0:2|0:0,0:0:0:0:
212,188,247992,2,0,L|214:156,1,22
300,255,248181,6,0,P|315:303|281:277,1,110,2|0,0:2|0:0,0:0:0:0:
284,292,248777,2,0,P|249:276|171:289,1,110
179,284,249373,2,0,P|131:291|67:258,1,115.49999647522,2|0,0:2|0:0,0:0:0:0:
71,263,250141,2,0,P|48:220|85:137,1,134.749995887756,2|0,0:2|0:0,0:0:0:0:
75,143,250976,6,0,P|46:147|17:143,1,57.7525649042765,2|0,0:2|0:0,0:0:0:0:
17,143,251373,2,0,P|46:139|80:143,1,57.7499982376099,2|0,0:2|0:0,0:0:0:0:
182,151,251770,6,0,P|159:122|145:89,1,74.5024477340698,2|0,0:2|0:0,0:0:0:0:
145,87,252168,2,0,P|168:116|182:150,1,74.2532977340698,2|0,0:2|0:0,0:0:0:0:
235,227,252565,6,0,P|250:189|274:156,1,82.5036666666666,2|0,0:2|0:0,0:0:0:0:
275,155,252962,2,0,P|259:192|235:225,1,82.7804999999999,2|0,0:2|0:0,0:0:0:0:
187,312,253360,6,0,P|235:305|284:310,1,99.0043969787598,2|0,0:2|0:0,0:0:0:0:
285,310,253757,2,0,P|236:316|187:311,1,99.0043969787598,2|0,0:2|0:0,0:0:0:0:
83,294,254154,6,0,P|113:332|133:379,1,98.9999969787599,2|0,0:2|0:0,0:0:0:0:
132,378,254508,6,0,P|101:339|116:270,1,110.1496,2|0,0:2|0:0,0:0:0:0:
107,281,255124,2,0,P|114:267|116:247,1,27.5,2|0,0:2|0:0,0:0:0:0:
65,187,255322,2,0,P|45:151|53:111,1,82.5
53,110,255720,2,0,P|87:80|130:84,1,74.2499977340699,2|0,0:2|0:0,0:0:0:0:
115,79,256097,6,0,P|169:120|181:124,1,74.2532977340698,2|0,0:2|0:0,0:0:0:0:
174,121,256494,2,0,B|275:146|243:64|356:87,1,173.58989471283,2|0,0:2|0:0,0:0:0:0:
336,83,257289,2,0,P|390:76|415:47,1,82.5,2|0,0:2|0:0,0:0:0:0:
407,57,257706,6,0,P|403:122|414:147,1,90.7540361028035,2|0,0:2|0:0,0:0:0:0:
412,144,258103,2,0,P|408:236|305:223,1,211.860923128763,2|0,0:2|0:0,0:0:0:0:
309,229,258898,2,0,P|265:206|201:221,1,99.0043969787598,2|0,0:2|0:0,0:0:0:0:
217,211,259295,6,0,P|257:261|224:315,1,115.505129808553,2|0,0:2|0:0,0:0:0:0:
240,303,259692,2,0,P|184:324|137:264,1,123.755504720688,2|0,0:2|0:0,0:0:0:0:
140,285,260090,6,0,P|147:224|213:197,1,132.005866666667,2|0,0:2|0:0,0:0:0:0:
205,196,260487,2,0,P|248:218|245:313,1,140.25623600839,2|0,0:2|0:0,0:0:0:0:
119,312,260870,6,0,B|88:251|105:251|144:195,1,99.3365969787598,2|0,0:2|0:0,0:0:0:0:
257,100,261267,1,0,0:2:0:0:
268,115,261366,1,0,0:2:0:0:
257,134,261466,1,0,0:2:0:0:
209,121,261565,1,0,0:2:0:0:
168,136,261664,5,2,0:2:0:0:
43,218,261863,1,0,0:0:0:0:
76,43,262062,1,0,0:2:0:0:
81,81,262161,1,0,0:2:0:0:
98,96,262260,1,0,0:2:0:0:
129,73,262360,1,0,0:2:0:0:
165,69,262459,5,2,0:2:0:0:
216,227,262658,2,0,B|181:173|239:166,1,49.6682984893798
277,45,262856,6,0,B|315:66|315:66|326:57|326:57|346:71,1,76.9999976501466,0|0,0:2|0:2,0:0:0:0:
443,58,263121,1,0,0:2:0:0:
367,154,263254,6,0,B|378:195|378:195|399:182,1,49.6682984893798,2|0,0:2|0:0,0:0:0:0:
402,337,263452,2,0,B|413:296|413:296|434:309,1,50.1665984893798
488,219,263651,1,2,0:2:0:0:
331,288,263850,1,0,0:2:0:0:
281,272,263949,1,0,0:2:0:0:
207,306,264048,5,2,0:2:0:0:
214,278,264148,1,0,0:0:0:0:
207,261,264247,1,0,0:0:0:0:
196,245,264346,1,0,0:0:0:0:
126,219,264446,5,2,0:2:0:0:
118,206,264545,1,0,0:2:0:0:
117,175,264644,1,0,0:2:0:0:
156,136,264744,1,0,0:2:0:0:
130,68,264843,5,2,0:2:0:0:
183,70,264942,1,0,0:0:0:0:
211,57,265042,1,0,0:0:0:0:
347,13,265240,1,2,0:2:0:0:
307,193,265439,1,0,0:2:0:0:
284,155,265538,1,0,0:2:0:0:
298,88,265638,5,2,0:2:0:0:
270,263,265836,1,0,0:0:0:0:
385,155,266035,1,2,0:2:0:0:
401,150,266134,1,0,0:2:0:0:
414,156,266234,1,0,0:2:0:0:
435,148,266333,1,0,0:2:0:0:
493,190,266432,5,2,0:2:0:0:
457,209,266532,1,0,0:0:0:0:
448,229,266631,1,0,0:0:0:0:
425,248,266730,1,0,0:0:0:0:
353,218,266830,5,2,0:2:0:0:
356,228,266929,1,0,0:2:0:0:
353,243,267028,1,0,0:2:0:0:
374,296,267128,1,0,0:2:0:0:
342,359,267227,6,0,B|376:372|386:368|401:355,1,49.6682984893798,2|0,0:2|0:0,0:0:0:0:
274,206,267426,2,0,B|240:193|230:197|215:210,1,49.6682984893798
155,352,267624,1,2,0:2:0:0:
313,285,267823,1,0,0:2:0:0:
251,267,267922,1,0,0:2:0:0:
180,280,268022,5,2,0:2:0:0:
182,250,268121,1,0,0:0:0:0:
178,230,268220,1,0,0:0:0:0:
125,77,268419,1,2,0:2:0:0:
109,233,268618,1,0,0:2:0:0:
110,184,268717,1,0,0:2:0:0:
174,155,268817,5,2,0:2:0:0:
221,190,268916,1,0,0:0:0:0:
258,188,269015,2,0,P|284:169|316:181,1,49.6682984893798,2|2,0:2|0:2,0:0:0:0:
247,24,269214,2,0,B|213:52|252:70|274:144|250:66|234:162|208:126|216:81|286:119,1,148.50659546814,8|0,0:2|0:0,0:0:0:0:
317,45,269611,5,2,0:2:0:0:
355,218,269810,1,2,0:2:0:0:
397,51,270009,5,2,0:2:0:0:
257,102,270207,1,2,0:2:0:0:
437,279,270406,5,10,0:2:0:0:
439,264,270505,1,2,0:2:0:0:
440,248,270605,1,2,0:2:0:0:
443,234,270704,1,2,0:2:0:0:
359,191,270803,5,2,0:2:0:0:
361,207,270903,1,2,0:2:0:0:
363,224,271002,1,2,0:2:0:0:
365,240,271101,1,2,0:2:0:0:
274,303,271201,5,10,1:2:0:0:
276,281,271300,1,2,1:2:0:0:
279,260,271399,1,2,1:2:0:0:
282,239,271499,1,2,1:2:0:0:
185,183,271598,5,2,1:2:0:0:
187,208,271697,1,2,1:2:0:0:
190,234,271797,1,2,1:2:0:0:
195,260,271896,1,2,1:2:0:0:
279,366,271995,5,10,1:2:0:0:
237,361,272095,1,2,1:2:0:0:
195,357,272194,1,2,1:2:0:0:
153,353,272293,1,2,1:2:0:0:
93,271,272393,5,2,1:2:0:0:
144,265,272492,1,2,1:2:0:0:
195,260,272591,1,2,1:2:0:0:
247,255,272691,1,2,1:2:0:0:
298,172,272790,5,10,1:2:0:0:
228,164,272889,1,2,1:2:0:0:
159,156,272989,1,2,1:2:0:0:
91,150,273088,1,2,1:2:0:0:
37,70,273187,5,2,1:2:0:0:
111,60,273287,1,2,1:2:0:0:
186,53,273386,1,2,1:2:0:0:
260,46,273485,1,2,1:2:0:0:
133,129,273585,6,0,B|77:154|22:76|22:76|30:155|30:155|-4:165|34:185|51:212|51:212|38:236|53:265|53:265|47:269|47:269|53:279|53:279|47:293|47:293|99:251|132:309|111:351|75:339,1,506.391599999999,4|0,0:2|0:0,0:0:0:0:
127,211,275969,5,0,0:0:0:0:
174,364,276168,1,0,0:0:0:0:
174,364,276744,6,0,B|267:331|263:392|387:350,1,198.00879395752,8|0,3:2|0:0,0:0:0:0:
479,264,277558,2,0,B|428:257|401:266|401:266|428:277,1,99.0043969787598,2|0,0:2|0:0,0:0:0:0:
335,189,277956,2,0,B|386:182|413:191|413:191|386:202,1,99.0043969787598,2|0,0:2|0:0,0:0:0:0:
354,322,278353,6,0,B|320:340|320:340|330:291|326:251,1,99.0043969787598,2|0,0:2|0:0,0:0:0:0:
262,218,278750,2,0,B|228:200|228:200|238:249|235:260,1,99.3365969787598,2|0,0:2|0:0,0:0:0:0:
194,344,279148,5,0,0:0:0:0:
160,192,279346,1,2,0:2:0:0:
122,362,279545,6,0,B|118:341|118:341|117:328|126:320|126:320|120:296,1,66.2243979858398,0|0,0:0|3:2,0:0:0:0:
115,284,279810,1,0,3:2:0:0:
109,268,279876,1,0,3:2:0:0:
104,253,279942,6,0,B|91:226|82:222|82:222|122:182|106:120,1,137.9675,4|0,1:1|0:0,0:0:0:0:
0,44,280538,1,0,3:2:0:0:
64,75,280638,1,0,3:2:0:0:
133,60,280737,5,2,1:2:0:0:
245,25,280936,1,0,3:2:0:0:
323,184,281134,5,2,3:2:0:0:
211,149,281333,1,0,3:2:0:0:
396,14,281532,6,0,B|413:29|413:29|395:67|417:111,1,99.0043969787598,8|0,1:2|0:0,0:0:0:0:
498,175,281929,5,2,0:2:0:0:
480,69,282128,1,2,3:2:0:0:
387,216,282326,5,2,1:2:0:0:
369,322,282525,1,2,3:2:0:0:
296,134,282724,6,0,P|332:123|347:153,1,66.2243979858398,2|0,3:2|0:0,0:0:0:0:
296,347,282922,2,0,P|260:358|245:328,1,66.8887979858398,2|0,3:2|0:0,0:0:0:0:
236,80,283121,6,0,B|215:118|215:118|226:145|230:195,1,99.0043969787598,10|0,3:2|0:0,0:0:0:0:
213,242,283519,1,2,0:2:0:0:
300,35,283717,1,0,3:2:0:0:
233,6,283817,1,0,3:2:0:0:
171,41,283916,6,0,B|157:58|157:58|111:77|76:51,1,99.0043969787598,2|0,1:2|0:0,0:0:0:0:
26,16,284313,1,2,0:2:0:0:
70,212,284512,1,0,3:2:0:0:
76,141,284611,1,0,3:2:0:0:
16,102,284711,5,10,1:2:0:0:
155,83,284909,1,0,3:2:0:0:
210,247,285108,5,0,3:2:0:0:
70,212,285307,1,2,3:2:0:0:
295,153,285505,6,0,B|295:177|295:177|281:205|281:205|300:227|292:249,1,82.7804999999999,2|0,1:2|0:0,0:0:0:0:
349,358,285903,2,0,B|342:356|358:328|358:328|342:305|349:263,1,82.5036666666666,2|0,3:2|0:0,0:0:0:0:
390,136,286302,5,4,0:2:0:0:
419,287,286566,1,2,0:2:0:0:
283,229,286831,1,2,0:2:0:0:
298,196,286903,5,0,3:2:0:0:
293,179,286973,1,0,3:2:0:0:
289,165,287043,1,0,3:2:0:0:
284,150,287114,5,2,1:2:0:0:
171,276,287340,1,2,3:2:0:0:
107,118,287600,1,2,3:2:0:0:
275,262,287887,5,2,1:2:0:0:
82,221,288154,1,12,3:3:0:0:
204,65,288433,1,12,3:3:0:0:
188,308,288671,5,12,1:3:0:0:
171,276,288803,1,0,0:0:0:0:
71,117,288935,5,4,0:2:0:0:
107,118,289068,1,0,0:0:0:0:
304,120,289200,5,4,0:2:0:0:
284,150,289333,1,0,0:0:0:0:
183,372,289455,6,0,B|167:305|93:308|93:308|-13:328|-24:130|156:193|125:247|125:247|117:228|117:228|115:212|115:212|114:197|114:197|105:180|105:180|109:173|109:173|116:153|116:153|108:136|108:136|108:118|108:118|114:134|93:134,1,544.395560980848,4|0,1:1|0:0,0:0:0:0:
93,44,292766,6,0,B|108:97|158:103|176:92|176:92|190:83|207:91|207:91|217:87|217:87|231:90|231:90|248:86|248:60,1,199.988890197046
438,94,294488,2,0,B|419:107|419:107|349:100|349:100|342:105|323:101|323:101,1,111.142219220581
331,102,295740,1,0,0:0:0:0:
364,168,295868,6,0,L|356:226,2,58.6666666666667,2|0|0,0:2|0:0|0:0,0:0:0:0:
445,223,296662,2,0,L|453:284,2,58.6666666666667,2|0|0,0:2|0:0|0:0,0:0:0:0:
387,341,297457,5,2,0:2:0:0:
452,281,297722,1,0,0:0:0:0:
337,243,297987,1,2,0:2:0:0:
302,249,298119,1,2,0:2:0:0:
246,296,298252,2,0,P|258:217|251:174,1,117.333333333333,2|2,0:2|0:2,0:0:0:0:
246,43,299046,6,0,L|316:60,2,58.6666666666667,2|0|0,0:2|0:0|0:0,0:0:0:0:
149,129,299841,2,0,L|218:114,2,58.6666666666667,2|0|0,0:2|0:0|0:0,0:0:0:0:
84,49,300636,5,2,0:2:0:0:
58,152,300901,1,0,0:0:0:0:
204,117,301166,1,2,0:2:0:0:
234,139,301298,1,2,0:2:0:0:
251,218,301430,2,0,P|302:194|375:201,1,117.333333333333,2|2,0:2|0:2,0:0:0:0:
342,353,302225,6,0,P|336:305|317:268,1,80.6666691284181,2|0,0:2|0:0,0:0:0:0:
263,201,302755,1,2,0:2:0:0:
380,119,303020,2,0,P|365:156|361:199,2,80.6666691284181,2|0|2,0:2|0:0|0:2,0:0:0:0:
413,273,303815,5,0,0:0:0:0:
445,177,304079,1,2,0:2:0:0:
323,275,304344,1,2,0:2:0:0:
295,232,304477,1,2,0:2:0:0:
318,160,304609,2,0,P|240:200|157:177,1,161.333338256836,2|2,0:2|0:2,0:0:0:0:
36,281,305404,6,0,P|100:266|128:241,1,81.4000019873047,2|0,0:2|0:0,0:0:0:0:
170,186,305934,1,2,0:2:0:0:
237,328,306199,2,0,P|172:313|142:289,2,81.4000019873047,2|0|2,0:2|0:0|0:2,0:0:0:0:
386,264,306993,5,0,0:0:0:0:
284,260,307258,1,2,0:2:0:0:
398,185,307523,1,2,0:2:0:0:
444,211,307656,1,2,0:2:0:0:
481,283,307788,2,0,P|459:225|485:125,1,151.799994904175,2|2,0:2|0:2,0:0:0:0:
509,32,308546,1,0,0:0:0:0:
389,89,308822,6,0,B|402:98|402:98|332:102|306:62,1,121.000003692627,2|0,0:2|0:0,0:0:0:0:
266,143,309351,2,0,B|270:158|270:158|213:116|219:69,1,121.000003692627,2|0,0:2|0:0,0:0:0:0:
137,105,309881,2,0,B|130:119|130:119|114:51|147:15,1,121.000003692627,2|0,0:2|0:0,0:0:0:0:
204,145,310411,6,0,P|194:168|179:186,1,40.333334564209,2|0,0:2|0:0,0:0:0:0:
274,239,310676,2,0,P|261:222|253:200,1,40.333334564209,2|0,0:2|0:0,0:0:0:0:
333,138,310941,2,0,P|315:194|265:244,1,121.000003692627,2|0,0:2|0:0,0:0:0:0:
190,253,311471,5,2,0:2:0:0:
295,323,311735,1,0,0:0:0:0:
121,299,312000,6,0,B|99:249|125:199|125:199|124:221,1,121.000003692627,2|0,0:2|0:0,0:0:0:0:
50,187,312530,2,0,B|65:134|117:112|117:112|101:129,1,121.000003692627,2|0,0:2|0:0,0:0:0:0:
63,52,313060,2,0,B|108:21|162:38|162:38|141:41,1,121.000003692627,2|0,0:2|0:0,0:0:0:0:
118,113,313590,2,0,B|172:118|202:166|202:166|185:158,1,121.000003692627,2|0,0:2|0:0,0:0:0:0:
124,199,314120,2,0,B|161:238|154:294|154:294|146:276,1,121.000003692627,2|0,0:2|0:0,0:0:0:0:
88,322,314649,5,2,0:2:0:0:
227,255,314914,2,0,B|301:270,1,60.5000018463135,2|0,0:1|0:0,0:0:0:0:
302,271,315179,6,0,B|307:298|307:298|357:327|404:320,1,121.000003692627,2|0,0:2|0:0,0:0:0:0:
358,227,315709,2,0,B|379:244|379:244|436:234|468:199,1,121.000003692627,2|0,0:2|0:0,0:0:0:0:
374,158,316239,2,0,B|401:157|401:157|438:113|437:65,1,121.000003692627,2|0,0:2|0:0,0:0:0:0:
357,72,316769,6,0,P|343:87|327:99,1,40.333334564209,2|0,0:2|0:0,0:0:0:0:
246,116,317033,2,0,P|259:130|278:145,1,40.333334564209,2|0,0:2|0:0,0:0:0:0:
372,157,317298,2,0,P|344:194|272:228,1,121.000003692627,2|0,0:2|0:0,0:0:0:0:
213,184,317828,5,2,0:2:0:0:
239,333,318093,1,0,0:0:0:0:
144,240,318378,6,0,B|101:265|57:272|57:272|42:243,1,121.000003692627,2|0,0:2|0:0,0:0:0:0:
118,172,318907,2,0,B|68:164|30:140|30:140|37:109,1,121.000003692627,2|0,0:2|0:0,0:0:0:0:
159,106,319437,2,0,B|126:68|112:25|112:25|137:6,1,121.000003692627,2|0,0:2|0:0,0:0:0:0:
319,53,319967,6,0,B|267:58|267:58|190:41,1,121.000003692627,2|0,0:2|0:0,0:0:0:0:
117,114,320497,2,0,B|169:109|169:109|245:125,1,121.000003692627,2|0,0:2|0:0,0:0:0:0:
319,154,321027,1,2,0:2:0:0:
388,21,321257,6,0,B|401:63|375:103|375:103|393:124|393:124|399:160|387:185|387:185|376:241|417:274,1,262.338272000461,4|0,0:2|0:0,0:0:0:0:
467,208,322051,1,0,3:2:0:0:
403,344,322316,6,0,P|368:341|337:332,1,47.8287311513266
286,218,322581,2,0,P|321:221|352:230,1,47.8287311513266
275,346,322846,6,0,P|277:312|264:277,1,47.8287311513266,0|0,3:2|0:0,0:0:0:0:
208,194,323111,2,0,P|206:228|219:263,1,47.8287311513266
334,224,323376,2,0,P|310:219|286:218,1,47.8287311513266
150,313,323641,2,0,P|173:317|197:318,1,47.8287311513266,0|0,3:2|0:0,0:0:0:0:
85,212,323906,2,0,L|15:220,1,47.8287311513266
210,194,324170,2,0,L|140:202,1,47.8287311513266
80,37,324435,6,0,P|106:64|133:68,1,47.8287311513266,0|0,3:2|0:0,0:0:0:0:
79,135,324700,2,0,P|115:145|140:135,1,47.8287311513266
253,103,324965,1,0,0:0:0:0:
180,91,325098,1,0,0:0:0:0:
264,178,325230,6,0,P|274:211|277:253,1,47.8287311513266,0|0,3:2|0:0,0:0:0:0:
333,110,325495,2,0,P|343:77|346:35,1,47.8287311513266
443,174,325760,1,0,0:0:0:0:
342,234,325892,1,0,0:0:0:0:
411,107,326025,6,0,L|418:194,1,47.8287311513266,0|0,3:2|0:0,0:0:0:0:
433,285,326290,1,0,0:0:0:0:
487,201,326422,1,0,0:0:0:0:
401,286,326555,5,0,0:0:0:0:
493,236,326687,1,0,0:0:0:0:
371,211,326819,2,0,B|326:197|293:203,2,47.8287311513266,0|0|0,3:2|0:0|0:0,0:0:0:0:
327,305,327217,1,0,0:0:0:0:
239,233,327349,2,0,B|215:231|192:242,1,47.8287311513266
60,373,327614,6,0,B|71:347|71:347|59:256,1,73.5826666666667,4|0,3:2|0:0,0:0:0:0:
229,306,327879,2,0,B|200:309|200:309|128:365,1,73.5826666666667,4|0,3:2|0:0,0:0:0:0:
86,193,328144,2,0,B|103:215|103:215|187:250,1,73.5826666666667,4|0,3:2|0:0,0:0:0:0:
289,135,328409,5,4,1:2:0:0:
164,166,328541,1,0,0:0:0:0:
205,41,328674,2,0,B|215:101|215:101|180:75,1,73.5826666666667,4|0,3:2|0:0,0:0:0:0:
255,247,328939,2,0,B|245:187|245:187|255:194,1,73.5826666666667,4|0,3:2|0:0,0:0:0:0:
402,115,329204,6,0,B|366:128|366:128|300:102,1,73.5826666666667,4|0,3:2|0:0,0:0:0:0:
424,287,329468,2,0,B|430:249|430:249|486:205,1,73.5826666666667,4|0,3:2|0:0,0:0:0:0:
264,220,329733,2,0,B|293:244|293:244|303:314,1,73.5826666666667,4|0,3:2|0:0,0:0:0:0:
185,309,329998,5,4,1:2:0:0:
130,291,330087,1,0,0:0:0:0:
100,308,330175,1,0,0:0:0:0:
78,327,330263,1,4,3:2:0:0:
65,340,330351,1,0,0:0:0:0:
42,347,330440,1,0,0:0:0:0:
28,343,330528,1,4,3:2:0:0:
142,384,330660,1,0,0:0:0:0:
81,239,330793,6,0,L|-3:231,1,73.5826666666667,4|0,3:2|0:0,0:0:0:0:
121,118,331058,2,0,L|205:110,1,73.5826666666667,4|0,3:2|0:0,0:0:0:0:
308,192,331323,2,0,B|301:171|301:171|311:140|310:140|295:98,1,73.5826666666667,4|0,3:2|0:0,0:0:0:0:
457,171,331588,6,0,B|437:179|402:165|402:165|385:160|370:199,1,73.5826666666667,4|0,1:2|0:0,0:0:0:0:
334,310,331853,2,0,B|337:288|366:265|366:265|379:253|353:220,1,73.5826666666667,4|0,3:2|0:0,0:0:0:0:
275,134,332117,2,0,B|291:147|297:184|297:184|301:201|342:195,1,73.5826666666667,4|0,3:2|0:0,0:0:0:0:
272,370,332382,6,0,P|253:313|271:253,1,73.5826666666667,4|0,3:2|0:0,0:0:0:0:
97,284,332647,2,0,P|155:296|198:341,1,73.5826666666667,4|0,3:2|0:0,0:0:0:0:
260,177,332912,2,0,P|220:221|159:236,1,73.5826666666667,4|0,3:2|0:0,0:0:0:0:
32,124,333177,5,4,1:2:0:0:
192,152,333309,1,0,1:2:0:0:
214,124,333442,1,4,3:2:0:0:
105,41,333574,5,0,3:2:0:0:
108,61,333641,1,0,3:2:0:0:
109,79,333707,1,4,3:2:0:0:
126,220,333839,1,0,3:2:0:0:
206,44,333972,6,0,L|312:58,1,80.9409357950849,4|0,3:1|0:0,0:0:0:0:
432,135,334237,2,0,L|326:149,1,80.9409357950849,4|0,3:2|0:0,0:0:0:0:
209,227,334502,2,0,L|315:241,1,80.9409357950849,4|0,3:2|0:0,0:0:0:0:
465,279,334766,5,12,1:2:0:0:
338,313,334899,1,0,0:0:0:0:
419,221,335031,5,4,3:2:0:0:
472,347,335164,1,0,0:0:0:0:
347,241,335296,5,4,3:2:0:0:
512,192,335429,1,0,0:0:0:0:
380,372,335561,6,0,B|350:363|350:363|331:280,1,80.9409357950849,12|0,1:2|0:0,0:0:0:0:
450,157,335826,2,0,B|457:187|457:187|394:245,1,80.9409357950849,4|0,3:2|0:0,0:0:0:0:
227,206,336091,2,0,B|249:184|249:184|331:209,1,80.9409357950849,4|0,3:2|0:0,0:0:0:0:
176,375,336356,6,0,B|171:333|171:333|186:317|191:297|191:297|156:265|164:215,1,103.015730200196,12|0,1:2|0:0,0:0:0:0:
0,198,336621,2,0,B|38:214|38:214|45:235|69:230|69:230|93:255|144:267,1,103.015730200196,4|0,3:2|0:0,0:0:0:0:
235,131,336886,2,0,B|221:148|201:156|201:156|161:139|172:167|172:167|149:203|102:221,1,103.015730200196,4|0,3:2|0:0,0:0:0:0:
34,34,337151,5,4,3:1:0:0:
92,167,337283,1,0,0:0:0:0:
211,34,337415,2,0,L|117:47,1,80.9409357950849,4|0,3:2|0:0,0:0:0:0:
306,92,337680,2,0,L|400:105,1,80.9409357950849,4|0,3:2|0:0,0:0:0:0:
491,289,337945,6,0,B|482:260|482:260|490:225|475:146,1,80.9409357950849,12|0,1:2|0:0,0:0:0:0:
385,103,338210,1,4,3:2:0:0:
506,122,338343,1,0,0:0:0:0:
375,244,338475,2,0,B|349:260|349:260|316:257|316:257|241:296,1,80.9409357950849,4|0,3:2|0:0,0:0:0:0:
96,300,338740,6,0,B|111:301|111:301|167:346|167:346|214:343,1,103.015730200196,12|0,1:2|0:0,0:0:0:0:
79,183,339005,2,0,L|-61:239,1,80.9409357950849,4|0,3:2|0:0,0:0:0:0:
182,221,339270,2,0,L|203:70,1,80.9409357950849,4|0,3:2|0:0,0:0:0:0:
54,0,339535,6,0,L|65:79,1,80.9409357950849,12|0,1:2|0:0,0:0:0:0:
102,274,339800,1,4,1:2:0:0:
0,115,339932,1,0,1:2:0:0:
193,141,340064,2,0,L|290:154,1,80.9409357950849,4|0,3:2|3:2,0:0:0:0:
481,54,340329,5,4,3:1:0:0:
445,48,340418,1,0,0:0:0:0:
415,63,340506,1,0,0:0:0:0:
401,86,340594,1,6,3:2:0:0:
399,116,340683,1,0,0:0:0:0:
418,145,340771,1,0,0:0:0:0:
466,157,340859,1,6,3:2:0:0:
427,197,340947,1,0,0:0:0:0:
439,249,341036,1,0,0:0:0:0:
490,276,341124,5,14,1:2:0:0:
421,272,341212,1,0,0:0:0:0:
367,301,341301,1,0,0:0:0:0:
346,347,341389,1,6,3:2:0:0:
322,359,341477,1,0,0:0:0:0:
304,363,341566,1,0,0:0:0:0:
282,354,341654,1,6,3:2:0:0:
246,329,341742,1,0,0:0:0:0:
207,325,341830,1,0,0:0:0:0:
141,357,341919,5,14,1:2:0:0:
167,310,342007,1,0,0:0:0:0:
143,244,342095,1,0,0:0:0:0:
78,199,342184,6,0,L|224:175,1,95.6574623026534,6|0,3:2|0:0,0:0:0:0:
284,56,342449,2,0,L|138:32,1,95.6574623026534,6|0,3:2|0:0,0:0:0:0:
254,280,342713,6,0,B|239:263|239:263|238:214|264:193|264:193|247:130|247:130|232:120,1,110.374004196167,14|0,1:2|0:0,0:0:0:0:
475,196,342978,2,0,B|467:217|467:217|425:242|394:230|394:230|348:277|348:277|347:295,1,110.374004196167,6|0,3:2|0:0,0:0:0:0:
284,56,343243,2,0,B|306:51|306:51|325:75|344:74|344:74|354:108|354:108|417:124|417:124|433:116,1,110.374004196167,6|0,3:2|0:0,0:0:0:0:
323,313,343508,5,4,3:1:0:0:
254,280,343596,1,0,0:0:0:0:
220,284,343685,1,0,0:0:0:0:
203,304,343773,2,0,B|177:316|177:316|145:300|68:296,1,88.2991973144533,6|0,3:2|0:0,0:0:0:0:
11,188,344038,1,6,3:2:0:0:
23,178,344126,1,0,0:0:0:0:
49,183,344215,1,0,0:0:0:0:
78,181,344303,6,0,B|100:187|100:187|149:157|179:168,1,88.2991973144533,14|0,1:2|0:0,0:0:0:0:
115,0,344568,2,0,B|98:16|98:16|100:73|75:93,1,88.2991973144533,6|0,3:2|0:0,0:0:0:0:
267,125,344833,2,0,B|261:102|261:102|220:85|220:85|205:44,1,88.2991973144533,6|0,3:2|0:0,0:0:0:0:
356,220,345098,5,14,1:2:0:0:
380,80,345230,1,0,0:0:0:0:
461,208,345362,2,0,L|443:329,1,88.2991973144533,6|0,3:2|0:0,0:0:0:0:
273,371,345627,2,0,L|260:283,1,88.2991973144533,6|0,3:2|0:0,0:0:0:0:
213,66,345892,6,0,B|190:100|229:127|205:144|205:144|172:178|204:214,1,117.732266666667,14|0,1:2|0:0,0:0:0:0:
0,144,346157,2,0,B|41:146|45:98|72:111|72:111|117:122|133:77,1,117.732266666667,6|0,3:2|0:0,0:0:0:0:
162,313,346422,2,0,B|156:279|156:279|126:286|126:286|124:236|39:240,1,117.732266666667,6|0,3:2|0:0,0:0:0:0:
213,66,346687,5,14,1:2:0:0:
238,56,346775,1,0,0:0:0:0:
275,57,346864,1,0,0:0:0:0:
314,91,346952,1,6,3:2:0:0:
347,96,347040,1,0,0:0:0:0:
378,86,347128,1,0,0:0:0:0:
430,56,347217,1,6,3:2:0:0:
422,104,347305,1,0,0:0:0:0:
439,145,347393,1,0,0:0:0:0:
474,224,347482,5,14,1:2:0:0:
424,198,347570,1,0,0:0:0:0:
368,189,347658,1,0,0:0:0:0:
304,222,347747,5,6,3:2:0:0:
366,261,347835,1,0,0:0:0:0:
412,312,347923,1,0,0:0:0:0:
422,381,348011,5,6,3:2:0:0:
350,347,348100,1,0,0:0:0:0:
272,336,348188,1,0,0:0:0:0:
187,365,348276,6,0,B|210:308|173:243|173:243|161:211|189:147|189:147|182:119|182:119|208:104|208:104|197:85|211:65|211:65,1,320.95525,4|0,1:2|0:0,0:0:0:0:
126,27,350665,6,0,P|132:55|134:69,1,29.4330666666667
62,107,350929,2,0,P|56:135|54:149,1,29.4330666666667
98,208,351194,2,0,P|104:236|106:250,1,29.4330666666667
40,321,351459,6,0,P|64:316|133:318,1,71.7431014546714
185,346,351724,2,0,P|220:352|284:350,1,95.6574686062285
308,99,352235,5,2,0:2:0:0:
260,253,352367,1,0,0:0:0:0:
207,104,352499,1,2,0:2:0:0:
216,121,352764,5,2,0:2:0:0:
378,75,352897,1,0,0:0:0:0:
260,254,353049,6,0,B|279:331|279:331|256:318,1,95.6574623026534
270,235,353843,2,0,B|289:312|289:312|266:299,1,95.6574623026534,4|0,0:2|0:0,0:0:0:0:
282,215,354638,2,0,B|301:292|301:292|278:279,1,95.6574623026534,4|0,0:2|0:0,0:0:0:0:
290,197,355433,6,0,L|312:281,1,47.8287311513266,4|0,0:2|0:0,0:0:0:0:
431,238,355698,2,0,B|414:218|414:218|347:215,1,47.8287311513266,4|0,0:2|0:0,0:0:0:0:
338,343,355962,2,0,L|399:281,1,47.8287311513266,4|0,0:2|0:0,0:0:0:0:
473,182,356227,6,0,B|447:153|447:153|351:147,1,95.6574623026534,4|0,0:2|0:0,0:0:0:0:
485,167,357022,2,0,B|459:138|459:138|363:132,1,95.6574623026534,4|0,0:2|0:0,0:0:0:0:
497,152,357817,6,0,B|460:114,1,47.8287311513266,4|0,0:2|0:0,0:0:0:0:
496,0,358082,2,0,B|481:51,1,47.8287311513266,4|0,3:2|0:0,0:0:0:0:
329,81,358347,1,4,3:2:0:0:
411,64,358479,1,0,0:0:0:0:
314,152,358611,6,0,B|293:158|293:158|243:156,1,66.22439798584,4|0,3:2|0:0,0:0:0:0:
183,28,358876,2,0,P|236:50|251:86,1,66.22439798584,4|0,3:2|0:0,0:0:0:0:
132,189,359141,2,0,B|137:167|137:167|164:125,1,66.22439798584,4|0,3:2|0:0,0:0:0:0:
170,289,359406,6,0,B|96:286|96:286|75:273,1,95.6574623026534,4|0,0:2|0:0,0:0:0:0:
182,272,360201,2,0,B|108:269|108:269|87:256,1,95.6574623026534,4|0,0:2|0:0,0:0:0:0:
193,256,360996,2,0,B|119:253|119:253|98:240,1,95.6574623026534,4|0,0:2|0:0,0:0:0:0:
204,238,361790,5,4,0:2:0:0:
120,231,361923,1,0,0:0:0:0:
236,175,362055,2,0,L|317:190,1,47.8287311513266,4|0,3:2|0:0,0:0:0:0:
369,279,362320,2,0,B|377:255|357:226|357:226|369:210|369:210|365:181,1,104.855297209549,4|0,3:2|0:0,0:0:0:0:
361,145,362585,6,0,B|356:117|356:117|456:141,1,95.6574623026534,4|0,0:2|0:0,0:0:0:0:
429,138,363115,1,0,0:0:0:0:
500,154,363247,1,0,0:0:0:0:
346,132,363380,6,0,B|341:104|341:104|441:128,1,95.6574623026534,4|0,0:2|0:0,0:0:0:0:
418,122,363909,1,0,0:0:0:0:
371,256,364042,1,0,0:0:0:0:
332,117,364174,6,0,B|327:89|327:89|427:113,2,95.4775206359867,4|0|0,0:2|0:0|0:0,0:0:0:0:
346,206,364837,1,0,0:0:0:0:
192,117,364969,6,0,B|208:106|208:106|258:114,1,69.9035314730328,4|0,3:2|0:0,0:0:0:0:
128,196,365234,2,0,B|109:187|109:187|91:141,1,69.9035314730328,4|0,3:2|0:0,0:0:0:0:
248,247,365499,2,0,B|250:266|250:266|228:284|228:284|219:305,1,69.9035314730328,4|0,3:2|0:0,0:0:0:0:
146,78,365764,6,0,B|185:64|185:64|266:76|266:76,1,110.374004196167,4|2,3:1|0:2,0:0:0:0:
402,93,366161,1,0,0:0:0:0:
273,145,366294,1,2,0:2:0:0:
315,18,366426,1,0,0:0:0:0:
344,191,366558,6,0,B|355:275|355:275,1,55.1870020980837,4|0,0:2|0:0,0:0:0:0:
490,263,366823,2,0,B|411:230|411:230,1,55.1870020980837,2|0,0:2|0:0,0:0:0:0:
350,352,367088,2,0,B|417:300|417:300,1,55.1870020980837,2|0,0:2|0:0,0:0:0:0:
271,175,367353,6,0,B|280:249|280:249|268:280|268:280|279:359,1,165.145756294251,4|0,0:2|0:0,0:0:0:0:
172,369,367883,2,0,L|183:305,1,55.1870020980837,2|0,0:2|0:0,0:0:0:0:
190,127,368148,6,0,B|201:224|201:224|146:212|118:251,1,165.145756294251,4|0,3:2|0:0,0:0:0:0:
80,316,368678,1,2,0:2:0:0:
180,295,368810,1,0,0:0:0:0:
42,130,368943,6,0,B|28:260|28:260|45:243|76:239,1,165.145756294251,4|0,0:2|0:0,0:0:0:0:
193,142,369472,2,0,P|148:137|118:125,1,55.1870020980837,2|0,0:2|0:0,0:0:0:0:
26,31,369737,6,0,P|71:36|101:48,1,55.1870020980837,4|0,0:2|0:0,0:0:0:0:
199,58,370002,2,0,L|192:-5,1,55.1870020980837,2|0,0:2|0:0,0:0:0:0:
317,131,370267,2,0,L|310:185,1,55.1870020980837,2|0,0:2|0:0,0:0:0:0:
435,38,370532,6,0,B|401:44|376:31|376:31|362:45|362:45|306:33|265:53,1,165.145756294251,4|0,0:2|0:0,0:0:0:0:
405,115,371062,2,0,L|466:111,1,55.1870020980837,2|0,0:2|0:0,0:0:0:0:
335,234,371327,6,0,L|274:230,1,55.1870020980837,4|0,3:2|0:0,0:0:0:0:
190,366,371592,2,0,L|223:315,1,55.1870020980837,4|0,3:2|0:0,0:0:0:0:
153,178,371856,2,0,L|180:232,1,55.1870020980837,4|0,3:2|0:0,0:0:0:0:
214,94,372121,5,6,3:2:0:0:
71,113,372254,1,0,3:2:0:0:
156,38,372386,1,0,3:2:0:0:
78,188,372519,1,0,3:2:0:0:
16,31,372651,2,0,B|32:45|32:45|99:40,1,73.5826666666667,2|0,3:2|3:2,0:0:0:0:
273,130,372916,5,6,3:2:0:0:
153,117,373049,1,0,3:2:0:0:
287,207,373181,5,0,3:2:0:0:
256,58,373313,1,0,3:2:0:0:
214,209,373446,2,0,P|248:204|301:209,1,73.5826666666667,2|0,3:2|3:2,0:0:0:0:
463,271,373711,5,6,3:2:0:0:
312,308,373843,1,0,3:2:0:0:
422,193,373976,1,0,3:2:0:0:
401,351,374108,1,0,3:2:0:0:
330,222,374241,2,0,L|339:122,1,73.5826666666667,2|0,3:2|3:2,0:0:0:0:
353,0,374505,5,6,3:2:0:0:
242,97,374638,1,0,3:2:0:0:
390,72,374770,5,0,3:2:0:0:
245,11,374903,1,0,3:2:0:0:
336,153,375035,2,0,L|430:143,1,73.5826666666667,2|0,3:2|3:2,0:0:0:0:
385,331,375300,5,6,3:2:0:0:
219,306,375433,1,0,3:2:0:0:
360,236,375565,1,0,3:2:0:0:
283,374,375698,1,0,3:2:0:0:
264,215,375830,2,0,L|250:94,1,73.5826666666667,2|0,1:2|3:2,0:0:0:0:
51,95,376095,5,6,3:2:0:0:
189,198,376227,1,0,3:2:0:0:
34,205,376360,1,0,3:2:0:0:
154,78,376492,1,0,3:2:0:0:
122,252,376625,2,0,L|102:369,1,73.5826666666667,2|0,1:2|3:2,0:0:0:0:
292,313,376890,5,6,3:2:0:0:
261,185,377022,1,0,3:2:0:0:
441,122,377154,5,0,3:2:0:0:
349,230,377287,1,0,0:2:0:0:
204,103,377419,5,2,1:2:0:0:
343,128,377552,1,0,3:2:0:0:
411,291,377684,5,6,3:2:0:0:
232,260,377817,1,4,3:2:0:0:
287,60,377949,5,6,3:2:0:0:
349,230,378082,1,0,3:2:0:0:
175,312,378214,5,6,3:2:0:0:
265,154,378347,1,0,0:0:0:0:
357,363,378479,6,0,L|270:353,1,88,2|0,0:2|0:0,0:0:0:0:
201,334,379316,2,0,B|290:330|290:330|314:323|314:323|338:329|338:329|345:316|345:316|347:328|347:328|357:327|357:327|363:316|363:316|368:327|368:327|385:319|385:319|384:327|384:327|400:322|400:322|410:326|410:326,1,249.333333333333,2|0,0:2|0:0,0:0:0:0:
456,239,381658,6,0,L|379:246,1,69.3861316918947,4|0,0:1|0:0,0:0:0:0:
254,153,382187,1,0,3:2:0:0:
298,138,382276,1,0,3:2:0:0:
344,140,382364,1,0,3:2:0:0:
420,177,382452,6,0,L|432:103,1,69.3861316918947,2|0,3:2|0:0,0:0:0:0:
512,37,382994,1,0,3:2:0:0:
466,49,383082,1,0,3:2:0:0:
419,40,383170,1,0,3:2:0:0:
345,0,383247,6,0,L|269:12,1,69.3861316918947,2|0,3:2|0:0,0:0:0:0:
121,31,383776,1,0,3:2:0:0:
158,59,383865,1,0,3:2:0:0:
165,105,383953,1,0,3:2:0:0:
117,179,384041,6,0,L|121:234,1,49.6683012084962,2|0,3:2|0:0,0:0:0:0:
206,264,384439,2,0,L|203:212,1,49.5188112084962,0|0,3:2|0:0,0:0:0:0:
140,353,384836,6,0,B|102:349|102:349|124:323,1,69.3000016918946,4|0,0:1|0:0,0:0:0:0:
203,312,385366,5,0,3:2:0:0:
241,336,385454,1,0,3:2:0:0:
288,337,385542,1,0,3:2:0:0:
350,287,385631,6,0,L|427:298,1,69.3000016918946,2|0,3:2|0:0,0:0:0:0:
512,157,386180,1,0,3:2:0:0:
467,172,386268,1,0,3:2:0:0:
420,166,386356,1,0,3:2:0:0:
355,103,386423,6,0,L|285:113,1,69.3000016918946,2|0,3:2|0:0,0:0:0:0:
111,53,386952,1,0,3:2:0:0:
157,60,387041,1,0,3:2:0:0:
191,91,387129,1,0,3:2:0:0:
196,166,387217,6,0,L|191:218,1,44,2|0,3:2|0:0,0:0:0:0:
74,215,387482,2,0,L|117:194,1,44,0|0,0:0|3:2,0:0:0:0:
180,289,387747,1,0,0:0:0:0:
106,239,387879,1,0,0:0:0:0:
198,361,388012,6,0,L|267:327,1,55,4|0,0:1|0:0,0:0:0:0:
329,384,388277,2,0,L|361:315,1,55
444,317,388542,2,0,L|418:243,1,55,0|0,3:2|0:0,0:0:0:0:
501,149,388807,6,0,P|490:201|474:220,1,55,2|0,1:2|0:0,0:0:0:0:
395,106,389072,2,0,P|419:152|418:176,1,55,0|0,3:2|0:0,0:0:0:0:
290,143,389336,2,0,P|339:162|352:183,1,55,0|0,3:2|0:0,0:0:0:0:
274,280,389601,6,0,P|285:230|277:205,1,55,2|0,1:2|0:0,0:0:0:0:
214,187,389866,2,0,P|190:141|167:127,1,55,0|0,3:2|0:0,0:0:0:0:
108,154,390131,2,0,P|60:134|35:137,1,55,0|0,3:2|0:0,0:0:0:0:
142,233,390396,5,2,1:2:0:0:
188,139,390528,1,0,3:2:0:0:
64,223,390661,2,0,P|65:250|88:289,1,55,0|0,3:2|0:0,0:0:0:0:
48,345,390926,2,0,P|66:365|105:379,1,55,0|0,3:2|0:0,0:0:0:0:
247,333,391191,6,0,L|168:314,1,55,4|0,3:1|0:0,0:0:0:0:
337,297,391456,2,0,L|292:235,1,55,0|0,3:2|0:0,0:0:0:0:
437,315,391721,2,0,L|442:241,1,55,0|0,3:2|0:0,0:0:0:0:
512,148,391985,6,0,P|471:180|446:185,1,55,2|0,1:2|0:0,0:0:0:0:
455,42,392250,2,0,P|444:92|426:112,1,55,0|0,3:2|0:0,0:0:0:0:
345,0,392515,2,0,P|369:45|367:74,1,55,0|0,3:2|0:0,0:0:0:0:
256,111,392780,6,0,P|264:84|284:57,1,55,2|0,3:2|0:0,0:0:0:0:
195,200,393045,2,0,P|184:174|182:144,1,55,0|0,3:2|0:0,0:0:0:0:
205,307,393310,2,0,P|180:294|160:273,1,55,0|0,3:2|0:0,0:0:0:0:
99,131,393575,5,2,1:2:0:0:
78,293,393707,1,0,1:2:0:0:
96,204,393840,2,0,L|21:224,1,55,0|0,3:2|3:2,0:0:0:0:
162,274,394105,2,0,P|191:286|230:267,1,55,0|0,3:2|3:2,0:0:0:0:
372,179,394370,6,0,P|307:177|285:200,1,69.6666698557537,4|0,3:2|0:0,0:0:0:0:
379,308,394634,2,0,P|412:253|402:222,1,69.6666698557537,0|0,3:2|0:0,0:0:0:0:
260,250,394899,2,0,P|291:307|318:314,1,69.6666698557537,0|0,3:2|0:0,0:0:0:0:
364,158,395164,6,0,P|287:171|270:192,1,76.9999976501466,2|0,1:2|0:0,0:0:0:0:
401,312,395429,2,0,P|429:238|420:216,1,76.9999976501466,0|0,3:2|0:0,0:0:0:0:
245,267,395694,2,0,P|295:328|316:332,1,76.9999976501466,0|0,3:2|0:0,0:0:0:0:
350,143,395959,6,0,P|266:172|253:195,1,84.3333324754503,2|0,3:2|0:0,0:0:0:0:
421,307,396224,2,0,P|438:219|426:197,1,84.3333324754503,0|0,3:2|0:0,0:0:0:0:
239,288,396489,2,0,P|306:346|325:347,1,84.3333324754503,0|0,3:2|0:0,0:0:0:0:
361,146,396754,5,2,1:2:0:0:
272,166,396886,1,0,0:0:0:0:
386,274,397019,2,0,P|387:210|369:187,1,69.6666698557537,0|0,3:2|0:0,0:0:0:0:
253,284,397283,2,0,P|309:317|341:311,1,69.6666698557537,0|0,3:2|0:0,0:0:0:0:
171,244,397548,6,0,P|102:279|68:276,1,76.9999976501466,4|0,3:1|0:0,0:0:0:0:
207,104,397813,2,0,P|272:143|287:174,1,76.9999976501466,0|0,3:2|0:0,0:0:0:0:
81,142,398078,2,0,P|82:63|99:42,1,76.9999976501466,0|0,3:2|0:0,0:0:0:0:
149,254,398343,6,0,P|66:272|34:262,1,84.3333324754503,2|0,1:2|0:0,0:0:0:0:
227,116,398608,2,0,P|285:176|292:211,1,84.3333324754503,0|0,3:2|0:0,0:0:0:0:
82,120,398873,2,0,P|105:37|133:15,1,84.3333324754503,0|0,3:2|0:0,0:0:0:0:
103,253,399138,6,0,P|10:248|-17:227,1,91.6666666666667,2|0,3:2|0:0,0:0:0:0:
224,130,399403,2,0,P|268:210|262:247,1,91.6666666666667,0|0,3:2|0:0,0:0:0:0:
70,93,399668,2,0,P|117:12|144:2,1,91.6666666666667,0|0,3:2|0:0,0:0:0:0:
95,253,399932,6,0,P|0:222|-23:194,1,98.9999969787599,2|0,1:2|0:0,0:0:0:0:
257,158,400197,2,0,P|280:254|265:292,1,98.9999969787599,0|0,3:2|0:0,0:0:0:0:
106,77,400462,2,0,P|178:6|217:2,1,98.9999969787599,0|0,3:2|0:0,0:0:0:0:
380,59,400727,6,0,L|241:50,1,98.9999969787599,4|0,3:1|0:0,0:0:0:0:
418,140,400992,5,0,3:2:0:0:
468,69,401124,1,0,3:2:0:0:
325,143,401257,5,0,3:2:0:0:
361,222,401389,1,0,3:2:0:0:
369,54,401522,5,2,3:2:0:0:
275,61,401654,1,0,3:2:0:0:
423,133,401787,5,0,3:2:0:0:
463,49,401919,1,0,3:2:0:0:
327,152,402052,5,0,3:2:0:0:
380,228,402184,1,0,3:2:0:0:
357,51,402317,5,2,3:2:0:0:
260,77,402449,1,0,3:2:0:0:
430,125,402581,5,0,3:2:0:0:
457,28,402714,1,0,3:2:0:0:
332,163,402846,5,0,3:2:0:0:
402,234,402979,1,0,3:2:0:0:
345,43,403111,5,2,3:2:0:0:
244,90,403244,1,0,3:2:0:0:
438,109,403376,5,0,3:2:0:0:
447,0,403509,1,0,3:2:0:0:
340,170,403641,5,0,3:2:0:0:
428,233,403773,1,0,3:2:0:0:
193,180,403906,6,0,L|54:150,1,110,4|0,3:1|3:2,0:0:0:0:
190,296,404171,5,0,3:2:0:0:
275,202,404303,1,0,3:2:0:0:
89,233,404436,5,0,3:2:0:0:
127,353,404568,1,0,3:2:0:0:
193,180,404701,5,2,1:2:0:0:
60,148,404833,1,0,3:2:0:0:
162,36,404966,1,0,3:2:0:0:
123,207,405098,1,0,3:2:0:0:
74,51,405230,1,0,3:2:0:0:
235,92,405363,1,0,3:2:0:0:
95,250,405495,6,0,L|50:123,1,110,4|0,3:1|3:2,0:0:0:0:
233,240,405760,5,0,3:2:0:0:
139,353,405893,1,0,3:2:0:0:
133,153,406025,5,0,3:2:0:0:
277,177,406158,1,0,3:2:0:0:
93,279,406290,5,2,1:2:0:0:
65,120,406423,1,0,3:2:0:0:
236,255,406555,5,0,3:2:0:0:
113,359,406687,1,0,3:2:0:0:
144,142,406820,5,0,3:2:0:0:
295,195,406952,1,0,3:2:0:0:
446,28,407085,6,0,B|319:43,1,126.5,4|0,3:1|0:0,0:0:0:0:
200,48,408674,5,2,1:2:0:0:
217,75,408762,1,0,3:2:0:0:
239,99,408851,1,0,3:2:0:0:
265,121,408939,1,0,3:2:0:0:
294,138,409027,1,0,3:2:0:0:
324,150,409116,1,0,3:2:0:0:
356,158,409204,2,0,L|427:141,3,41.2500015735627,0|0|0|0,3:2|3:2|3:2|3:2,0:0:0:0:
481,91,409469,5,0,1:2:0:0:
459,103,409535,1,0,3:2:0:0:
439,118,409601,1,0,3:2:0:0:
427,139,409668,1,0,3:2:0:0:
421,162,409734,1,0,3:2:0:0:
423,186,409800,1,0,3:2:0:0:
432,209,409866,1,0,3:2:0:0:
447,228,409932,1,0,3:2:0:0:
467,241,409999,2,0,L|523:228,3,41.2500015735627,0|0|0|0,3:2|3:2|3:2|3:2,0:0:0:0:
414,335,410264,5,0,3:2:0:0:
393,309,410330,1,0,3:2:0:0:
368,288,410396,1,0,3:2:0:0:
339,271,410462,1,0,3:2:0:0:
308,261,410528,1,0,3:2:0:0:
275,256,410595,1,0,3:2:0:0:
242,257,410661,1,0,3:2:0:0:
210,265,410727,1,0,3:2:0:0:
180,278,410793,2,0,L|171:349,3,41.2500015735627,0|0|0|0,3:2|3:2|3:2|3:2,0:0:0:0:
195,64,411058,5,4,1:1:0:0:
