osu file format v14

[General]
AudioFilename: audio.mp3
AudioLeadIn: 0
PreviewTime: 48223
Countdown: 0
SampleSet: Drum
StackLeniency: 0.4
Mode: 0
LetterboxInBreaks: 0
WidescreenStoryboard: 1

[Editor]
DistanceSpacing: 1.5
BeatDivisor: 4
GridSize: 8
TimelineZoom: 1

[Metadata]
Title:Tell Me Why (TV Size)
TitleUnicode:Tell Me Why (TV Size)
Artist:Penpals
ArtistUnicode:Penpals
Creator:Sneed
Version:Hard
Source:ベルセルク
Tags:Berserk, ベルセルク, Penpals, Tell, Me, Why, Tv, Size
BeatmapID:2089704
BeatmapSetID:999051

[Difficulty]
HPDrainRate:5
CircleSize:4
OverallDifficulty:6
ApproachRate:8
SliderMultiplier:1.8
SliderTickRate:1

[Events]
//Background and Video events
0,0,"Wallpaper Osu.png",0,0
//Break Periods
//Storyboard Layer 0 (Background)
//Storyboard Layer 1 (Fail)
//Storyboard Layer 2 (Pass)
//Storyboard Layer 3 (Foreground)
//Storyboard Layer 4 (Overlay)
//Storyboard Sound Samples

[TimingPoints]
0,500,4,3,0,30,1,0
1187,500,4,3,0,30,1,0
2670,500,4,3,0,30,1,0
5898,500,4,3,0,30,1,0
11935,500,4,3,0,30,1,0
19929,-117.647058823529,4,3,0,30,0,0
21700,500,4,3,0,30,1,0
21700,-117.647058823529,4,3,0,30,0,0
22217,500,4,3,0,30,1,0
22342,-117.647058823529,4,3,0,30,0,0
24245,500,4,3,0,30,1,0
24370,-117.647058823529,4,3,0,30,0,0
25289,500,4,3,0,30,1,0
25414,-117.647058823529,4,3,0,30,0,0
28069,500,4,3,0,30,1,0
28190,-117.647058823529,4,3,0,30,0,0
29851,500,4,3,0,30,1,0
29851,-117.647058823529,4,3,0,30,0,0
33631,500,4,3,0,30,1,0
33631,-117.647058823529,4,3,0,30,0,0
36155,500,4,3,0,30,1,0
36155,-117.647058823529,4,3,0,30,0,0
37681,500,4,3,0,30,1,0
37681,-117.647058823529,4,3,0,30,0,0
38451,500,4,3,0,30,1,0
38451,-117.647058823529,4,3,0,30,0,0
40223,500,4,3,0,30,1,0
40223,-117.647058823529,4,3,0,30,0,0
48223,-90.9090909090909,4,3,0,30,0,1
50745,500,4,3,0,30,1,1
50755,-90.9090909090909,4,3,0,30,0,1
55013,500,4,3,0,30,1,1
55033,-90.9090909090909,4,3,0,30,0,1
56805,500,4,3,0,30,1,1
56805,-90.9090909090909,4,3,0,30,0,1
58816,500,4,3,0,30,1,1
58824,-90.9090909090909,4,3,0,30,0,1
62809,-133.333333333333,4,3,0,30,0,1
64566,-133.333333333333,4,3,0,30,0,0

[Colours]
Combo1 : 255,128,64
Combo2 : 255,0,0
Combo3 : 192,192,192

[HitObjects]
110,151,0,5,10,0:0:0:0:
183,299,250,1,10,0:0:0:0:
274,161,500,1,10,0:0:0:0:
127,236,750,1,10,0:0:0:0:
127,236,1187,6,0,P|152:233|174:214,1,45,2|2,0:0|0:0,0:0:0:0:
197,81,1437,1,2,0:0:0:0:
197,81,1562,1,2,0:0:0:0:
197,81,1687,1,2,0:0:0:0:
45,169,1937,1,0,0:0:0:0:
221,169,2187,1,4,0:0:0:0:
69,81,2437,1,2,0:0:0:0:
68,256,2670,6,0,L|56:312,1,45,2|2,0:0|0:0,0:0:0:0:
146,346,2920,2,0,L|134:290,1,45,10|10,0:0|0:0,0:0:0:0:
224,256,3170,2,0,L|212:312,1,45,10|10,0:0|0:0,0:0:0:0:
302,346,3420,2,0,L|290:290,3,45,10|10|0|0,0:0|0:0|0:0|0:0,0:0:0:0:
367,255,3920,6,0,P|316:222|298:183,2,90,14|2|2,0:0|0:0|0:0,0:0:0:0:
468,179,4670,1,2,0:0:0:0:
468,179,4795,1,2,0:0:0:0:
468,179,4920,2,0,P|425:167|381:176,1,90,2|2,0:0|0:0,0:0:0:0:
489,253,5420,1,2,0:0:0:0:
467,71,5670,1,2,0:0:0:0:
467,71,5795,1,2,0:0:0:0:
467,71,5898,6,0,L|370:99,2,90,6|2|2,0:0|0:0|0:0,0:0:0:0:
290,44,6648,1,2,0:0:0:0:
290,44,6773,1,2,0:0:0:0:
290,44,6898,2,0,L|272:136,1,90,2|2,0:0|0:0,0:0:0:0:
250,256,7398,1,2,0:0:0:0:
397,180,7648,1,2,0:0:0:0:
397,180,7773,1,2,0:0:0:0:
397,180,7898,6,0,B|363:171|363:171|300:193,2,90,2|0|0,0:0|0:0|0:0,0:0:0:0:
231,271,8648,1,2,0:0:0:0:
231,271,8773,1,2,0:0:0:0:
231,271,8898,2,0,B|222:237|222:237|244:174,1,90,2|2,0:0|0:0,0:0:0:0:
286,334,9398,1,2,0:0:0:0:
125,280,9648,1,2,0:0:0:0:
125,280,9773,1,2,0:0:0:0:
125,280,9898,6,0,L|157:188,2,90,2|0|8,0:0|0:0|0:0,0:0:0:0:
72,130,10648,2,0,B|123:107|123:107|264:144,1,180,2|2,0:0|0:0,0:0:0:0:
327,231,11398,1,2,0:0:0:0:
177,289,11648,1,10,0:0:0:0:
177,289,11773,1,10,0:0:0:0:
177,289,11935,6,0,P|165:228|169:192,2,90,6|2|2,0:0|0:0|0:0,0:0:0:0:
289,344,12685,1,2,0:0:0:0:
289,344,12810,1,2,0:0:0:0:
289,344,12935,2,0,P|310:298|312:256,1,90,2|2,0:0|0:0,0:0:0:0:
187,362,13435,1,8,0:0:0:0:
389,344,13685,1,10,0:0:0:0:
389,344,13810,1,10,0:0:0:0:
389,344,13935,6,0,L|381:252,2,90,6|2|2,0:0|0:0|0:0,0:0:0:0:
314,203,14685,1,2,0:0:0:0:
314,203,14810,1,2,0:0:0:0:
314,203,14935,2,0,P|339:182|365:171,1,45,2|0,0:0|0:0,0:0:0:0:
467,157,15185,1,2,0:0:0:0:
465,282,15435,1,8,0:0:0:0:
401,117,15685,1,10,0:0:0:0:
401,117,15810,1,10,0:0:0:0:
401,117,15935,6,0,P|451:87|484:83,2,90,6|2|2,0:0|0:0|0:0,0:0:0:0:
387,254,16685,1,2,0:0:0:0:
387,254,16810,1,2,0:0:0:0:
387,254,16935,2,0,L|458:183,1,90,2|2,0:0|0:0,0:0:0:0:
288,173,17435,1,8,0:0:0:0:
257,329,17685,1,10,0:0:0:0:
257,329,17810,1,10,0:0:0:0:
257,329,17935,6,0,P|315:335|356:320,2,90,14|2|2,0:0|0:0|0:0,0:0:0:0:
180,221,18685,2,0,L|237:247,1,45,2|0,0:0|0:0,0:0:0:0:
324,182,18935,2,0,L|267:208,1,45,10|10,0:0|0:0,0:0:0:0:
180,143,19185,2,0,L|237:169,1,45,10|10,0:0|0:0,0:0:0:0:
324,104,19435,1,10,0:0:0:0:
302,86,19560,1,10,0:0:0:0:
276,74,19685,1,10,0:0:0:0:
247,69,19810,1,10,0:0:0:0:
217,71,19935,6,0,P|175:112|157:141,1,76.5000014591217,2|0,0:0|0:0,0:0:0:0:
149,232,20435,1,8,0:0:0:0:
221,310,20685,1,2,0:0:0:0:
323,340,20935,2,0,P|346:294|322:199,1,153.000002918243,0|8,0:0|0:0,0:0:0:0:
418,139,21700,2,0,B|407:191|407:191|425:300,1,153.000002918243,0|0,0:0|0:0,0:0:0:0:
480,194,22467,5,8,0:0:0:0:
341,150,22717,1,2,0:0:0:0:
297,289,22967,2,0,P|328:328|433:344,1,153.000002918243,0|8,0:0|0:0,0:0:0:0:
276,220,23717,2,0,P|239:244|224:291,2,76.5000014591217,0|2|0,0:0|0:0|0:0,0:0:0:0:
393,241,24495,5,8,0:0:0:0:
297,289,24745,1,2,0:0:0:0:
384,162,24995,2,0,P|436:176|466:203,1,76.5000014591217,0|0,0:0|0:0,0:0:0:0:
466,312,25539,1,8,0:0:0:0:
347,269,25789,1,0,0:0:0:0:
293,154,26039,2,0,P|337:161|372:187,2,76.5000014591217,2|0|8,0:0|0:0|0:0,0:0:0:0:
206,218,26789,2,0,B|197:258|197:258|220:368,2,153.000002918243,2|0|0,0:0|0:0|0:0,0:0:0:0:
262,88,28069,1,2,0:0:0:0:
279,234,28319,5,0,0:0:0:0:
262,88,28569,2,0,P|214:99|174:119,1,76.5000014591217,8|2,0:0|0:0,0:0:0:0:
345,190,29069,2,0,P|360:151|317:34,1,153.000002918243,0|8,0:0|0:0,0:0:0:0:
451,91,29851,2,0,B|434:129|434:129|438:244,1,153.000002918243,0|0,0:0|0:0,0:0:0:0:
386,347,30601,5,8,0:0:0:0:
351,206,30851,1,2,0:0:0:0:
309,373,31101,2,0,L|275:217,1,153.000002918243,0|8,0:0|0:0,0:0:0:0:
177,165,31851,2,0,P|197:212|189:248,2,76.5000014591217,0|2|0,0:0|0:0|0:0,0:0:0:0:
144,329,32601,5,8,0:0:0:0:
242,369,32851,1,2,0:0:0:0:
104,235,33101,2,0,P|85:269|64:323,1,76.5000014591217,0|0,0:0|0:0,0:0:0:0:
196,207,33631,5,8,0:0:0:0:
106,148,33881,1,0,0:0:0:0:
228,302,34131,2,0,P|266:268|285:234,2,76.5000014591217,2|0|8,0:0|0:0|0:0,0:0:0:0:
232,169,34881,5,2,0:0:0:0:
363,292,35131,2,0,L|314:363,1,76.5000014591217,0|8,0:0|0:0,0:0:0:0:
297,355,35506,1,8,0:0:0:0:
280,358,35631,2,0,L|234:337,1,38.2500007295609,8|8,0:0|0:0,0:0:0:0:
180,227,35881,2,0,L|134:248,1,38.2500007295609,0|8,0:0|0:0,0:0:0:0:
80,358,36155,6,0,P|88:304|17:245,1,153.000002918243,2|8,0:0|0:0,0:0:0:0:
94,169,36905,1,2,0:0:0:0:
180,227,37155,2,0,P|178:271|194:314,1,76.5000014591217,0|0,0:0|0:0,0:0:0:0:
292,246,37681,2,0,P|294:202|278:159,1,76.5000014591217,8|0,0:0|0:0,0:0:0:0:
261,313,38181,1,2,0:0:0:0:
371,347,38451,1,0,0:0:0:0:
405,237,38701,1,8,0:0:0:0:
295,203,38951,2,0,P|317:245|340:273,1,76.5000014591217,2|0,0:0|0:0,0:0:0:0:
239,146,39451,2,0,P|224:191|221:227,1,76.5000014591217,0|8,0:0|0:0,0:0:0:0:
239,66,39951,5,0,0:0:0:0:
239,66,40076,1,0,0:0:0:0:
239,66,40223,2,0,P|196:87|169:110,2,76.5000014591217,2|0|8,0:0|0:0|0:0,0:0:0:0:
332,150,40973,5,2,0:0:0:0:
332,150,41098,1,0,0:0:0:0:
332,150,41223,2,0,P|374:171|402:194,2,76.5000014591217,0|0|8,0:0|0:0|0:0,0:0:0:0:
239,234,41973,5,0,0:0:0:0:
239,234,42098,1,0,0:0:0:0:
239,234,42223,2,0,P|197:256|169:279,2,76.5000014591217,2|0|8,0:0|0:0|0:0,0:0:0:0:
332,318,42973,5,2,0:0:0:0:
332,318,43098,1,0,0:0:0:0:
332,318,43223,2,0,P|374:340|389:351,1,38.2500007295609,8|8,0:0|0:0,0:0:0:0:
222,245,43473,2,0,P|264:223|279:212,1,38.2500007295609,8|8,0:0|0:0,0:0:0:0:
112,318,43723,2,0,P|154:340|169:351,1,38.2500007295609,8|8,0:0|0:0,0:0:0:0:
2,244,43973,2,0,P|44:222|59:211,1,38.2500007295609,0|8,0:0|0:0,0:0:0:0:
88,95,44223,6,0,P|131:124|150:159,1,76.5000014591217,10|0,0:0|0:0,0:0:0:0:
251,56,44723,2,0,P|233:72|226:102,3,38.2500007295609,8|0|2|0,0:0|0:0|0:0|0:0,0:0:0:0:
292,113,45223,6,0,P|263:156|228:175,1,76.5000014591217,0|0,0:0|0:0,0:0:0:0:
331,276,45723,2,0,P|315:258|285:251,3,38.2500007295609,8|0|0|0,0:0|0:0|0:0|0:0,0:0:0:0:
274,317,46223,6,0,P|231:288|212:253,2,76.5000014591217,2|0|8,0:0|0:0|0:0,0:0:0:0:
408,202,46973,6,0,L|371:176,1,38.2500007295609,10|8,0:0|0:0,0:0:0:0:
261,161,47223,2,0,L|298:187,1,38.2500007295609,8|8,0:0|0:0,0:0:0:0:
233,70,47473,2,0,L|202:49,1,38.2500007295609,8|8,0:0|0:0,0:0:0:0:
69,92,47723,5,8,0:0:0:0:
49,127,47848,1,8,0:0:0:0:
50,166,47973,1,0,0:0:0:0:
70,200,48098,1,8,0:0:0:0:
103,218,48223,6,0,P|152:223|202:200,1,99.0000030212403,8|0,0:0|0:0,0:0:0:0:
251,50,48723,1,4,0:0:0:0:
275,251,48973,1,2,0:0:0:0:
275,251,49098,1,2,0:0:0:0:
275,251,49223,2,0,P|280:196|297:142,1,99.0000030212403,2|2,0:0|0:0,0:0:0:0:
404,57,49723,5,8,0:0:0:0:
449,198,49973,1,0,0:0:0:0:
449,198,50098,1,0,0:0:0:0:
449,198,50223,2,0,P|444:253|427:307,1,99.0000030212403,0|0,0:0|0:0,0:0:0:0:
296,351,50745,5,0,0:0:0:0:
159,292,50995,1,8,0:0:0:0:
159,292,51120,1,8,0:0:0:0:
159,292,51245,2,0,L|201:188,1,99.0000030212403,4|0,0:0|0:0,0:0:0:0:
307,101,51745,5,2,0:0:0:0:
356,241,51995,1,2,0:0:0:0:
336,258,52120,1,2,0:0:0:0:
315,275,52245,2,0,B|291:250|291:250|278:172,1,99.0000030212403,6|0,0:0|0:0,0:0:0:0:
394,91,52745,5,4,0:0:0:0:
454,226,52995,1,2,0:0:0:0:
454,226,53120,1,2,0:0:0:0:
454,226,53245,2,0,L|455:286,1,49.5000015106202,2|2,0:0|0:0,0:0:0:0:
357,361,53495,1,2,0:0:0:0:
265,244,53745,5,8,0:0:0:0:
309,102,53995,1,0,0:0:0:0:
309,102,54120,1,0,0:0:0:0:
309,102,54245,2,0,P|329:151|336:210,1,99.0000030212403,0|0,0:0|0:0,0:0:0:0:
269,330,54745,1,0,0:0:0:0:
193,206,55013,5,8,0:0:0:0:
193,206,55138,1,8,0:0:0:0:
193,206,55263,2,0,P|225:158|236:151,1,49.5000015106202,4|0,0:0|0:0,0:0:0:0:
342,146,55513,2,0,P|367:197|368:210,1,49.5000015106202,0|0,0:0|0:0,0:0:0:0:
319,305,55763,1,2,0:0:0:0:
291,323,55888,1,0,0:0:0:0:
257,324,56013,1,2,0:0:0:0:
227,307,56138,1,2,0:0:0:0:
209,277,56263,2,0,B|235:258|235:258|317:230,1,99.0000030212403,6|0,0:0|0:0,0:0:0:0:
440,279,56804,5,4,0:0:0:0:
315,360,57013,1,2,0:0:0:0:
315,360,57138,1,2,0:0:0:0:
315,360,57305,2,0,P|325:293|349:246,1,99.0000030212403,2|2,0:0|0:0,0:0:0:0:
440,158,57805,5,8,0:0:0:0:
479,301,58055,1,0,0:0:0:0:
479,301,58180,1,0,0:0:0:0:
479,301,58305,2,0,L|401:225,1,99.0000030212403
283,126,58816,5,0,0:0:0:0:
420,68,59066,1,8,0:0:0:0:
420,68,59191,1,8,0:0:0:0:
420,68,59316,2,0,P|423:128|409:171,1,99.0000030212403,4|0,0:0|0:0,0:0:0:0:
297,259,59816,5,2,0:0:0:0:
210,138,60066,1,2,0:0:0:0:
210,138,60191,1,2,0:0:0:0:
210,138,60316,2,0,B|238:129|238:129|319:138,1,99.0000030212403,6|0,0:0|0:0,0:0:0:0:
192,231,60816,5,4,0:0:0:0:
125,97,61066,1,2,0:0:0:0:
125,97,61191,1,2,0:0:0:0:
125,97,61316,2,0,P|171:63|223:40,1,99.0000030212403,2|2,0:0|0:0,0:0:0:0:
183,236,61816,5,8,0:0:0:0:
83,123,62066,1,0,0:0:0:0:
83,123,62191,1,0,0:0:0:0:
83,123,62316,2,0,P|118:78|162:42,1,99.0000030212403,0|0,0:0|0:0,0:0:0:0:
327,31,62847,5,0,0:0:0:0:
291,153,63097,5,8,0:0:0:0:
229,93,63378,5,8,0:0:0:0:
229,194,63628,5,8,0:0:0:0:
142,203,63878,6,0,L|195:281,1,90.0000034332277,8|0,0:0|0:0,0:0:0:0:
215,284,64524,5,14,0:0:0:0:
256,192,64628,12,0,69816,0:0:0:0:
