osu file format v14

[General]
AudioFilename: audio.mp3
AudioLeadIn: 0
PreviewTime: 82448
Countdown: 1
SampleSet: None
StackLeniency: 0.7
Mode: 0
LetterboxInBreaks: 0
WidescreenStoryboard: 0

[Editor]
Bookmarks: 27,116539
DistanceSpacing: 0.8
BeatDivisor: 6
GridSize: 8
TimelineZoom: 3.899998

[Metadata]
Title:Preserved Valkyria
TitleUnicode:Preserved Valkyria
Artist:Penoreri
ArtistUnicode:Penoreri
Creator:Fragment-
Version:Warriors of Valhalla
Source:
Tags:
BeatmapID:1354790
BeatmapSetID:638690

[Difficulty]
HPDrainRate:5
CircleSize:4.2
OverallDifficulty:8
ApproachRate:10
SliderMultiplier:3
SliderTickRate:1

[Events]
//Background and Video events
0,0,"52151511_p0.jpg",0,0
//Break Periods
2,29324,32615
//Storyboard Layer 0 (Background)
//Storyboard Layer 1 (Fail)
//Storyboard Layer 2 (Pass)
//Storyboard Layer 3 (Foreground)
//Storyboard Sound Samples

[TimingPoints]
-166,387.096774193548,4,1,0,50,1,0
2737,-66.6666666666667,4,1,0,50,0,0
4285,-50,4,1,0,50,0,0
5059,-100,4,1,0,50,0,0
7575,-100,4,1,0,80,0,0
10672,-100,4,1,0,50,0,0
13769,-100,4,1,0,80,0,0
21511,-50,4,1,0,100,0,0
22285,-100,4,1,0,100,0,0
22479,-50,4,1,0,100,0,0
33124,-66.6666666666667,4,1,0,100,0,0
33898,-133.333333333333,4,1,0,100,0,0
38446,-133.333333333333,4,3,0,100,0,0
41640,-103.092783505155,4,3,0,100,0,0
44737,-103.092783505155,4,1,0,5,0,0
44761,-103.092783505155,4,1,0,50,0,0
46285,-66.6666666666667,4,1,0,99,0,0
47059,500,4,1,0,50,1,0
48085,272.727272727273,4,1,0,100,1,0
55721,-133.333333333333,4,1,0,100,0,0
56812,-100,4,3,0,100,0,1
65539,-66.6666666666667,4,1,0,50,0,0
82994,-66.6666666666667,4,1,0,100,0,1
84357,-100,4,1,0,100,0,1
90630,-133.333333333333,4,1,0,100,0,1
96085,-100,4,1,0,100,0,1
96494,-83.3333333333333,4,1,0,100,0,1
97175,-100,4,1,0,100,0,1
97585,-105.263157894737,4,1,0,100,0,1
98266,-133.333333333333,4,1,0,100,0,1
108085,-100,4,1,0,100,0,1
109107,-133.333333333333,4,1,0,100,0,1
109175,-100,4,1,0,100,0,1
109175,-100,4,3,0,100,0,1
118448,-100,4,1,0,100,0,0

[HitObjects]
475,255,1382,6,0,B|428:264|404:303|404:303|379:278|379:278|346:335|287:335,1,225,0|0,2:0|0:0,0:0:0:0:
241,167,1769,2,0,P|257:264|302:163,1,225
445,76,2156,2,0,P|529:27|544:32,1,75
353,32,2446,2,0,P|257:49|244:39,1,75
402,194,2737,6,0,B|365:149|292:202|295:279|393:314|393:314|304:336|280:384,1,337.5
240,184,3123,2,0,B|218:252|250:307|250:307|107:358|102:241|167:154,1,337.500012874604
254,69,3511,1,0,0:0:0:0:
428,101,3704,1,0,0:0:0:0:
487,267,3994,1,0,0:0:0:0:
313,235,4285,6,0,B|284:201|398:152|424:246|394:331|340:321|291:322|255:277|255:277|238:306|238:306|207:300|207:300|195:353|119:384,1,450.000017166138
36,232,4672,5,0,0:0:0:0:
11,194,4769,1,0,0:0:0:0:
4,149,4865,1,0,0:0:0:0:
23,108,4962,1,0,0:0:0:0:
64,89,5059,2,0,B|167:49|215:155|215:155|257:149|303:168|303:168|348:148|370:71|314:46|275:37|241:46|224:77|266:111|266:111,1,450
134,157,5833,6,0,B|104:138|48:162|44:200,1,75
126,333,6027,1,0,0:0:0:0:
88,308,6123,5,0,0:0:0:0:
100,264,6220,1,0,0:0:0:0:
139,243,6317,1,0,0:0:0:0:
178,264,6414,1,0,0:0:0:0:
201,302,6511,1,0,0:0:0:0:
240,323,6607,1,0,0:0:0:0:
284,327,6704,1,0,0:0:0:0:
321,301,6801,6,0,P|352:196|282:117,1,225
114,175,7188,6,0,P|43:193|116:166,1,225
45,296,7575,2,0,P|90:365|135:375,1,75
253,327,7769,5,0,0:0:0:0:
291,304,7865,1,0,0:0:0:0:
335,296,7962,1,0,0:0:0:0:
379,300,8059,1,0,0:0:0:0:
421,316,8156,5,0,0:0:0:0:
410,272,8252,1,0,0:0:0:0:
412,226,8349,1,0,0:0:0:0:
444,194,8446,1,0,0:0:0:0:
481,219,8543,5,0,0:0:0:0:
506,181,8640,1,0,0:0:0:0:
502,136,8736,1,0,0:0:0:0:
471,103,8833,1,0,0:0:0:0:
431,124,8930,5,0,0:0:0:0:
386,133,9027,1,0,0:0:0:0:
353,102,9123,1,0,0:0:0:0:
370,60,9220,1,0,0:0:0:0:
415,58,9317,5,0,0:0:0:0:
385,24,9414,1,0,0:0:0:0:
339,22,9511,1,0,0:0:0:0:
299,43,9607,1,0,0:0:0:0:
263,70,9704,5,0,0:0:0:0:
229,40,9801,1,0,0:0:0:0:
184,32,9898,1,0,0:0:0:0:
141,44,9994,1,0,0:0:0:0:
104,114,10091,5,0,0:0:0:0:
113,158,10188,1,0,0:0:0:0:
54,207,10285,5,0,0:0:0:0:
77,245,10382,1,0,0:0:0:0:
38,311,10478,5,0,0:0:0:0:
73,339,10575,1,0,0:0:0:0:
110,364,10672,5,0,0:0:0:0:
200,152,10801,1,0,0:0:0:0:
229,381,10930,1,0,0:0:0:0:
494,179,11059,5,0,0:0:0:0:
265,208,11188,1,0,0:0:0:0:
478,298,11317,1,0,0:0:0:0:
276,34,11446,5,0,0:0:0:0:
305,263,11575,1,0,0:0:0:0:
394,51,11704,1,0,0:0:0:0:
63,92,11833,5,0,0:0:0:0:
277,182,11962,1,0,0:0:0:0:
47,210,12091,1,0,0:0:0:0:
233,71,12220,1,0,0:0:0:0:
435,337,12414,5,0,0:0:0:0:
403,294,12511,1,0,0:0:0:0:
352,288,12607,1,0,0:0:0:0:
304,296,12704,1,0,0:0:0:0:
272,336,12801,1,0,0:0:0:0:
224,352,12898,1,0,0:0:0:0:
176,344,12994,2,0,B|116:354|86:297|111:240|168:218|210:253|218:283,1,225,0|0,2:0|2:0,2:0:0:0:
48,344,13381,6,0,B|23:208|160:168,1,225,0|0,2:0|2:0,2:0:0:0:
320,200,13769,6,0,B|288:240|232:224,1,75,0|0,2:0|2:0,2:0:0:0:
376,120,13962,2,0,B|408:80|464:96,1,75,0|0,2:0|2:0,2:0:0:0:
456,240,14156,2,0,B|405:232|391:175,1,75,0|0,2:0|2:0,2:0:0:0:
240,80,14349,2,0,B|288:87|295:122,1,75,0|0,2:0|2:0,2:0:0:0:
176,160,14543,2,0,B|130:177|106:150,1,75,0|0,2:0|2:0,2:0:0:0:
48,56,14736,1,0,0:0:0:0:
96,32,14833,5,0,0:0:0:0:
144,48,14930,1,0,0:0:0:0:
168,96,15027,1,0,0:0:0:0:
160,144,15123,1,0,0:0:0:0:
128,184,15220,5,0,0:0:0:0:
88,152,15317,1,0,0:0:0:0:
40,168,15414,1,0,0:0:0:0:
8,208,15511,1,0,0:0:0:0:
16,256,15607,1,0,0:0:0:0:
56,288,15704,1,0,0:0:0:0:
104,304,15801,1,0,0:0:0:0:
144,336,15898,1,0,0:0:0:0:
176,376,15994,5,0,0:0:0:0:
208,336,16091,1,0,0:0:0:0:
248,296,16188,1,0,0:0:0:0:
296,272,16285,1,0,0:0:0:0:
344,264,16381,1,0,0:0:0:0:
392,280,16478,1,0,0:0:0:0:
424,320,16575,1,0,0:0:0:0:
464,352,16672,1,0,0:0:0:0:
408,376,16769,5,0,0:0:0:0:
360,352,16865,1,0,0:0:0:0:
352,304,16962,1,0,0:0:0:0:
376,256,17059,1,0,0:0:0:0:
448,200,17156,5,0,0:0:0:0:
400,184,17252,1,0,0:0:0:0:
376,136,17349,1,0,0:0:0:0:
400,88,17446,1,0,0:0:0:0:
464,16,17543,5,0,0:0:0:0:
432,56,17640,1,0,0:0:0:0:
384,80,17736,1,0,0:0:0:0:
336,88,17833,1,0,0:0:0:0:
288,80,17930,1,0,0:0:0:0:
240,56,18027,1,0,0:0:0:0:
200,24,18123,5,0,0:0:0:0:
152,8,18220,1,0,0:0:0:0:
104,32,18317,1,0,0:0:0:0:
72,80,18414,1,0,0:0:0:0:
72,136,18511,1,0,0:0:0:0:
112,168,18607,5,0,0:0:0:0:
72,200,18704,1,0,0:0:0:0:
64,248,18801,1,0,0:0:0:0:
96,288,18898,1,0,0:0:0:0:
56,320,18994,5,0,0:0:0:0:
72,368,19091,1,0,0:0:0:0:
128,376,19188,5,0,0:0:0:0:
168,336,19285,1,0,0:0:0:0:
112,280,19381,5,0,0:0:0:0:
152,240,19478,1,0,0:0:0:0:
96,184,19575,5,0,0:0:0:0:
136,144,19672,1,0,0:0:0:0:
80,88,19769,5,0,0:0:0:0:
120,48,19866,1,0,0:0:0:0:
293,75,19962,5,0,0:0:0:0:
320,80,20011,1,0,0:0:0:0:
344,80,20059,1,0,0:0:0:0:
368,72,20107,1,0,0:0:0:0:
392,56,20156,2,0,L|424:16,3,37.5
408,144,20349,5,0,0:0:0:0:
417,169,20398,1,0,0:0:0:0:
429,190,20446,1,0,0:0:0:0:
448,207,20494,1,0,0:0:0:0:
473,220,20543,2,0,L|523:227,3,37.5
404,277,20736,5,0,0:0:0:0:
237,336,20930,6,0,B|184:352|152:328,1,75,0|0,2:0|2:0,2:0:0:0:
288,152,21124,2,0,B|328:189|323:229,1,75,0|0,2:0|2:0,2:0:0:0:
103,199,21317,2,0,B|115:145|152:129,1,75,0|0,2:0|2:0,2:0:0:0:
277,247,21511,6,0,B|213:319|272:424|429:375|341:311|341:311|381:279|341:239|341:239|416:200|384:152,1,450
216,196,21898,6,0,B|160:260|184:360|184:360|104:292|48:272|48:272|80:244|88:196|88:196|192:148,1,450
265,97,22285,2,0,P|336:72|384:88,1,75
392,240,22479,6,0,B|438:285|430:345|430:345|455:372|495:369|495:369|525:327|512:281|512:281|477:249|483:238|483:238|499:209|499:209,1,300
343,355,22769,6,0,B|362:311|328:283|328:283|297:289|247:270|247:270|283:325|269:361|269:361|199:359|152:323|152:323,1,300
51,323,23059,5,0,0:0:0:0:
40,296,23156,1,0,0:0:0:0:
32,272,23253,1,0,0:0:0:0:
24,248,23350,5,0,0:0:0:0:
235,52,23543,1,0,0:0:0:0:
299,332,23737,1,0,0:0:0:0:
312,360,23833,1,0,0:0:0:0:
117,150,24027,1,0,0:0:0:0:
88,136,24124,1,0,0:0:0:0:
397,87,24317,1,0,0:0:0:0:
153,284,24511,1,0,0:0:0:0:
463,236,24704,5,0,0:0:0:0:
476,262,24801,1,0,0:0:0:0:
491,287,24898,1,0,0:0:0:0:
295,43,25092,1,0,0:0:0:0:
343,353,25285,1,0,0:0:0:0:
337,382,25382,1,0,0:0:0:0:
451,90,25575,1,0,0:0:0:0:
471,68,25672,1,0,0:0:0:0:
161,115,25866,1,0,0:0:0:0:
453,230,26059,5,0,0:0:0:0:
443,258,26156,1,0,0:0:0:0:
433,286,26253,1,0,0:0:0:0:
425,315,26350,1,0,0:0:0:0:
417,343,26446,1,0,0:0:0:0:
371,33,26640,1,0,0:0:0:0:
126,228,26833,1,0,0:0:0:0:
96,235,26930,1,0,0:0:0:0:
407,189,27124,1,0,0:0:0:0:
436,192,27221,1,0,0:0:0:0:
144,77,27414,1,0,0:0:0:0:
190,384,27608,5,0,0:0:0:0:
214,366,27704,1,0,0:0:0:0:
240,351,27801,1,0,0:0:0:0:
265,335,27898,1,0,0:0:0:0:
288,316,27995,1,0,0:0:0:0:
0,202,28188,1,0,0:0:0:0:
369,81,28350,5,0,0:0:0:0:
110,371,28479,1,0,0:0:0:0:
189,0,28608,1,0,0:0:0:0:
471,254,28737,1,0,0:0:0:0:
100,176,28866,1,0,0:0:0:0:
461,59,28995,1,0,0:0:0:0:
206,340,29124,1,0,0:0:0:0:
75,56,33124,6,0,B|149:136|36:207|36:207|89:270|81:346|81:346|161:375|217:318|217:318|139:270|169:204|169:204|203:210|228:196|228:196|208:160|224:136|224:136|296:144|339:98,1,787.500030040742
398,68,33898,6,0,B|440:136|325:191|325:191|350:228|350:228|330:259|276:260|276:260|299:348|366:391|461:341|479:284|479:284|435:233|462:171|462:171|510:109|452:9,1,843.750032186509
284,54,35446,6,0,B|343:106|455:80|455:80|334:146|352:252|352:252|348:320|417:383|453:360|537:325|517:229|461:129|354:198|281:315|281:315|228:240|252:166|252:166|195:180|152:138|152:138|139:204|74:217|74:217|117:249|99:310|99:310|168:288|225:357|225:357,1,1518.75005793572
355,250,38156,1,0,0:0:0:0:
470,115,38446,5,0,0:0:0:0:
461,90,38495,1,0,0:0:0:0:
449,69,38543,1,0,0:0:0:0:
430,52,38591,1,0,0:0:0:0:
405,39,38640,2,0,L|355:32,5,37.5
314,127,39027,5,0,0:0:0:0:
288,116,39076,1,0,0:0:0:0:
267,104,39124,1,0,0:0:0:0:
251,86,39172,1,0,0:0:0:0:
237,61,39221,2,0,L|224:24,14,28.1250010728836
55,92,39995,1,0,0:0:0:0:
55,92,40043,1,0,0:0:0:0:
55,92,40092,6,0,B|96:152|184:152|184:152|147:222|80:224|80:224|124:303|47:362|47:362|96:376|128:360|128:360|158:334|220:361|220:361|216:320|225:286|225:286|256:288|271:264|271:264|304:304|368:304,1,843.750032186509
290,178,41640,6,0,B|304:152|296:112|296:112|328:112|360:136|360:136|382:107|382:77|382:77|417:63|465:9|465:9|487:86|473:133|473:133|442:163|456:200|456:200|400:216|368:216|368:216|352:229|304:248|304:248|352:264|368:280|368:280|400:272|455:287|455:287|428:321|480:360|480:360|408:360|368:344|368:344|336:360|288:368|288:368|263:348|256:333|256:333|246:350|224:368|224:368|176:360|144:344|144:344|104:360|32:360|32:360|84:321|57:287|57:287|112:272|144:280|144:280|160:264|208:248|208:248|160:229|144:216|144:216|112:216|56:200|56:200|70:163|39:133|39:133|25:86|47:9|47:9|95:63|130:77|130:77|130:107|152:136|152:136|184:112|216:112|216:112|208:152|227:188,1,2328.00005505982
464,336,45511,5,0,0:0:0:0:
352,280,45704,1,0,0:0:0:0:
247,348,45898,1,0,0:0:0:0:
135,291,46092,1,0,0:0:0:0:
88,184,46285,6,0,B|151:158|135:110|112:72|56:80|8:64|-48:144|-32:200|-16:280|112:320|176:216|176:216|240:128|312:176|352:240|288:304|232:320|216:232,1,787.500030040742
349,138,47059,1,0,0:0:0:0:
456,64,47559,5,0,0:0:0:0:
112,32,48085,5,0,0:0:0:0:
208,192,48221,1,0,0:0:0:0:
45,103,48357,1,0,0:0:0:0:
200,8,48494,6,0,L|373:2,1,150
448,160,48766,1,0,0:0:0:0:
262,164,48903,1,0,0:0:0:0:
425,253,49039,1,0,0:0:0:0:
329,95,49175,1,0,0:0:0:0:
241,258,49312,6,0,P|175:308|88:339,1,150
17,175,49585,1,0,0:0:0:0:
168,93,49721,6,0,P|109:52|7:75,1,150
256,72,49994,2,0,P|315:113|417:90,1,150
489,305,50266,6,0,P|441:360|338:364,1,150
272,216,50539,1,0,0:0:0:0:
444,147,50675,1,0,0:0:0:0:
320,304,50812,1,0,0:0:0:0:
350,107,50948,1,0,0:0:0:0:
164,179,51085,6,0,P|125:236|145:340,1,150
313,247,51357,1,0,0:0:0:0:
241,63,51494,1,0,0:0:0:0:
118,218,51630,1,0,0:0:0:0:
302,145,51766,1,0,0:0:0:0:
147,23,51903,6,0,P|78:17|-1:87,1,150
217,95,52175,6,0,P|285:100|365:30,1,150
423,251,52448,5,0,0:0:0:0:
230,291,52585,1,0,0:0:0:0:
377,159,52721,1,0,0:0:0:0:
418,353,52857,6,0,P|355:381|256:343,1,150
91,301,53130,1,0,0:0:0:0:
237,169,53266,1,0,0:0:0:0:
177,357,53403,1,0,0:0:0:0:
44,211,53539,1,0,0:0:0:0:
233,272,53675,6,0,P|288:231|305:126,1,150
166,23,53948,1,0,0:0:0:0:
123,215,54085,1,0,0:0:0:0:
290,110,54221,1,0,0:0:0:0:
97,66,54357,1,0,0:0:0:0:
243,201,54494,1,0,0:0:0:0:
377,55,54630,5,0,0:0:0:0:
468,231,54766,1,0,0:0:0:0:
302,125,54903,1,0,0:0:0:0:
294,322,55039,5,0,0:0:0:0:
400,156,55175,1,0,0:0:0:0:
225,246,55312,1,0,0:0:0:0:
422,256,55448,5,0,0:0:0:0:
246,346,55585,1,0,0:0:0:0:
81,240,55721,2,0,L|30:179,3,56.2500021457673
184,161,55994,2,0,L|225:106,3,56.2500021457673
81,82,56266,2,0,L|42:35,3,56.2500021457673
224,37,56539,1,0,0:0:0:0:
262,31,56607,1,0,0:0:0:0:
301,31,56675,1,0,0:0:0:0:
338,45,56744,1,0,0:0:0:0:
377,43,56812,5,0,0:0:0:0:
366,314,56948,1,0,0:0:0:0:
512,85,57085,1,0,0:0:0:0:
241,74,57221,6,0,P|168:86|119:142,1,150
265,369,57494,1,0,0:0:0:0:
495,225,57630,6,0,P|518:155|492:86,1,150
365,326,57903,1,0,0:0:0:0:
220,96,58039,1,0,0:0:0:0:
231,368,58175,1,0,0:0:0:0:
461,222,58312,1,0,0:0:0:0:
189,234,58448,5,0,0:0:0:0:
419,87,58585,1,0,0:0:0:0:
147,100,58721,1,0,0:0:0:0:
390,225,58857,1,0,0:0:0:0:
160,372,58994,6,0,P|91:344|55:280,1,150
218,61,59266,1,0,0:0:0:0:
327,312,59403,6,0,P|384:357|458:356,1,150
353,105,59675,5,0,0:0:0:0:
188,321,59812,1,0,0:0:0:0:
84,71,59948,1,0,0:0:0:0:
300,236,60085,1,0,0:0:0:0:
36,203,60221,6,0,P|-4:141|2:68,1,150
261,149,60494,1,0,0:0:0:0:
62,333,60630,1,0,0:0:0:0:
332,368,60766,1,0,0:0:0:0:
116,203,60903,1,0,0:0:0:0:
386,238,61039,1,0,0:0:0:0:
116,33,61175,5,0,0:0:0:0:
247,345,61312,1,0,0:0:0:0:
290,10,61448,1,0,0:0:0:0:
73,102,61585,5,0,0:0:0:0:
306,130,61721,1,0,0:0:0:0:
120,0,61857,1,0,0:0:0:0:
77,335,61994,5,0,0:0:0:0:
388,205,62130,1,0,0:0:0:0:
54,163,62266,1,0,0:0:0:0:
240,293,62403,5,0,0:0:0:0:
143,87,62539,1,0,0:0:0:0:
125,314,62675,1,0,0:0:0:0:
436,184,62812,5,0,0:0:0:0:
101,141,62948,1,0,0:0:0:0:
413,11,63085,1,0,0:0:0:0:
208,281,63221,1,0,0:0:0:0:
104,24,63357,5,0,0:0:0:0:
127,53,63425,1,0,0:0:0:0:
144,86,63493,1,0,0:0:0:0:
149,123,63561,1,0,0:0:0:0:
139,158,63629,5,0,0:0:0:0:
116,188,63697,1,0,0:0:0:0:
87,212,63766,1,0,0:0:0:0:
56,232,63834,1,0,0:0:0:0:
64,268,63902,5,0,0:0:0:0:
79,303,63970,1,0,0:0:0:0:
101,333,64038,1,0,0:0:0:0:
132,353,64106,1,0,0:0:0:0:
169,360,64175,5,0,0:0:0:0:
190,338,64243,1,0,0:0:0:0:
208,305,64311,1,0,0:0:0:0:
233,277,64379,1,0,0:0:0:0:
264,256,64447,5,0,0:0:0:0:
300,244,64516,1,0,0:0:0:0:
337,245,64584,1,0,0:0:0:0:
371,260,64652,1,0,0:0:0:0:
396,287,64720,5,0,0:0:0:0:
399,324,64788,1,0,0:0:0:0:
375,351,64856,1,0,0:0:0:0:
338,356,64925,1,0,0:0:0:0:
305,341,64993,5,0,0:0:0:0:
282,311,65061,1,0,0:0:0:0:
274,275,65129,1,0,0:0:0:0:
278,238,65197,1,0,0:0:0:0:
291,202,65266,5,0,0:0:0:0:
311,171,65334,1,0,0:0:0:0:
337,144,65402,1,0,0:0:0:0:
366,121,65470,1,0,0:0:0:0:
399,102,65538,5,0,0:0:0:0:
256,56,65948,5,0,0:0:0:0:
106,34,66357,5,0,0:0:0:0:
56,334,66903,5,0,0:0:0:0:
200,288,67176,1,0,0:0:0:0:
344,334,67448,1,0,0:0:0:0:
455,232,67721,1,0,0:0:0:0:
64,160,68539,5,0,0:0:0:0:
207,205,68675,1,0,0:0:0:0:
450,94,69494,5,0,0:0:0:0:
304,128,69630,1,0,0:0:0:0:
414,26,69767,1,0,0:0:0:0:
384,256,69903,5,0,0:0:0:0:
391,280,70039,1,0,0:0:0:0:
263,166,70175,1,0,0:0:0:0:
239,173,70312,1,0,0:0:0:0:
353,45,70448,1,0,0:0:0:0:
346,21,70585,1,0,0:0:0:0:
474,135,70720,1,0,0:0:0:0:
498,128,70856,1,0,0:0:0:0:
332,317,71130,5,0,0:0:0:0:
314,335,71266,1,0,0:0:0:0:
175,278,71539,1,0,0:0:0:0:
36,335,71812,1,0,0:0:0:0:
57,187,72085,5,0,0:0:0:0:
203,153,72221,1,0,0:0:0:0:
169,7,72357,1,0,0:0:0:0:
23,41,72494,1,0,0:0:0:0:
249,59,72766,5,0,0:0:0:0:
388,2,73039,1,0,0:0:0:0:
479,256,73721,5,0,0:0:0:0:
335,303,73994,5,0,0:0:0:0:
191,350,74266,5,0,0:0:0:0:
0,158,74948,5,0,0:0:0:0:
102,48,75085,1,0,0:0:0:0:
204,158,75221,1,0,0:0:0:0:
306,48,75357,1,0,0:0:0:0:
486,207,75766,5,0,0:0:0:0:
240,288,76175,5,0,0:0:0:0:
374,357,76448,1,0,0:0:0:0:
149,369,76721,5,0,0:0:0:0:
125,376,76857,1,0,0:0:0:0:
16,232,77130,5,0,0:0:0:0:
132,199,77266,1,0,0:0:0:0:
16,170,77403,1,0,0:0:0:0:
102,254,77539,1,0,0:0:0:0:
211,110,77812,5,0,0:0:0:0:
319,57,77948,1,0,0:0:0:0:
427,110,78085,1,0,0:0:0:0:
319,163,78221,1,0,0:0:0:0:
427,216,78357,1,0,0:0:0:0:
319,269,78494,1,0,0:0:0:0:
427,322,78630,1,0,0:0:0:0:
29,107,79448,5,0,0:0:0:0:
5,96,79584,1,0,0:0:0:0:
123,347,79857,5,0,0:0:0:0:
180,241,79993,1,0,0:0:0:0:
60,245,80130,1,0,0:0:0:0:
389,347,80403,5,0,0:0:0:0:
332,241,80539,1,0,0:0:0:0:
452,245,80676,1,0,0:0:0:0:
377,137,80812,6,0,B|294:119|265:156|265:156|192:174|122:127|122:127,1,225
212,84,81085,1,0,0:0:0:0:
68,38,81221,6,0,B|60:92|11:129|11:129|35:162|35:162|17:200|50:246,1,225.000008583069
104,194,81494,1,0,0:0:0:0:
220,329,81630,1,0,0:0:0:0:
152,298,81766,6,0,B|207:234|274:280|274:280|292:325|340:340,1,225
348,262,82039,1,0,0:0:0:0:
425,53,82175,1,0,0:0:0:0:
464,272,82312,1,0,0:0:0:0:
320,101,82448,6,0,B|356:109|397:92|397:92|340:37|284:54|284:54|241:114|186:86|186:86|166:126,1,337.500012874604
61,237,82721,6,0,B|39:285|79:321|79:321|91:304|113:283|113:283|142:252|117:180|117:180|70:159|66:97,1,337.500012874604
222,159,82994,6,0,B|257:235|221:313|221:313|194:333|177:355|177:355|263:413|339:353|339:353|323:308|383:242,1,450.000017166138
461,151,83403,6,0,B|425:220|428:318|428:318|392:215|319:238|319:238|321:183|290:121|290:121|357:105|357:105,1,450.000017166138
493,30,83812,6,0,B|412:75|382:164|382:164|374:142|370:131|370:131|364:74|364:74|346:68|331:53|331:53|247:63|214:39|214:39|203:64|177:69|177:69|232:141|243:197|243:197|176:188|148:238|148:238,1,675.000025749207
447,320,84357,5,0,0:0:0:0:
255,197,84494,1,0,0:0:0:0:
457,92,84630,2,0,P|490:197|459:293,1,150
55,292,84903,2,0,P|22:187|53:91,1,150
410,47,85175,6,0,B|383:135|383:135|408:179|408:179|377:328,1,225
254,372,85448,2,0,P|239:262|286:173,1,150
454,122,85721,5,0,0:0:0:0:
442,349,85857,1,0,0:0:0:0:
339,147,85994,2,0,P|229:132|140:179,1,150
181,371,86266,5,0,0:0:0:0:
306,181,86403,1,0,0:0:0:0:
408,384,86539,6,0,L|235:378,1,150
133,188,86812,5,0,0:0:0:0:
360,174,86948,1,0,0:0:0:0:
109,7,87085,1,0,0:0:0:0:
409,26,87221,1,0,0:0:0:0:
108,250,87357,5,0,0:0:0:0:
479,304,87494,1,0,0:0:0:0:
102,182,87630,5,0,0:0:0:0:
476,203,87767,1,0,0:0:0:0:
90,114,87903,5,0,0:0:0:0:
464,103,88040,1,0,0:0:0:0:
72,47,88175,5,0,0:0:0:0:
443,3,88312,1,0,0:0:0:0:
296,345,88448,5,0,0:0:0:0:
72,47,88585,1,0,0:0:0:0:
72,47,88721,6,0,P|170:28|237:28,1,150
440,337,88994,6,0,P|342:356|275:356,1,150
439,13,89266,6,0,P|414:109|386:170,1,150
73,371,89539,6,0,P|97:274|125:213,1,150
494,204,89812,1,0,0:0:0:0:
494,204,89948,6,0,P|421:278|366:317,1,150
217,149,90221,5,0,0:0:0:0:
244,144,90289,1,0,0:0:0:0:
268,144,90357,1,0,0:0:0:0:
143,334,90494,1,0,0:0:0:0:
60,131,90630,6,0,L|1:89,3,56.2500021457673
150,68,90903,6,0,L|119:2,3,56.2500021457673
259,58,91175,6,0,L|265:-14,3,56.2500021457673
358,103,91448,6,0,L|400:43,3,56.2500021457673
421,192,91721,5,0,0:0:0:0:
449,244,91812,1,0,0:0:0:0:
449,304,91903,1,0,0:0:0:0:
405,345,91994,1,0,0:0:0:0:
345,356,92085,1,0,0:0:0:0:
287,340,92175,1,0,0:0:0:0:
323,292,92266,5,0,0:0:0:0:
357,243,92357,1,0,0:0:0:0:
346,183,92448,1,0,0:0:0:0:
307,137,92539,1,0,0:0:0:0:
246,139,92630,1,0,0:0:0:0:
201,179,92721,1,0,0:0:0:0:
269,223,92812,5,0,0:0:0:0:
249,279,92903,1,0,0:0:0:0:
198,311,92994,1,0,0:0:0:0:
138,320,93085,1,0,0:0:0:0:
82,298,93175,1,0,0:0:0:0:
68,239,93266,1,0,0:0:0:0:
158,235,93357,5,0,0:0:0:0:
172,176,93448,1,0,0:0:0:0:
155,118,93539,1,0,0:0:0:0:
111,77,93630,1,0,0:0:0:0:
57,49,93721,1,0,0:0:0:0:
0,67,93812,1,0,0:0:0:0:
50,137,93903,5,0,0:0:0:0:
105,159,93994,1,0,0:0:0:0:
164,148,94085,1,0,0:0:0:0:
206,106,94175,1,0,0:0:0:0:
249,64,94266,1,0,0:0:0:0:
308,53,94357,2,0,P|360:57|412:106,1,75.000002861023
408,173,94585,1,0,0:0:0:0:
408,173,94654,1,0,0:0:0:0:
408,173,94721,2,0,L|448:222,1,56.2500021457673
310,311,94857,6,0,L|271:268,1,56.2500021457673
98,320,94994,6,0,L|56:380,3,56.2500021457673
68,182,95266,6,0,L|-4:175,3,56.2500021457673
172,87,95539,6,0,L|141:20,3,56.2500021457673
306,129,95812,5,0,0:0:0:0:
326,120,95880,1,0,0:0:0:0:
345,109,95948,1,0,0:0:0:0:
363,96,96016,1,0,0:0:0:0:
381,82,96085,6,0,B|417:81|456:55|456:55|432:142|457:195|457:195|450:237|392:255,1,300
212,297,96494,2,0,B|258:293|310:355|310:355|336:289|301:218|301:218|350:206|367:150|367:150|310:117|232:131|232:131|212:88|246:51,1,539.999983520508
66,357,97175,6,0,B|85:300|32:248|32:248|38:185|38:185|84:143|84:143|163:127,1,300
305,246,97585,2,0,B|308:311|244:360|244:360|177:338|178:257|178:257|138:238|119:208|119:208|192:202|230:131|230:131|252:185|234:240,1,569.999984779358
450,342,98266,6,0,P|469:300|462:251,3,56.2500021457673
459,155,98539,2,0,P|417:135|368:142,3,56.2500021457673
272,147,98812,2,0,P|252:188|259:237,3,56.2500021457673
264,334,99085,2,0,P|305:353|354:346,3,56.2500021457673
111,230,99357,6,0,P|69:210|20:217,3,56.2500021457673
264,126,99630,2,0,P|305:106|354:113,3,56.2500021457673
111,22,99903,2,0,P|69:2|20:9,3,56.2500021457673
254,43,100175,5,0,0:0:0:0:
276,40,100244,1,0,0:0:0:0:
297,44,100312,1,0,0:0:0:0:
318,38,100380,1,0,0:0:0:0:
339,44,100448,6,0,P|404:53|461:97,1,112.500004291535
293,266,100721,1,0,0:0:0:0:
204,43,100857,1,0,0:0:0:0:
393,192,100994,1,0,0:0:0:0:
169,281,101130,1,0,0:0:0:0:
408,316,101266,6,0,P|399:251|355:194,1,112.500004291535
150,301,101539,1,0,0:0:0:0:
185,63,101675,1,0,0:0:0:0:
373,212,101812,1,0,0:0:0:0:
136,177,101948,1,0,0:0:0:0:
360,91,102085,6,0,P|351:156|307:213,1,112.500004291535
86,117,102357,2,0,P|95:52|139:-5,1,112.500004291535
356,48,102630,1,0,0:0:0:0:
207,235,102766,1,0,0:0:0:0:
119,13,102903,1,0,0:0:0:0:
306,162,103039,6,0,P|265:213|199:241,1,112.500004291535
66,56,103312,1,0,0:0:0:0:
301,8,103448,1,0,0:0:0:0:
116,163,103585,1,0,0:0:0:0:
344,240,103721,1,0,0:0:0:0:
105,292,103857,6,0,P|80:231|89:159,1,112.500004291535
309,262,104130,1,0,0:0:0:0:
262,27,104266,1,0,0:0:0:0:
81,185,104403,1,0,0:0:0:0:
320,139,104539,6,0,P|316:194|290:244,1,112.500004291535
128,63,104812,1,0,0:0:0:0:
365,16,104948,1,0,0:0:0:0:
183,175,105085,1,0,0:0:0:0:
412,254,105221,6,0,P|408:199|371:109,1,112.500004291535
199,307,105494,1,0,0:0:0:0:
426,384,105630,1,0,0:0:0:0:
267,201,105766,1,0,0:0:0:0:
505,155,105903,1,0,0:0:0:0:
321,313,106039,6,0,P|305:259|313:204,1,112.500004291535
496,44,106312,1,0,0:0:0:0:
512,281,106448,6,0,P|456:281|404:260,1,112.500004291535
301,65,106721,6,0,P|356:64|408:85,1,112.500004291535
329,314,106994,1,0,0:0:0:0:
170,131,107130,1,0,0:0:0:0:
400,210,107266,1,0,0:0:0:0:
216,369,107403,1,0,0:0:0:0:
296,140,107539,1,0,0:0:0:0:
57,185,107675,1,0,0:0:0:0:
287,266,107812,1,0,0:0:0:0:
47,310,107948,1,0,0:0:0:0:
231,125,108085,6,0,L|251:53,3,75
393,174,108357,6,0,L|474:150,3,75
426,338,108630,6,0,L|484:391,3,75
273,338,108903,5,0,0:0:0:0:
246,328,108971,1,0,0:0:0:0:
218,335,109039,1,0,0:0:0:0:
196,329,109107,1,0,0:0:0:0:
166,334,109175,5,0,0:0:0:0:
262,59,109312,1,0,0:0:0:0:
453,280,109448,1,0,0:0:0:0:
177,184,109585,6,0,P|243:108|288:83,1,150
339,370,109857,1,0,0:0:0:0:
65,274,109994,1,0,0:0:0:0:
285,84,110130,1,0,0:0:0:0:
190,359,110266,6,0,P|114:293|89:248,1,150
361,146,110539,1,0,0:0:0:0:
75,101,110675,1,0,0:0:0:0:
300,282,110812,6,0,P|333:215|343:141,1,150
98,12,111085,6,0,P|64:78|54:152,1,150
325,48,111357,1,0,0:0:0:0:
142,273,111494,1,0,0:0:0:0:
429,319,111630,1,0,0:0:0:0:
204,136,111766,6,0,P|244:73|303:27,1,150
257,314,112039,1,0,0:0:0:0:
442,89,112175,1,0,0:0:0:0:
154,41,112312,1,0,0:0:0:0:
380,227,112448,1,0,0:0:0:0:
92,179,112585,6,0,P|95:104|124:35,1,150
399,132,112857,1,0,0:0:0:0:
178,322,112994,6,0,P|103:318|34:289,1,150
334,62,113266,6,0,P|408:65|477:94,1,150
247,342,113539,5,0,0:0:0:0:
172,13,113675,1,0,0:0:0:0:
73,336,113812,1,0,0:0:0:0:
337,276,113948,5,0,0:0:0:0:
78,195,114085,1,0,0:0:0:0:
257,384,114221,1,0,0:0:0:0:
353,59,114357,5,0,0:0:0:0:
108,293,114494,1,0,0:0:0:0:
438,213,114630,1,0,0:0:0:0:
247,21,114766,5,0,0:0:0:0:
316,282,114903,1,0,0:0:0:0:
387,22,115039,1,0,0:0:0:0:
57,101,115175,5,0,0:0:0:0:
291,347,115312,1,0,0:0:0:0:
300,8,115448,1,0,0:0:0:0:
122,297,115585,1,0,0:0:0:0:
427,24,115721,5,0,0:0:0:0:
138,242,115857,1,0,0:0:0:0:
477,362,115994,1,0,0:0:0:0:
88,49,116130,5,0,0:0:0:0:
433,156,116266,1,0,0:0:0:0:
156,384,116403,1,0,0:0:0:0:
427,24,116539,5,0,0:0:0:0:
138,242,116675,1,0,0:0:0:0:
477,362,116812,1,0,0:0:0:0:
294,11,116948,5,0,0:0:0:0:
123,318,117085,1,0,0:0:0:0:
442,170,117221,1,0,0:0:0:0:
96,102,117357,1,0,0:0:0:0:
336,360,117494,1,0,0:0:0:0:
294,11,117630,1,0,0:0:0:0:
123,318,117766,1,0,0:0:0:0:
425,138,117903,5,0,0:0:0:0:
377,73,117994,1,0,0:0:0:0:
304,40,118085,1,0,0:0:0:0:
224,34,118175,1,0,0:0:0:0:
107,171,118380,5,0,0:0:0:0:
107,171,118448,1,0,0:0:0:0:
256,192,118465,12,0,122266,0:0:0:0:
