osu file format v14

[General]
AudioFilename: audio.mp3
AudioLeadIn: 0
PreviewTime: 413843
Countdown: 0
SampleSet: Normal
StackLeniency: 0.7
Mode: 1
LetterboxInBreaks: 0
WidescreenStoryboard: 0

[Editor]
DistanceSpacing: 2.2
BeatDivisor: 12
GridSize: 32
TimelineZoom: 3.099998

[Metadata]
Title:Monochrome and Vivid
TitleUnicode:Monochrome and Vivid
Artist:penoreri
ArtistUnicode:ぺのれり
Creator:Servatory
Version:Pearl Rain
Source:
Tags:Hana Ayu Mikanzil Zero Sense Of Purpose SPCD-002 Instrumental Orchestral Rock Electronic Marathon
BeatmapID:2468757
BeatmapSetID:1184258

[Difficulty]
HPDrainRate:4
CircleSize:7
OverallDifficulty:6
ApproachRate:10
SliderMultiplier:1.4
SliderTickRate:1

[Events]
//Background and Video events
0,0,"bg.jpg",0,-134
//Break Periods
//Storyboard Layer 0 (Background)
//Storyboard Layer 1 (Fail)
//Storyboard Layer 2 (Pass)
//Storyboard Layer 3 (Foreground)
//Storyboard Layer 4 (Overlay)
//Storyboard Sound Samples

[TimingPoints]
57918,535.714285714286,4,1,0,80,1,0
57918,-76.9230769230769,4,1,0,80,0,0
65120,-75.7575757575758,4,1,0,80,0,0
65209,-74.3099787685775,4,1,0,80,0,0
65298,-72.9166666666667,4,1,0,80,0,0
65388,-71.5746421267894,4,1,0,80,0,0
65521,-70.281124497992,4,1,0,80,0,0
65655,-69.0335305719921,4,1,0,80,0,0
65789,-67.8294573643411,4,1,0,80,0,0
65923,-66.6666666666667,4,1,0,80,0,0
66727,-67.5675675675676,4,1,0,80,0,0
66861,-68.4931506849315,4,1,0,80,0,0
66995,-69.4444444444444,4,1,0,80,0,0
67263,-70.4225352112676,4,1,0,80,0,0
67530,-71.4285714285714,4,1,0,80,0,0
67798,-72.463768115942,4,1,0,80,0,0
67932,-73.5294117647059,4,1,0,80,0,0
68066,-74.6268656716418,4,1,0,80,0,0
68334,-75.7575757575758,4,1,0,80,0,0
68602,-76.9230769230769,4,1,0,80,0,0
72888,-66.6666666666667,4,1,0,80,0,0
73021,-67.7966101694915,4,1,0,80,0,0
73155,-68.9655172413793,4,1,0,80,0,0
73222,-70.1754385964912,4,1,0,80,0,0
73289,-71.4285714285714,4,1,0,80,0,0
73423,-66.6666666666667,4,1,0,80,0,0
73557,-67.7966101694915,4,1,0,80,0,0
73691,-68.9655172413793,4,1,0,80,0,0
73758,-70.1754385964912,4,1,0,80,0,0
73825,-71.4285714285714,4,1,0,80,0,0
73959,-66.6666666666667,4,1,0,80,0,0
74093,-68.1818181818182,4,1,0,80,0,0
74160,-69.7674418604651,4,1,0,80,0,0
74227,-71.4285714285714,4,1,0,80,0,0
74361,-68.9655172413793,4,1,0,80,0,0
74495,-66.6666666666667,4,1,0,80,0,0
76370,-74.0740740740741,4,1,0,80,0,0
76459,-71.4285714285714,4,1,0,80,0,0
76548,-68.9655172413793,4,1,0,80,0,0
76638,-66.6666666666667,4,1,0,80,0,0
76727,-64.5161290322581,4,1,0,80,0,0
76816,-62.5,4,1,0,80,0,0
76905,-60.6060606060606,4,1,0,80,0,0
76995,-58.8235294117647,4,1,0,80,0,0
77084,-57.1428571428571,4,1,0,80,0,0
77173,-55.5555555555556,4,1,0,80,0,0
77263,-56.3002680965147,4,1,0,80,0,0
77352,-57.0652173913044,4,1,0,80,0,0
77441,-57.8512396694215,4,1,0,80,0,0
77530,-58.659217877095,4,1,0,80,0,0
77620,-59.4900849858357,4,1,0,80,0,0
77709,-60.3448275862069,4,1,0,80,0,0
77798,-61.2244897959184,4,1,0,80,0,0
77977,-62.1301775147929,4,1,0,80,0,0
78066,-63.0630630630631,4,1,0,80,0,0
78155,-64.0243902439024,4,1,0,80,0,0
78245,-65.015479876161,4,1,0,80,0,0
78334,-66.0377358490566,4,1,0,80,0,0
78423,-67.0926517571885,4,1,0,80,0,0
78513,-68.1818181818182,4,1,0,80,0,0
78602,-69.3069306930693,4,1,0,80,0,0
78691,-70.4697986577181,4,1,0,80,0,0
78780,-71.6723549488055,4,1,0,80,0,0
78914,-72.9166666666667,4,1,0,80,0,0
79048,-74.2049469964664,4,1,0,80,0,0
79182,-75.5395683453237,4,1,0,80,0,0
79316,-76.9230769230769,4,1,0,80,0,0
80655,-74.0740740740741,4,1,0,80,0,0
80745,-71.4285714285714,4,1,0,80,0,0
80834,-68.9655172413793,4,1,0,80,0,0
80923,-66.6666666666667,4,1,0,80,0,0
81013,-64.5161290322581,4,1,0,80,0,0
81102,-62.5,4,1,0,80,0,0
81190,-60.6060606060606,4,1,0,80,0,0
81280,-58.8235294117647,4,1,0,80,0,0
81369,-57.1428571428571,4,1,0,80,0,0
81458,-55.5555555555556,4,1,0,80,0,0
81548,-56.3002680965147,4,1,0,80,0,0
81637,-57.0652173913044,4,1,0,80,0,0
81726,-57.8512396694215,4,1,0,80,0,0
81815,-58.659217877095,4,1,0,80,0,0
81905,-59.4900849858357,4,1,0,80,0,0
81994,-60.3448275862069,4,1,0,80,0,0
82083,-61.2244897959184,4,1,0,80,0,0
82262,-62.1301775147929,4,1,0,80,0,0
82351,-63.0630630630631,4,1,0,80,0,0
82440,-64.0243902439024,4,1,0,80,0,0
82530,-65.015479876161,4,1,0,80,0,0
82619,-66.0377358490566,4,1,0,80,0,0
82708,-67.0926517571885,4,1,0,80,0,0
82798,-68.1818181818182,4,1,0,80,0,0
82887,-69.3069306930693,4,1,0,80,0,0
82976,-70.4697986577181,4,1,0,80,0,0
83065,-71.6723549488055,4,1,0,80,0,0
83199,-72.9166666666667,4,1,0,80,0,0
83333,-74.2049469964664,4,1,0,80,0,0
83468,-75.5395683453237,4,1,0,80,0,0
83602,-76.9230769230769,4,1,0,80,0,0
84941,-74.0740740740741,4,1,0,80,0,0
85030,-71.4285714285714,4,1,0,80,0,0
85120,-68.9655172413793,4,1,0,80,0,0
85209,-66.6666666666667,4,1,0,80,0,0
85298,-64.5161290322581,4,1,0,80,0,0
85388,-62.5,4,1,0,80,0,0
85476,-60.6060606060606,4,1,0,80,0,0
85566,-58.8235294117647,4,1,0,80,0,0
85655,-57.1428571428571,4,1,0,80,0,0
85745,-55.5555555555556,4,1,0,80,0,0
85834,-56.3002680965147,4,1,0,80,0,0
85923,-57.0652173913044,4,1,0,80,0,0
86012,-57.8512396694215,4,1,0,80,0,0
86101,-58.659217877095,4,1,0,80,0,0
86191,-59.4900849858357,4,1,0,80,0,0
86280,-60.3448275862069,4,1,0,80,0,0
86369,-61.2244897959184,4,1,0,80,0,0
86548,-62.1301775147929,4,1,0,80,0,0
86637,-63.0630630630631,4,1,0,80,0,0
86726,-64.0243902439024,4,1,0,80,0,0
86816,-65.015479876161,4,1,0,80,0,0
86905,-66.0377358490566,4,1,0,80,0,0
86994,-67.0926517571885,4,1,0,80,0,0
87084,-68.1818181818182,4,1,0,80,0,0
87173,-69.3069306930693,4,1,0,80,0,0
87262,-70.4697986577181,4,1,0,80,0,0
87352,-71.6723549488055,4,1,0,80,0,0
87485,-72.9166666666667,4,1,0,80,0,0
87619,-74.2049469964664,4,1,0,80,0,0
87754,-75.5395683453237,4,1,0,80,0,0
87888,-76.9230769230769,4,1,0,80,0,0
89227,-74.0740740740741,4,1,0,80,0,0
89316,-71.4285714285714,4,1,0,80,0,0
89405,-68.9655172413793,4,1,0,80,0,0
89495,-66.6666666666667,4,1,0,80,0,0
89584,-64.5161290322581,4,1,0,80,0,0
89673,-62.5,4,1,0,80,0,0
89762,-60.6060606060606,4,1,0,80,0,0
89852,-58.8235294117647,4,1,0,80,0,0
89941,-57.1428571428571,4,1,0,80,0,0
90030,-55.5555555555556,4,1,0,80,0,0
90120,-56.3002680965147,4,1,0,80,0,0
90209,-57.0652173913044,4,1,0,80,0,0
90298,-57.8512396694215,4,1,0,80,0,0
90387,-58.659217877095,4,1,0,80,0,0
90477,-59.4900849858357,4,1,0,80,0,0
90566,-60.3448275862069,4,1,0,80,0,0
90655,-61.2244897959184,4,1,0,80,0,0
90834,-62.1301775147929,4,1,0,80,0,0
90923,-63.0630630630631,4,1,0,80,0,0
91012,-64.0243902439024,4,1,0,80,0,0
91102,-65.015479876161,4,1,0,80,0,0
91191,-66.0377358490566,4,1,0,80,0,0
91280,-67.0926517571885,4,1,0,80,0,0
91370,-68.1818181818182,4,1,0,80,0,0
91459,-69.3069306930693,4,1,0,80,0,0
91548,-70.4697986577181,4,1,0,80,0,0
91637,-71.6723549488055,4,1,0,80,0,0
91771,-72.9166666666667,4,1,0,80,0,0
91905,-74.2049469964664,4,1,0,80,0,0
92039,-75.5395683453237,4,1,0,80,0,0
92173,-76.9230769230769,4,1,0,40,0,0
92441,-78.9473684210526,4,1,0,40,0,0
92709,-81.0810810810811,4,1,0,40,0,0
92977,-83.3333333333333,4,1,0,40,0,0
94316,-100,4,1,0,40,0,0
94584,-94.3396226415094,4,1,0,40,0,0
94852,-89.2857142857143,4,1,0,40,0,0
95120,-84.7457627118644,4,1,0,40,0,0
95388,-80.6451612903226,4,1,0,40,0,0
95655,-76.9230769230769,4,1,0,40,0,0
95923,-83.3333333333333,4,1,0,40,0,0
96191,-90.9090909090909,4,1,0,40,0,0
96459,-88.8888888888889,4,1,0,40,0,0
96727,-86.9565217391304,4,1,0,40,0,0
96995,-85.1063829787234,4,1,0,40,0,0
97263,-83.3333333333333,4,1,0,40,0,0
98602,-100,4,1,0,40,0,0
98870,-94.3396226415094,4,1,0,40,0,0
99138,-89.2857142857143,4,1,0,40,0,0
99406,-84.7457627118644,4,1,0,40,0,0
99674,-80.6451612903226,4,1,0,40,0,0
99941,-76.9230769230769,4,1,0,40,0,0
100209,-83.3333333333333,4,1,0,40,0,0
100477,-90.9090909090909,4,1,0,40,0,0
100745,-88.8888888888889,4,1,0,40,0,0
101013,-86.9565217391304,4,1,0,40,0,0
101281,-85.1063829787234,4,1,0,40,0,0
101549,-83.3333333333333,4,1,0,40,0,0
102888,-100,4,1,0,40,0,0
103156,-94.3396226415094,4,1,0,40,0,0
103424,-89.2857142857143,4,1,0,40,0,0
103692,-84.7457627118644,4,1,0,40,0,0
103960,-80.6451612903226,4,1,0,40,0,0
104227,-76.9230769230769,4,1,0,40,0,0
104495,-83.3333333333333,4,1,0,40,0,0
104763,-90.9090909090909,4,1,0,40,0,0
105031,-89.8876404494382,4,1,0,40,0,0
105299,-88.8888888888889,4,1,0,40,0,0
105567,-87.9120879120879,4,1,0,40,0,0
105835,-86.9565217391304,4,1,0,40,0,0
107173,-98.0392156862745,4,1,0,40,0,0
107441,-91.743119266055,4,1,0,40,0,0
107709,-86.2068965517241,4,1,0,40,0,0
107977,-81.3008130081301,4,1,0,40,0,0
108245,-76.9230769230769,4,1,0,40,0,0
108513,-81.6326530612245,4,1,0,40,0,0
108780,-86.9565217391304,4,1,0,40,0,0
109048,-93.0232558139535,4,1,0,40,0,0
109316,-100,4,1,0,50,0,0
109584,-76.9230769230769,4,1,0,50,0,0
109852,-78.125,4,1,0,50,0,0
110120,-79.3650793650794,4,1,0,50,0,0
110388,-80.6451612903226,4,1,0,50,0,0
110655,-81.9672131147541,4,1,0,50,0,0
110923,-83.3333333333333,4,1,0,50,0,0
111191,-84.7457627118644,4,1,0,50,0,0
111459,-86.2068965517241,4,1,0,50,0,0
111727,-87.719298245614,4,1,0,50,0,0
111995,-89.2857142857143,4,1,0,50,0,0
112263,-90.9090909090909,4,1,0,50,0,0
112530,-92.5925925925926,4,1,0,50,0,0
112798,-94.3396226415094,4,1,0,50,0,0
113066,-96.1538461538461,4,1,0,50,0,0
113334,-98.0392156862745,4,1,0,50,0,0
113602,-100,4,1,0,50,0,0
113870,-95.2380952380952,4,1,0,50,0,0
114138,-90.9090909090909,4,1,0,50,0,0
114405,-86.9565217391304,4,1,0,50,0,0
114941,-83.3333333333333,4,1,0,50,0,0
115477,-84.7457627118644,4,1,0,50,0,0
115745,-86.2068965517241,4,1,0,50,0,0
116013,-87.719298245614,4,1,0,50,0,0
116280,-89.2857142857143,4,1,0,50,0,0
116548,-90.9090909090909,4,1,0,50,0,0
116816,-92.5925925925926,4,1,0,50,0,0
117084,-94.3396226415094,4,1,0,50,0,0
117352,-96.1538461538461,4,1,0,50,0,0
117620,-98.0392156862745,4,1,0,50,0,0
117888,-100,4,1,0,50,0,0
118155,-97.5609756097561,4,1,0,50,0,0
118423,-95.2380952380952,4,1,0,50,0,0
118691,-93.0232558139535,4,1,0,50,0,0
118959,-90.9090909090909,4,1,0,50,0,0
120030,-100,4,1,0,50,0,0
120298,-98.4848484848485,4,1,0,50,0,0
120566,-97.0149253731343,4,1,0,50,0,0
120834,-95.5882352941176,4,1,0,50,0,0
121102,-94.2028985507246,4,1,0,50,0,0
121370,-92.8571428571429,4,1,0,50,0,0
121638,-91.5492957746479,4,1,0,50,0,0
121905,-90.2777777777778,4,1,0,50,0,0
122173,-89.041095890411,4,1,0,50,0,0
122575,-87.8378378378378,4,1,0,50,0,0
122709,-86.6666666666667,4,1,0,50,0,0
122977,-85.5263157894737,4,1,0,50,0,0
123245,-84.4155844155844,4,1,0,50,0,0
123513,-83.3333333333333,4,1,0,50,0,0
124048,-100,4,1,0,50,0,0
124316,-94.3396226415094,4,1,0,52,0,0
124584,-89.2857142857143,4,1,0,54,0,0
124852,-84.7457627118644,4,1,0,56,0,0
125120,-80.6451612903226,4,1,0,58,0,0
125388,-76.9230769230769,4,1,0,60,0,0
125655,-83.3333333333333,4,1,0,57,0,0
125923,-90.9090909090909,4,1,0,53,0,0
126191,-100,4,1,0,50,0,0
126459,-111.111111111111,4,1,0,30,0,0
135030,-100,4,1,0,30,0,0
135298,-101.694915254237,4,1,0,30,0,0
135566,-103.448275862069,4,1,0,30,0,0
135834,-105.263157894737,4,1,0,30,0,0
136102,-107.142857142857,4,1,0,30,0,0
136370,-109.090909090909,4,1,0,30,0,0
136638,-111.111111111111,4,1,0,30,0,0
137173,-100,4,1,0,30,0,0
137441,-101.694915254237,4,1,0,30,0,0
137709,-103.448275862069,4,1,0,30,0,0
137977,-105.263157894737,4,1,0,30,0,0
138245,-107.142857142857,4,1,0,30,0,0
138513,-109.090909090909,4,1,0,30,0,0
138780,-111.111111111111,4,1,0,30,0,0
139346,555.555555555556,4,1,0,30,1,0
139346,-107.142857142857,4,1,0,30,0,0
139593,-109.168540052724,4,1,0,30,0,0
139901,600,4,1,0,30,1,8
139901,-103.018015790601,4,1,0,30,0,8
140171,-105.042016806723,4,1,0,30,0,0
140501,625,4,1,0,25,1,8
140501,-102.861257307435,4,1,0,25,0,8
140783,-104.951984467106,4,1,0,25,0,0
141126,750,4,1,0,20,1,8
141126,-89.2857142857143,4,1,0,20,0,0
141471,-91.1892907296967,4,1,0,17,0,0
141876,779.220779220779,4,1,0,15,1,0
141876,-89.6700143472023,4,1,0,15,0,8
144603,340.909090909091,4,1,0,70,1,0
144603,-125,4,1,0,70,0,0
144743,-124.343257443082,4,1,0,70,0,0
144828,-123.693379790941,4,1,0,71,0,0
144913,-123.050259965338,4,1,0,71,0,0
145084,-122.413793103448,4,1,0,71,0,0
145254,-121.783876500858,4,1,0,71,0,0
145425,-121.160409556314,4,1,0,72,0,0
145510,-120.543293718166,4,1,0,72,0,0
145595,-119.932432432432,4,1,0,72,0,0
145766,-119.327731092437,4,1,0,73,0,0
146107,-118.729096989967,4,1,0,73,0,0
146277,-118.136439267887,4,1,0,73,0,0
146448,-117.549668874172,4,1,0,73,0,0
146533,-116.968698517298,4,1,0,74,0,0
146618,-116.393442622951,4,1,0,74,0,0
146788,-115.823817292007,4,1,0,74,0,0
146959,-115.25974025974,4,1,0,75,0,0
147300,-114.70113085622,4,1,0,75,0,0
147470,-114.147909967846,4,1,0,75,0,0
147555,-113.6,4,1,0,75,0,0
147641,-113.057324840764,4,1,0,76,0,0
147811,-112.519809825674,4,1,0,76,0,0
147982,-111.98738170347,4,1,0,76,0,0
148152,-111.459968602826,4,1,0,76,0,0
148237,-110.9375,4,1,0,77,0,0
148323,-110.419906687403,4,1,0,77,0,0
148493,-109.907120743034,4,1,0,77,0,0
148663,-109.39907550077,4,1,0,78,0,0
148834,-108.895705521472,4,1,0,78,0,0
148919,-108.396946564885,4,1,0,78,0,0
149004,-107.90273556231,4,1,0,78,0,0
149175,-107.413010590015,4,1,0,79,0,0
149260,-106.927710843373,4,1,0,79,0,0
149345,-106.446776611694,4,1,0,79,0,0
149516,-105.970149253731,4,1,0,80,0,0
149601,-105.497771173848,4,1,0,80,0,0
149686,-105.029585798817,4,1,0,80,0,0
149857,-104.565537555228,4,1,0,80,0,0
150027,-104.105571847507,4,1,0,81,0,0
150228,-103.649635036496,4,1,0,81,0,0
150313,-103.197674418605,4,1,0,81,0,0
150398,-102.749638205499,4,1,0,82,0,0
150538,-102.305475504323,4,1,0,82,0,0
150709,-101.865136298422,4,1,0,82,0,0
150879,-101.428571428571,4,1,0,82,0,0
151050,-100.99573257468,4,1,0,83,0,0
151220,-100.56657223796,4,1,0,83,0,0
151561,-100.141043723554,4,1,0,83,0,0
151732,-99.7191011235955,4,1,0,84,0,0
151902,-99.3006993006993,4,1,0,84,0,0
151987,-98.8857938718663,4,1,0,84,0,0
152073,-98.4743411927878,4,1,0,84,0,0
152243,-98.0662983425414,4,1,0,85,0,0
152413,-97.6616231086657,4,1,0,85,0,0
152754,-97.2602739726027,4,1,0,85,0,0
152925,-96.8622100954979,4,1,0,85,0,0
153010,-96.4673913043478,4,1,0,86,0,0
153095,-96.0757780784844,4,1,0,86,0,0
153266,-95.6873315363881,4,1,0,86,0,0
153436,-95.3020134228188,4,1,0,87,0,0
153607,-94.9197860962567,4,1,0,87,0,0
153692,-94.5406125166445,4,1,0,87,0,0
153777,-94.1644562334217,4,1,0,87,0,0
153862,-93.7912813738441,4,1,0,88,0,0
153948,-93.4210526315789,4,1,0,88,0,0
154118,-93.0537352555701,4,1,0,88,0,0
154288,-92.6892950391645,4,1,0,89,0,0
154374,-92.3276983094928,4,1,0,89,0,0
154459,-91.9689119170984,4,1,0,89,0,0
154629,-91.6129032258064,4,1,0,89,0,0
154715,-91.2596401028278,4,1,0,90,0,0
154800,-90.9090909090909,4,1,0,90,0,0
155482,-90.9090909090909,4,1,0,100,0,0
185482,-90.9090909090909,4,1,0,100,0,0
185652,-91.8367346938775,4,1,0,100,0,0
185737,-92.7835051546392,4,1,0,100,0,0
185823,-93.75,4,1,0,100,0,0
185993,-94.7368421052632,4,1,0,100,0,0
186078,-95.7446808510638,4,1,0,100,0,0
186163,-96.7741935483871,4,1,0,100,0,0
186334,-97.8260869565217,4,1,0,100,0,0
186504,-98.9010989010989,4,1,0,100,0,0
186675,-100,4,1,0,100,0,0
186845,-98.5915492957747,4,1,0,100,0,0
186959,-97.2222222222222,4,1,0,100,0,0
187073,-95.8904109589041,4,1,0,100,0,0
187186,-94.5945945945946,4,1,0,100,0,0
187300,-93.3333333333333,4,1,0,100,0,0
187413,-92.1052631578947,4,1,0,100,0,0
187527,-90.9090909090909,4,1,0,100,0,0
196220,-90.9090909090909,4,1,0,100,0,0
196391,-92.7835051546392,4,1,0,100,0,0
196561,-94.7368421052632,4,1,0,100,0,0
196646,-96.7741935483871,4,1,0,100,0,0
196732,-98.9010989010989,4,1,0,100,0,0
196902,-101.123595505618,4,1,0,100,0,0
197073,-103.448275862069,4,1,0,100,0,0
197243,-105.882352941176,4,1,0,100,0,0
197413,-108.433734939759,4,1,0,100,0,0
197584,-111.111111111111,4,1,0,100,0,0
197925,-109.489051094891,4,1,0,100,0,0
198010,-107.913669064748,4,1,0,100,0,0
198095,-106.382978723404,4,1,0,100,0,0
198180,-104.895104895105,4,1,0,100,0,0
198266,-103.448275862069,4,1,0,100,0,0
198351,-102.040816326531,4,1,0,100,0,0
198436,-100.671140939597,4,1,0,100,0,0
198521,-99.3377483443709,4,1,0,100,0,0
198607,-98.0392156862745,4,1,0,100,0,0
198692,-96.7741935483871,4,1,0,100,0,0
198777,-95.5414012738853,4,1,0,100,0,0
198862,-94.3396226415094,4,1,0,100,0,0
198948,-93.167701863354,4,1,0,100,0,0
199033,-92.0245398773006,4,1,0,100,0,0
199118,-90.9090909090909,4,1,0,100,0,0
199148,-90.9090909090909,4,1,0,100,0,1
219743,-90.9090909090909,4,1,0,100,0,1
219828,-93.0232558139535,4,1,0,100,0,1
219913,-95.2380952380952,4,1,0,100,0,1
219999,-97.5609756097561,4,1,0,100,0,1
220084,-100,4,1,0,100,0,1
220169,-102.564102564103,4,1,0,100,0,1
220254,-105.263157894737,4,1,0,100,0,1
220340,-108.108108108108,4,1,0,100,0,1
220425,-111.111111111111,4,1,0,100,0,1
220595,-114.285714285714,4,1,0,100,0,1
220766,-117.647058823529,4,1,0,100,0,1
220851,-121.212121212121,4,1,0,100,0,1
220936,-125,4,1,0,100,0,1
220966,-125,4,1,0,100,0,0
221277,-125,4,1,0,80,0,0
236107,-120.879120879121,4,1,0,80,0,0
236277,-117.021276595745,4,1,0,82,0,0
236448,-113.40206185567,4,1,0,84,0,0
236618,-110,4,1,0,85,0,0
236788,-106.796116504854,4,1,0,87,0,0
236874,-103.77358490566,4,1,0,89,0,0
236959,-100.917431192661,4,1,0,91,0,0
237044,-98.2142857142857,4,1,0,93,0,0
237129,-95.6521739130435,4,1,0,95,0,0
237215,-93.2203389830509,4,1,0,96,0,0
237300,-90.9090909090909,4,1,0,98,0,0
237330,-90.9090909090909,4,1,0,100,0,1
259118,-90.9090909090909,4,1,0,100,0,1
259148,-90.9090909090909,4,1,0,100,0,0
261334,-100,4,1,0,90,0,0
261504,-101.190476190476,4,1,0,89,0,0
261675,-102.409638554217,4,1,0,89,0,0
261845,-103.658536585366,4,1,0,88,0,0
262186,-104.938271604938,4,1,0,88,0,0
262357,-106.25,4,1,0,87,0,0
262698,-107.594936708861,4,1,0,86,0,0
262868,-108.974358974359,4,1,0,86,0,0
262953,-110.38961038961,4,1,0,85,0,0
263038,-111.842105263158,4,1,0,85,0,0
263379,-113.333333333333,4,1,0,84,0,0
263720,-114.864864864865,4,1,0,84,0,0
263805,-116.438356164384,4,1,0,83,0,0
263891,-118.055555555556,4,1,0,82,0,0
264061,-119.718309859155,4,1,0,82,0,0
264232,-121.428571428571,4,1,0,81,0,0
264402,-123.188405797101,4,1,0,81,0,0
264573,-125,4,1,0,80,0,0
267470,-122.699386503067,4,1,0,80,0,0
267641,-120.481927710843,4,1,0,81,0,0
267811,-118.343195266272,4,1,0,82,0,0
267982,-116.279069767442,4,1,0,82,0,0
268152,-114.285714285714,4,1,0,82,0,0
268323,-112.359550561798,4,1,0,83,0,0
268493,-110.497237569061,4,1,0,84,0,0
268663,-108.695652173913,4,1,0,84,0,0
268777,-106.951871657754,4,1,0,84,0,0
268891,-105.263157894737,4,1,0,85,0,0
269004,-103.626943005181,4,1,0,86,0,0
269118,-102.040816326531,4,1,0,86,0,0
269232,-100.502512562814,4,1,0,86,0,0
269345,-99.009900990099,4,1,0,87,0,0
269459,-97.5609756097561,4,1,0,88,0,0
269573,-96.1538461538461,4,1,0,88,0,0
269686,-94.7867298578199,4,1,0,88,0,0
269800,-93.4579439252336,4,1,0,89,0,0
269913,-92.1658986175115,4,1,0,90,0,0
270027,-90.9090909090909,4,1,0,90,0,0
279232,-90.9090909090909,4,1,0,90,0,0
279317,-90.4977375565611,4,1,0,90,0,0
279402,-90.0900900900901,4,1,0,91,0,0
279487,-89.6860986547085,4,1,0,92,0,0
279573,-89.2857142857143,4,1,0,92,0,0
279658,-88.8888888888889,4,1,0,92,0,0
279743,-88.4955752212389,4,1,0,93,0,0
279828,-88.1057268722467,4,1,0,94,0,0
279913,-87.719298245614,4,1,0,94,0,0
279999,-87.3362445414847,4,1,0,94,0,0
280084,-86.9565217391304,4,1,0,95,0,0
280169,-86.5800865800866,4,1,0,96,0,0
280254,-86.2068965517241,4,1,0,96,0,0
280340,-85.8369098712446,4,1,0,96,0,0
280425,-85.4700854700855,4,1,0,97,0,0
280510,-85.1063829787234,4,1,0,98,0,0
280595,-84.7457627118644,4,1,0,98,0,0
280680,-84.3881856540084,4,1,0,98,0,0
280766,-84.0336134453782,4,1,0,99,0,0
280851,-83.6820083682008,4,1,0,100,0,0
280936,-83.3333333333333,4,1,0,100,0,0
280966,-83.3333333333333,4,1,0,100,0,1
296959,-84.7457627118644,4,1,0,100,0,1
297044,-86.2068965517241,4,1,0,100,0,1
297129,-87.719298245614,4,1,0,100,0,1
297215,-89.2857142857143,4,1,0,100,0,1
297300,-90.9090909090909,4,1,0,100,0,1
297470,-89.2857142857143,4,1,0,100,0,1
297555,-87.719298245614,4,1,0,100,0,1
297641,-86.2068965517241,4,1,0,100,0,1
297811,-89.2857142857143,4,1,0,100,0,1
297896,-87.719298245614,4,1,0,100,0,1
297982,-86.2068965517241,4,1,0,100,0,1
298152,-89.2857142857143,4,1,0,100,0,1
298237,-87.719298245614,4,1,0,100,0,1
298323,-86.2068965517241,4,1,0,100,0,1
298493,-89.2857142857143,4,1,0,100,0,1
298578,-87.719298245614,4,1,0,100,0,1
298663,-86.2068965517241,4,1,0,100,0,1
298834,-89.2857142857143,4,1,0,100,0,1
298919,-87.719298245614,4,1,0,100,0,1
299004,-86.2068965517241,4,1,0,100,0,1
299175,-89.2857142857143,4,1,0,100,0,1
299260,-87.719298245614,4,1,0,100,0,1
299345,-86.2068965517241,4,1,0,100,0,1
299516,-89.2857142857143,4,1,0,100,0,1
299686,-88.0281690140845,4,1,0,100,0,1
299771,-86.8055555555555,4,1,0,100,0,1
299857,-85.6164383561644,4,1,0,100,0,1
299942,-84.4594594594595,4,1,0,100,0,1
300027,-83.3333333333333,4,1,0,100,0,1
300368,-90.9090909090909,4,1,0,100,0,1
304489,-90.9090909090909,4,1,0,100,0,0
304800,-100,4,1,0,90,0,0
305311,-102.272727272727,4,1,0,89,0,0
305652,-103.448275862069,4,1,0,89,0,0
305823,-104.651162790698,4,1,0,88,0,0
305993,-105.882352941176,4,1,0,88,0,0
306078,-107.142857142857,4,1,0,87,0,0
306163,-108.433734939759,4,1,0,86,0,0
306334,-109.756097560976,4,1,0,86,0,0
306504,-111.111111111111,4,1,0,85,0,0
306675,-112.5,4,1,0,85,0,0
307016,-113.924050632911,4,1,0,84,0,0
307186,-115.384615384615,4,1,0,84,0,0
307357,-116.883116883117,4,1,0,83,0,0
307442,-118.421052631579,4,1,0,82,0,0
307527,-120,4,1,0,82,0,0
307698,-121.621621621622,4,1,0,81,0,0
307868,-123.287671232877,4,1,0,81,0,0
308209,-125,4,1,0,80,0,0
312300,-122.302158273381,4,1,0,81,0,0
312385,-119.718309859155,4,1,0,83,0,0
312470,-117.241379310345,4,1,0,84,0,0
312555,-114.864864864865,4,1,0,85,0,0
312641,-112.582781456954,4,1,0,87,0,0
312726,-110.38961038961,4,1,0,87,0,0
312811,-108.28025477707,4,1,0,88,0,0
312896,-106.25,4,1,0,88,0,0
312952,-104.294478527607,4,1,0,89,0,0
313067,-102.409638554217,4,1,0,91,0,0
313152,-100.591715976331,4,1,0,92,0,0
313237,-98.8372093023256,4,1,0,93,0,0
313323,-97.1428571428571,4,1,0,95,0,0
313408,-95.5056179775281,4,1,0,96,0,0
313493,-93.9226519337016,4,1,0,97,0,0
313578,-92.3913043478261,4,1,0,99,0,0
313663,-90.9090909090909,4,1,0,100,0,0
317925,-91.367709346264,4,1,0,99,0,0
318010,-91.8309785246697,4,1,0,98,0,0
318095,-92.2989695479328,4,1,0,98,0,0
318180,-92.771754976542,4,1,0,97,0,0
318266,-93.2494088653545,4,1,0,96,0,0
318351,-93.7320068022656,4,1,0,95,0,0
318436,-94.219625948085,4,1,0,95,0,0
318521,-94.7123450776641,4,1,0,94,0,0
318607,-95.2102446223214,4,1,0,93,0,0
318692,-95.7134067136118,4,1,0,92,0,0
318777,-96.2219152284927,4,1,0,92,0,0
318948,-96.735855835936,4,1,0,91,0,0
319029,-97.2553160450431,4,1,0,90,0,0
319148,352.941176470588,4,1,0,90,1,0
319148,-94.4465432565168,4,1,0,90,0,0
319294,-95.5109837631328,4,1,0,90,0,0
319382,-96.5903602820438,4,1,0,89,0,0
319470,-97.7039570102589,4,1,0,89,0,0
319647,-98.833761612967,4,1,0,89,0,0
319735,-100,4,1,0,89,0,0
319823,-101.194090265129,4,1,0,88,0,0
320000,-102.406554019457,4,1,0,88,0,0
320088,-103.659168653467,4,1,0,88,0,0
320176,-104.942806170637,4,1,0,87,0,0
320353,-106.247343816405,4,1,0,87,0,0
320441,-107.596298687325,4,1,0,87,0,0
320559,370.37037037037,4,1,0,87,1,0
320559,-103.842159916926,4,1,0,87,0,0
320714,-105.196717862403,4,1,0,86,0,0
320806,-106.575722050517,4,1,0,86,0,0
320899,-108.003024084674,4,1,0,86,0,0
321084,-109.457092819615,4,1,0,85,0,0
321177,-110.963160230803,4,1,0,85,0,0
321269,-112.498593767578,4,1,0,85,0,0
321454,-114.090131203651,4,1,0,85,0,0
321547,-115.713955102985,4,1,0,84,0,0
321640,-117.398450340455,4,1,0,84,0,0
321825,-119.118522930316,4,1,0,84,0,0
321917,-120.889748549323,4,1,0,83,0,0
322040,400,4,1,0,83,1,0
322040,-113.636363636364,4,1,0,83,0,0
322210,-115.380177685474,4,1,0,83,0,0
322310,-117.19207781554,4,1,0,83,0,0
322410,-119.047619047619,4,1,0,82,0,0
322610,-120.962864400629,4,1,0,82,0,0
322824,410.958904109589,4,1,0,82,1,8
322824,-118.035882908404,4,1,0,82,0,8
322928,-120.004800192008,4,1,0,81,0,8
323067,-122.040517451794,4,1,0,81,0,8
323206,-124.146492861577,4,1,0,81,0,8
323345,-126.310471138057,4,1,0,81,0,8
323484,-128.567755206994,4,1,0,80,0,8
323645,410.958904109589,4,1,0,80,1,0
323645,-130.907186804556,4,1,0,80,0,8
323881,588.235294117647,4,1,0,90,1,8
323881,-72.8597449908925,4,1,0,90,0,0
324322,486.223662884927,4,1,0,86,1,8
324322,-91.4076782449726,4,1,0,86,0,8
324808,685.714285714286,4,1,0,82,1,8
324808,-67.3083395032644,4,1,0,82,0,8
325150,789.473684210526,4,1,0,78,1,8
325150,-60.8013619505077,4,1,0,78,0,8
325544,1158.30115830116,4,1,0,73,1,8
325544,-43.1667098333765,4,1,0,73,0,8
325900,-45.4380225372592,4,1,0,69,0,8
326123,500,4,1,0,65,1,0
326123,-109.086942293008,4,1,0,65,0,0
330093,-100,4,1,0,40,0,0
342093,-95.2380952380952,4,1,0,40,0,0
342343,-90.9090909090909,4,1,0,40,0,0
342593,-86.9565217391304,4,1,0,40,0,0
342843,-83.3333333333333,4,1,0,40,0,0
344093,-100,4,1,0,40,0,0
344343,-95.2380952380952,4,1,0,40,0,0
344593,-90.9090909090909,4,1,0,40,0,0
344801,-86.9565217391304,4,1,0,40,0,0
344843,-83.3333333333333,4,1,0,40,0,0
345093,-80,4,1,0,40,0,0
345343,-76.9230769230769,4,1,0,40,0,0
345593,-83.3333333333333,4,1,0,40,0,0
345843,-90.9090909090909,4,1,0,40,0,0
346093,-88.8888888888889,4,1,0,40,0,0
346343,-86.9565217391304,4,1,0,40,0,0
346593,-85.1063829787234,4,1,0,40,0,0
346843,-83.3333333333333,4,1,0,40,0,0
348093,-100,4,1,0,40,0,0
348343,-95.2380952380952,4,1,0,40,0,0
348593,-90.9090909090909,4,1,0,40,0,0
348801,-86.9565217391304,4,1,0,40,0,0
348843,-83.3333333333333,4,1,0,40,0,0
349093,-80,4,1,0,40,0,0
349343,-76.9230769230769,4,1,0,40,0,0
349593,-83.3333333333333,4,1,0,40,0,0
349843,-90.9090909090909,4,1,0,40,0,0
350093,-88.8888888888889,4,1,0,40,0,0
350343,-86.9565217391304,4,1,0,40,0,0
350593,-85.1063829787234,4,1,0,40,0,0
350843,-83.3333333333333,4,1,0,40,0,0
352093,-100,4,1,0,40,0,0
352343,-95.2380952380952,4,1,0,40,0,0
352593,-90.9090909090909,4,1,0,40,0,0
352801,-86.9565217391304,4,1,0,40,0,0
352843,-83.3333333333333,4,1,0,40,0,0
353093,-80,4,1,0,40,0,0
353343,-76.9230769230769,4,1,0,40,0,0
353593,-83.3333333333333,4,1,0,40,0,0
353843,-90.9090909090909,4,1,0,40,0,0
354093,-88.8888888888889,4,1,0,40,0,0
354343,-86.9565217391304,4,1,0,40,0,0
354593,-85.1063829787234,4,1,0,40,0,0
354843,-83.3333333333333,4,1,0,40,0,0
356123,517.241379310345,4,1,0,40,1,0
356123,-96.665055582407,4,1,0,40,0,0
356351,-89.9199712256092,4,1,0,40,0,0
356610,-84.0618695359785,4,1,0,40,0,0
356868,-78.9141414141414,4,1,0,40,0,0
357157,545.454545454546,4,1,0,40,1,8
357157,-70.5119165138908,4,1,0,40,0,0
357399,-74.827895839569,4,1,0,40,0,0
357672,-79.7130330809087,4,1,0,40,0,0
357945,-85.273300929479,4,1,0,40,0,0
358247,549.450549450549,4,1,0,40,1,0
358247,-91.000091000091,4,1,0,40,0,0
360444,545.950864422202,4,1,0,40,1,0
360444,-91.5834783405074,4,1,0,40,0,0
362627,542.005420054201,4,1,0,40,1,0
362627,-92.2509225092251,4,1,0,40,0,0
364795,545.454545454546,4,1,0,40,1,0
364795,-91.6674305619214,4,1,0,40,0,0
388795,562.32427366448,4,1,0,40,1,0
388795,-88.9205050684688,4,1,0,40,0,0
390481,636.26723223754,4,1,0,40,1,8
390481,-78.5854616895874,4,1,0,40,0,0
390769,-82.0008200082001,4,1,0,40,0,0
391117,670.391061452514,4,1,0,40,1,0
391117,-81.366965012205,4,1,0,40,0,0
391422,-85.236958745312,4,1,0,40,0,0
391757,-89.5014767743668,4,1,0,40,0,0
392371,-92.2679461155195,4,1,0,40,0,0
392457,863.309352517986,4,1,0,40,1,8
392457,-73.1582412758797,4,1,0,40,0,0
393218,-75.5458185389439,4,1,0,40,0,0
393320,1237.11340206186,4,1,0,40,1,8
393320,-53.888020693,4,1,0,40,0,8
394557,600,4,1,0,50,1,0
394557,-100,4,1,0,50,0,0
411927,-97.2222222222222,4,1,0,51,0,0
412227,-94.5945945945946,4,1,0,53,0,0
412527,-92.1052631578947,4,1,0,54,0,0
412827,-89.7435897435897,4,1,0,56,0,0
413127,-87.5,4,1,0,57,0,0
413427,-85.3658536585366,4,1,0,59,0,0
413727,-83.3333333333333,4,1,0,60,0,0
413757,-83.3333333333333,4,1,0,60,0,1
432957,623.052959501558,4,1,0,60,1,1
432957,-80.2503811893106,4,1,0,60,0,1
433861,-84.4737286703835,4,1,0,60,0,1
434203,666.666666666667,4,1,0,60,1,9
434203,-83.3333333333333,4,1,0,60,0,1
434839,-88.2378893496868,4,1,0,60,0,1
435173,-93.7470704040499,4,1,0,55,0,1
435405,-96.7773153972709,4,1,0,55,0,1
435536,638.297872340426,4,1,0,50,1,0
435536,-104.449550866931,4,1,0,50,0,0
436812,769.230769230769,4,1,0,40,1,8
436812,-87.6424189307625,4,1,0,40,0,0
437196,869.565217391304,4,1,0,35,1,8
437196,-80.2310654685494,4,1,0,35,0,0
437630,1000,4,1,0,30,1,8
437630,-75.0018750468762,4,1,0,30,0,8
438130,1333.33333333333,4,1,0,25,1,8
438130,-64.2880102860816,4,1,0,25,0,0
438796,545.454545454546,4,1,0,40,1,0
438796,-91.6674305619214,4,1,0,40,0,0
440977,535.714285714286,4,1,0,40,1,0
440977,-93.3358222885944,4,1,0,40,0,0
442049,545.950864422202,4,1,0,40,1,8
442049,-91.5834783405074,4,1,0,40,0,8
443140,551.318570247175,4,1,0,40,1,0
443140,-90.6947215672048,4,1,0,40,0,0
444793,539.568345323741,4,1,0,40,1,8
444793,-92.6698174404596,4,1,0,40,0,0
445032,-94.2372881355932,4,1,0,39,0,0
445332,546.946216955333,4,1,0,39,1,0
445332,-94.5715906941555,4,1,0,39,0,0
445575,-96.2280701754386,4,1,0,38,0,0
445848,-97.9464285714286,4,1,0,38,0,0
446152,543.478260869565,4,1,0,37,1,8
446152,-100.363636363636,4,1,0,38,0,0
446393,-102.222222222222,4,1,0,37,0,0
446665,-104.150943396226,4,1,0,36,0,0
446967,555.555555555556,4,1,0,36,1,8
446967,-103.846153846154,4,1,0,36,0,0
447214,-105.882352941176,4,1,0,35,0,0
447522,600,4,1,0,35,1,0
447792,-100,4,1,0,35,0,0
450522,693.64161849711,4,1,0,35,1,8
450522,-86.5,4,1,0,35,0,0
451215,679.501698754247,4,1,0,35,1,8
451215,-88.3002207505519,4,1,0,35,0,0
451524,-89.4934669769107,4,1,0,34,0,0
451864,-90.719404880704,4,1,0,32,0,0
452204,-91.9793966151582,4,1,0,31,0,0
452574,681.818181818182,4,1,0,30,1,0
452574,-91.6666666666667,4,1,0,30,0,0
453937,750,4,1,0,30,1,8
453937,-85.1063829787234,4,1,0,30,0,0
454687,898.203592814371,4,1,0,25,1,8
454687,-72.6086956521739,4,1,0,25,0,0
455136,834.492350486787,4,1,0,25,1,8
455136,-79.8888888888889,4,1,0,25,0,0
455553,834.492350486787,4,1,0,25,1,0
455553,-81.7045454545455,4,1,0,25,0,0
455970,858.7376556462,4,1,0,25,1,8
455970,-81.2441860465116,4,1,0,25,0,0
456399,-83.1785714285714,4,1,0,25,0,0
456828,-85.2073170731707,4,1,0,25,0,0
457258,923.076923076923,4,1,0,25,1,8
457258,-81.25,4,1,0,25,0,0
457719,857.142857142857,4,1,0,28,1,8
457719,-84.0000336000134,4,1,0,28,0,0
458210,625,4,1,0,32,1,8
458210,-110.769315976397,4,1,0,32,0,0
458835,1387.28323699422,4,1,0,35,1,8
458835,-48.0555555555556,4,1,0,35,0,0
459528,606.060606060606,4,1,0,25,1,0
459528,-99,4,1,0,25,0,0
464376,625,4,1,0,25,1,0
464376,-97.9591836734694,4,1,0,25,0,0
466876,710.059171597633,4,1,0,25,1,0
466876,-88.0208333333333,4,1,0,25,0,0
468296,807.537012113055,4,1,0,25,1,8
468296,-79.0425531914894,4,1,0,25,0,0
468669,-80.7608695652174,4,1,0,25,0,0
469103,1000,4,1,0,25,1,8
469103,-66.6666666666667,4,1,0,25,0,0
469603,1371.42857142857,4,1,0,25,1,8
469603,-51.4705882352941,4,1,0,25,0,0
470288,1412.92829388909,4,1,0,20,1,0
470288,-53.08125,4,1,0,20,0,0

[Colours]
Combo1 : 37,185,239
Combo2 : 164,32,240

[HitObjects]
160,288,57918,5,4,0:0:0:0:
160,96,58185,1,0,0:0:0:0:
160,96,58319,1,0,0:0:0:0:
352,96,58453,1,8,0:0:0:0:
160,96,58721,1,0,0:0:0:0:
352,96,58989,1,8,0:0:0:0:
160,96,59257,1,0,0:0:0:0:
160,96,59391,1,0,0:0:0:0:
352,96,59525,1,8,0:0:0:0:
160,96,59793,1,0,0:0:0:0:
352,96,60060,1,8,0:0:0:0:
160,96,60328,1,0,0:0:0:0:
352,96,60462,1,8,0:0:0:0:
352,96,60596,1,8,0:0:0:0:
160,96,60864,1,0,0:0:0:0:
352,96,61132,1,8,0:0:0:0:
160,96,61400,1,0,0:0:0:0:
352,96,61534,1,8,0:0:0:0:
352,96,61668,1,8,0:0:0:0:
160,96,61935,1,0,0:0:0:0:
160,288,62203,1,4,0:0:0:0:
160,96,62471,1,0,0:0:0:0:
160,96,62605,1,0,0:0:0:0:
352,96,62739,1,8,0:0:0:0:
160,96,63007,1,0,0:0:0:0:
352,96,63275,1,8,0:0:0:0:
160,96,63543,1,0,0:0:0:0:
352,96,63676,1,8,0:0:0:0:
160,96,63810,1,0,0:0:0:0:
160,96,64078,1,0,0:0:0:0:
352,96,64346,1,8,0:0:0:0:
352,96,64614,1,8,0:0:0:0:
352,96,64748,1,8,0:0:0:0:
160,96,64882,1,0,0:0:0:0:
160,96,65150,1,0,0:0:0:0:
160,96,65239,1,0,0:0:0:0:
160,96,65328,1,0,0:0:0:0:
352,96,65418,1,8,0:0:0:0:
352,96,65551,1,8,0:0:0:0:
352,96,65685,1,8,0:0:0:0:
160,96,65819,1,0,0:0:0:0:
352,96,65953,1,8,0:0:0:0:
352,96,66043,1,8,0:0:0:0:
160,96,66132,1,0,0:0:0:0:
352,96,66221,1,8,0:0:0:0:
160,96,66310,1,0,0:0:0:0:
160,96,66400,1,0,0:0:0:0:
352,288,66489,1,12,0:0:0:0:
160,96,66757,1,0,0:0:0:0:
160,96,66891,1,0,0:0:0:0:
160,96,67025,1,0,0:0:0:0:
160,96,67293,1,0,0:0:0:0:
352,96,67560,1,8,0:0:0:0:
160,96,67828,1,0,0:0:0:0:
352,96,67962,1,8,0:0:0:0:
160,96,68096,1,0,0:0:0:0:
160,96,68364,1,0,0:0:0:0:
352,96,68632,1,8,0:0:0:0:
160,96,68900,1,0,0:0:0:0:
160,96,69034,1,0,0:0:0:0:
352,96,69168,1,8,0:0:0:0:
160,96,69435,1,0,0:0:0:0:
352,96,69703,1,8,0:0:0:0:
160,96,69971,1,0,0:0:0:0:
352,96,70105,1,8,0:0:0:0:
352,96,70239,1,8,0:0:0:0:
160,96,70507,1,0,0:0:0:0:
352,288,70775,1,12,0:0:0:0:
160,96,71043,1,0,0:0:0:0:
160,96,71176,1,0,0:0:0:0:
160,96,71310,1,0,0:0:0:0:
160,96,71578,1,0,0:0:0:0:
352,96,71846,1,8,0:0:0:0:
160,96,72114,1,0,0:0:0:0:
160,96,72248,1,8,0:0:0:0:
352,96,72382,1,0,0:0:0:0:
160,96,72650,1,0,0:0:0:0:
352,96,72918,5,8,0:0:0:0:
160,96,73051,1,0,0:0:0:0:
352,96,73185,1,8,0:0:0:0:
352,96,73252,1,8,0:0:0:0:
160,96,73319,1,0,0:0:0:0:
352,96,73453,1,8,0:0:0:0:
160,96,73587,1,0,0:0:0:0:
352,96,73721,1,8,0:0:0:0:
160,96,73788,1,0,0:0:0:0:
160,96,73855,1,0,0:0:0:0:
352,96,73989,1,8,0:0:0:0:
160,96,74123,1,0,0:0:0:0:
160,96,74190,1,0,0:0:0:0:
352,96,74257,1,8,0:0:0:0:
160,96,74391,1,0,0:0:0:0:
352,96,74525,1,8,0:0:0:0:
352,96,74614,1,8,0:0:0:0:
352,96,74703,1,8,0:0:0:0:
160,96,74793,1,0,0:0:0:0:
160,96,74882,1,0,0:0:0:0:
160,96,74971,1,0,0:0:0:0:
352,288,75060,1,12,0:0:0:0:
160,96,76400,5,0,0:0:0:0:
160,96,76489,1,0,0:0:0:0:
352,96,76578,1,0,0:0:0:0:
160,96,76668,1,8,0:0:0:0:
352,96,76757,1,8,0:0:0:0:
352,96,76846,1,0,0:0:0:0:
160,96,76935,1,8,0:0:0:0:
352,96,77025,1,0,0:0:0:0:
160,96,77114,1,0,0:0:0:0:
352,96,77203,1,8,0:0:0:0:
352,96,77293,1,8,0:0:0:0:
160,96,77382,1,0,0:0:0:0:
352,96,77471,1,8,0:0:0:0:
160,96,77560,1,0,0:0:0:0:
160,96,77650,1,0,0:0:0:0:
352,96,77739,1,8,0:0:0:0:
160,96,77828,1,0,0:0:0:0:
352,96,78007,1,8,0:0:0:0:
352,96,78096,1,8,0:0:0:0:
160,96,78185,1,0,0:0:0:0:
352,96,78275,1,8,0:0:0:0:
160,96,78364,1,8,0:0:0:0:
160,96,78453,1,0,0:0:0:0:
352,96,78543,1,8,0:0:0:0:
352,96,78632,1,0,0:0:0:0:
160,96,78721,1,0,0:0:0:0:
352,96,78810,1,8,0:0:0:0:
160,96,78944,1,0,0:0:0:0:
352,96,79078,1,8,0:0:0:0:
160,96,79212,1,0,0:0:0:0:
352,288,79346,1,12,0:0:0:0:
160,96,80685,5,0,0:0:0:0:
160,96,80775,1,0,0:0:0:0:
160,96,80864,1,0,0:0:0:0:
352,96,80953,1,8,0:0:0:0:
352,96,81043,1,8,0:0:0:0:
352,96,81132,1,0,0:0:0:0:
160,96,81221,1,8,0:0:0:0:
352,96,81310,1,0,0:0:0:0:
160,96,81400,1,0,0:0:0:0:
352,96,81489,1,8,0:0:0:0:
352,96,81578,1,8,0:0:0:0:
160,96,81668,1,0,0:0:0:0:
352,96,81757,1,8,0:0:0:0:
160,96,81846,1,0,0:0:0:0:
160,96,81935,1,0,0:0:0:0:
352,96,82025,1,8,0:0:0:0:
160,96,82114,1,0,0:0:0:0:
352,96,82293,1,8,0:0:0:0:
160,96,82382,1,0,0:0:0:0:
160,96,82471,1,0,0:0:0:0:
352,96,82560,1,8,0:0:0:0:
352,96,82650,1,8,0:0:0:0:
160,96,82739,1,0,0:0:0:0:
352,96,82828,1,8,0:0:0:0:
160,96,82918,1,0,0:0:0:0:
160,96,83007,1,0,0:0:0:0:
352,96,83096,1,8,0:0:0:0:
160,96,83230,1,0,0:0:0:0:
352,96,83364,1,8,0:0:0:0:
160,96,83498,1,0,0:0:0:0:
352,288,83632,1,12,0:0:0:0:
160,96,84971,5,0,0:0:0:0:
160,96,85060,1,0,0:0:0:0:
352,96,85150,1,0,0:0:0:0:
352,96,85239,1,8,0:0:0:0:
352,96,85328,1,8,0:0:0:0:
352,96,85418,1,0,0:0:0:0:
160,96,85507,1,8,0:0:0:0:
352,96,85596,1,8,0:0:0:0:
160,96,85685,1,0,0:0:0:0:
352,96,85775,1,8,0:0:0:0:
352,96,85864,1,0,0:0:0:0:
160,96,85953,1,0,0:0:0:0:
352,96,86043,1,8,0:0:0:0:
160,96,86132,1,8,0:0:0:0:
352,96,86221,1,0,0:0:0:0:
352,96,86310,1,8,0:0:0:0:
160,96,86400,1,0,0:0:0:0:
352,96,86578,1,8,0:0:0:0:
352,96,86668,1,8,0:0:0:0:
160,96,86757,1,0,0:0:0:0:
352,96,86846,1,8,0:0:0:0:
160,96,86935,1,0,0:0:0:0:
160,96,87025,1,0,0:0:0:0:
352,96,87114,1,8,0:0:0:0:
160,96,87203,1,0,0:0:0:0:
160,96,87293,1,0,0:0:0:0:
352,96,87382,1,8,0:0:0:0:
160,96,87516,1,0,0:0:0:0:
352,96,87650,1,8,0:0:0:0:
160,96,87784,1,0,0:0:0:0:
352,288,87918,1,12,0:0:0:0:
160,96,89257,5,0,0:0:0:0:
160,96,89346,1,0,0:0:0:0:
352,96,89435,1,0,0:0:0:0:
160,96,89525,1,8,0:0:0:0:
352,96,89614,1,8,0:0:0:0:
352,96,89703,1,0,0:0:0:0:
160,96,89793,1,8,0:0:0:0:
352,96,89882,1,8,0:0:0:0:
160,96,89971,1,0,0:0:0:0:
352,96,90060,1,8,0:0:0:0:
352,96,90150,1,0,0:0:0:0:
160,96,90239,1,0,0:0:0:0:
352,96,90328,1,8,0:0:0:0:
352,96,90418,1,8,0:0:0:0:
160,96,90507,1,0,0:0:0:0:
352,96,90596,1,8,0:0:0:0:
160,96,90685,1,0,0:0:0:0:
352,96,90864,1,8,0:0:0:0:
160,96,90953,1,0,0:0:0:0:
160,96,91043,1,0,0:0:0:0:
352,96,91132,1,8,0:0:0:0:
352,96,91221,1,8,0:0:0:0:
160,96,91310,1,0,0:0:0:0:
352,96,91400,1,8,0:0:0:0:
160,96,91489,1,8,0:0:0:0:
160,96,91578,1,0,0:0:0:0:
352,96,91668,1,8,0:0:0:0:
160,96,91801,1,0,0:0:0:0:
352,96,91935,1,8,0:0:0:0:
160,96,92069,1,0,0:0:0:0:
160,96,92203,5,0,0:0:0:0:
160,96,92471,1,0,0:0:0:0:
160,96,92739,1,0,0:0:0:0:
352,96,93007,1,8,0:0:0:0:
160,96,94346,1,0,0:0:0:0:
160,96,94614,1,0,0:0:0:0:
160,96,94882,1,0,0:0:0:0:
352,96,95150,1,8,0:0:0:0:
160,96,95418,1,0,0:0:0:0:
352,96,95685,1,8,0:0:0:0:
352,96,95953,1,8,0:0:0:0:
160,96,96221,1,0,0:0:0:0:
160,96,96489,1,0,0:0:0:0:
160,96,96757,1,0,0:0:0:0:
160,96,97025,1,0,0:0:0:0:
352,96,97293,1,8,0:0:0:0:
160,96,98632,1,0,0:0:0:0:
160,96,98900,1,0,0:0:0:0:
160,96,99168,1,0,0:0:0:0:
352,96,99435,1,8,0:0:0:0:
160,96,99703,1,0,0:0:0:0:
352,96,99971,1,8,0:0:0:0:
352,96,100239,1,8,0:0:0:0:
160,96,100507,1,0,0:0:0:0:
160,96,100775,1,0,0:0:0:0:
160,96,101043,1,0,0:0:0:0:
160,96,101310,1,0,0:0:0:0:
352,96,101578,1,8,0:0:0:0:
160,96,102918,1,0,0:0:0:0:
160,96,103185,1,0,0:0:0:0:
160,96,103453,1,0,0:0:0:0:
352,96,103721,1,8,0:0:0:0:
160,96,103989,1,0,0:0:0:0:
352,96,104257,1,8,0:0:0:0:
352,96,104525,1,8,0:0:0:0:
160,96,104793,1,0,0:0:0:0:
160,96,105060,1,0,0:0:0:0:
160,96,105328,1,0,0:0:0:0:
160,96,105596,1,0,0:0:0:0:
352,96,105864,1,8,0:0:0:0:
160,96,107203,1,0,0:0:0:0:
160,96,107471,1,0,0:0:0:0:
160,96,107739,1,0,0:0:0:0:
352,96,108007,1,8,0:0:0:0:
352,96,108275,1,8,0:0:0:0:
160,96,108543,1,0,0:0:0:0:
352,96,108810,1,8,0:0:0:0:
160,96,109078,1,0,0:0:0:0:
160,96,109346,1,0,0:0:0:0:
352,96,109614,1,8,0:0:0:0:
352,96,109882,1,8,0:0:0:0:
160,96,110150,1,0,0:0:0:0:
352,96,110418,1,8,0:0:0:0:
160,96,110685,1,0,0:0:0:0:
352,96,110953,1,8,0:0:0:0:
352,96,111221,1,8,0:0:0:0:
160,96,111489,1,0,0:0:0:0:
160,96,111757,1,0,0:0:0:0:
160,96,112025,1,0,0:0:0:0:
352,96,112293,1,8,0:0:0:0:
352,96,112560,1,8,0:0:0:0:
160,96,112828,1,0,0:0:0:0:
352,96,113096,1,8,0:0:0:0:
352,96,113364,1,8,0:0:0:0:
160,96,113632,1,0,0:0:0:0:
160,96,113900,1,0,0:0:0:0:
160,96,114168,1,0,0:0:0:0:
352,96,114435,1,8,0:0:0:0:
160,96,114971,1,0,0:0:0:0:
352,96,115507,1,8,0:0:0:0:
160,96,115775,1,0,0:0:0:0:
160,96,116043,1,0,0:0:0:0:
352,96,116310,1,8,0:0:0:0:
160,96,116578,1,0,0:0:0:0:
352,96,116846,1,8,0:0:0:0:
352,96,117114,1,8,0:0:0:0:
352,96,117382,1,8,0:0:0:0:
352,96,117650,1,8,0:0:0:0:
160,96,117918,1,0,0:0:0:0:
160,96,118185,1,0,0:0:0:0:
160,96,118453,1,0,0:0:0:0:
352,96,118721,1,8,0:0:0:0:
352,96,118989,1,8,0:0:0:0:
160,96,120060,1,0,0:0:0:0:
160,96,120328,1,0,0:0:0:0:
160,96,120596,1,0,0:0:0:0:
160,96,120864,1,0,0:0:0:0:
352,96,121132,1,8,0:0:0:0:
160,96,121400,1,0,0:0:0:0:
352,96,121668,1,8,0:0:0:0:
160,96,121935,1,0,0:0:0:0:
352,96,122203,1,8,0:0:0:0:
352,96,122605,1,8,0:0:0:0:
160,96,122739,1,0,0:0:0:0:
352,96,123007,1,8,0:0:0:0:
160,96,123275,1,0,0:0:0:0:
352,96,123543,1,8,0:0:0:0:
160,96,124078,1,0,0:0:0:0:
352,96,124346,1,8,0:0:0:0:
352,96,124614,1,8,0:0:0:0:
352,96,124882,1,8,0:0:0:0:
352,96,125150,1,8,0:0:0:0:
352,96,125418,1,8,0:0:0:0:
352,96,125685,1,8,0:0:0:0:
160,96,125953,1,0,0:0:0:0:
160,96,126221,1,0,0:0:0:0:
352,96,126489,5,8,0:0:0:0:
160,96,127560,1,0,0:0:0:0:
352,96,128632,1,8,0:0:0:0:
160,96,129703,1,0,0:0:0:0:
160,96,129971,1,0,0:0:0:0:
352,96,130239,1,8,0:0:0:0:
160,96,130507,1,0,0:0:0:0:
352,96,130775,1,8,0:0:0:0:
160,96,131043,1,0,0:0:0:0:
160,96,131310,1,0,0:0:0:0:
352,96,131578,1,8,0:0:0:0:
352,96,131846,1,8,0:0:0:0:
160,96,132114,1,0,0:0:0:0:
352,96,132382,1,8,0:0:0:0:
352,96,132918,1,8,0:0:0:0:
160,96,133989,1,0,0:0:0:0:
352,96,135060,1,8,0:0:0:0:
160,96,135328,1,0,0:0:0:0:
352,96,135596,1,8,0:0:0:0:
160,96,135864,1,0,0:0:0:0:
352,96,136132,1,8,0:0:0:0:
160,96,136400,1,0,0:0:0:0:
160,96,136668,1,0,0:0:0:0:
352,96,137203,1,8,0:0:0:0:
160,96,137471,1,0,0:0:0:0:
352,96,137739,1,8,0:0:0:0:
160,96,138007,1,0,0:0:0:0:
352,96,138275,1,8,0:0:0:0:
352,96,138543,1,8,0:0:0:0:
160,96,138810,1,0,0:0:0:0:
160,96,139346,1,0,0:0:0:0:
160,96,139623,1,0,0:0:0:0:
352,96,139901,1,8,0:0:0:0:
160,96,140201,1,0,0:0:0:0:
352,96,140501,1,8,0:0:0:0:
160,96,140813,1,0,0:0:0:0:
352,96,141126,1,8,0:0:0:0:
160,96,141501,1,0,0:0:0:0:
352,96,141876,1,8,0:0:0:0:
256,192,142265,12,0,144213,0:0:0:0:
160,288,144603,5,4,0:0:0:0:
160,96,144773,1,0,0:0:0:0:
160,96,144858,1,0,0:0:0:0:
352,96,144943,1,8,0:0:0:0:
160,96,145114,1,0,0:0:0:0:
352,96,145284,1,8,0:0:0:0:
352,96,145455,1,8,0:0:0:0:
352,96,145540,1,8,0:0:0:0:
160,96,145625,1,0,0:0:0:0:
160,96,145796,1,0,0:0:0:0:
352,96,146137,1,8,0:0:0:0:
160,96,146307,1,0,0:0:0:0:
160,96,146478,1,0,0:0:0:0:
160,96,146563,1,0,0:0:0:0:
352,96,146648,1,8,0:0:0:0:
352,96,146818,1,8,0:0:0:0:
160,96,146989,1,0,0:0:0:0:
160,96,147330,1,0,0:0:0:0:
352,96,147500,1,8,0:0:0:0:
160,96,147585,1,0,0:0:0:0:
160,96,147671,1,0,0:0:0:0:
160,96,147841,1,0,0:0:0:0:
352,96,148012,1,8,0:0:0:0:
160,96,148182,1,0,0:0:0:0:
160,96,148267,1,0,0:0:0:0:
352,96,148353,1,8,0:0:0:0:
352,96,148523,1,8,0:0:0:0:
160,96,148693,1,0,0:0:0:0:
352,96,148864,1,8,0:0:0:0:
352,96,148949,1,8,0:0:0:0:
160,96,149034,1,0,0:0:0:0:
160,96,149205,1,0,0:0:0:0:
160,96,149290,1,0,0:0:0:0:
352,96,149375,1,8,0:0:0:0:
160,96,149546,1,0,0:0:0:0:
160,96,149631,1,0,0:0:0:0:
352,96,149716,1,8,0:0:0:0:
352,96,149887,1,8,0:0:0:0:
160,96,150057,1,0,0:0:0:0:
352,96,150228,1,8,0:0:0:0:
160,96,150313,1,0,0:0:0:0:
160,96,150398,1,0,0:0:0:0:
160,96,150568,1,0,0:0:0:0:
352,96,150739,1,8,0:0:0:0:
352,96,150909,1,8,0:0:0:0:
160,96,151080,1,0,0:0:0:0:
160,96,151250,1,0,0:0:0:0:
352,96,151591,1,8,0:0:0:0:
160,96,151762,1,0,0:0:0:0:
160,96,151932,1,0,0:0:0:0:
160,96,152017,1,0,0:0:0:0:
352,96,152103,1,8,0:0:0:0:
352,96,152273,1,8,0:0:0:0:
160,96,152443,1,0,0:0:0:0:
160,96,152784,1,0,0:0:0:0:
352,96,152955,1,8,0:0:0:0:
160,96,153040,1,0,0:0:0:0:
160,96,153125,1,0,0:0:0:0:
160,96,153296,1,0,0:0:0:0:
352,96,153466,1,8,0:0:0:0:
352,96,153637,1,8,0:0:0:0:
352,96,153722,1,8,0:0:0:0:
160,96,153807,1,0,0:0:0:0:
160,96,153892,1,0,0:0:0:0:
352,96,153978,1,8,0:0:0:0:
352,96,154148,1,8,0:0:0:0:
352,96,154318,1,8,0:0:0:0:
160,96,154404,1,0,0:0:0:0:
160,96,154489,1,0,0:0:0:0:
160,96,154659,1,0,0:0:0:0:
160,96,154745,1,0,0:0:0:0:
352,96,154830,1,8,0:0:0:0:
256,192,155000,12,8,155341,0:0:0:0:
160,288,155512,5,4,0:0:0:0:
160,96,155682,1,0,0:0:0:0:
160,96,155767,1,0,0:0:0:0:
352,96,155853,1,8,0:0:0:0:
160,96,156023,1,0,0:0:0:0:
352,96,156193,1,8,0:0:0:0:
352,96,156364,1,8,0:0:0:0:
352,96,156449,1,8,0:0:0:0:
160,96,156534,1,0,0:0:0:0:
352,96,156705,1,8,0:0:0:0:
160,96,157046,1,0,0:0:0:0:
352,96,157216,1,8,0:0:0:0:
160,96,157387,1,0,0:0:0:0:
160,96,157472,1,0,0:0:0:0:
352,96,157557,1,8,0:0:0:0:
352,96,157728,1,8,0:0:0:0:
352,96,157813,1,8,0:0:0:0:
160,96,157898,1,0,0:0:0:0:
160,96,158068,1,0,0:0:0:0:
352,288,158239,1,12,0:0:0:0:
160,96,158409,1,0,0:0:0:0:
352,96,158580,1,8,0:0:0:0:
352,96,158750,1,8,0:0:0:0:
160,96,158835,1,0,0:0:0:0:
352,96,158921,1,8,0:0:0:0:
160,96,159091,1,0,0:0:0:0:
160,96,159176,1,0,0:0:0:0:
352,96,159262,1,8,0:0:0:0:
160,96,159432,1,0,0:0:0:0:
352,288,159603,1,12,0:0:0:0:
352,96,159773,1,0,0:0:0:0:
352,96,159943,1,8,0:0:0:0:
160,96,160114,1,0,0:0:0:0:
160,96,160199,1,0,0:0:0:0:
352,96,160284,1,8,0:0:0:0:
352,96,160455,1,8,0:0:0:0:
160,96,160540,1,0,0:0:0:0:
352,96,160625,1,8,0:0:0:0:
160,96,160796,1,0,0:0:0:0:
352,288,160966,1,12,0:0:0:0:
160,96,161137,1,0,0:0:0:0:
352,96,161307,1,8,0:0:0:0:
160,96,161478,1,0,0:0:0:0:
160,96,161563,1,0,0:0:0:0:
352,96,161648,1,8,0:0:0:0:
352,96,161818,1,8,0:0:0:0:
160,96,161989,1,0,0:0:0:0:
352,96,162159,1,8,0:0:0:0:
160,96,162500,1,0,0:0:0:0:
352,96,162671,1,8,0:0:0:0:
160,96,162841,1,0,0:0:0:0:
160,96,162926,1,0,0:0:0:0:
352,96,163012,1,8,0:0:0:0:
352,96,163182,1,8,0:0:0:0:
160,96,163267,1,0,0:0:0:0:
352,96,163353,1,8,0:0:0:0:
160,96,163523,1,0,0:0:0:0:
352,288,163693,1,12,0:0:0:0:
160,96,163864,1,0,0:0:0:0:
352,96,164034,1,8,0:0:0:0:
160,96,164205,1,0,0:0:0:0:
160,96,164290,1,0,0:0:0:0:
352,96,164375,1,8,0:0:0:0:
352,96,164546,1,8,0:0:0:0:
160,96,164631,1,0,0:0:0:0:
160,96,164716,1,0,0:0:0:0:
160,96,164887,1,0,0:0:0:0:
352,288,165057,1,12,0:0:0:0:
160,96,165228,1,0,0:0:0:0:
352,96,165398,1,8,0:0:0:0:
352,96,165483,1,8,0:0:0:0:
160,96,165568,1,0,0:0:0:0:
160,96,165654,1,0,0:0:0:0:
352,288,165739,1,12,0:0:0:0:
160,96,165909,1,0,0:0:0:0:
160,96,165995,1,0,0:0:0:0:
352,96,166080,1,8,0:0:0:0:
352,96,166250,1,8,0:0:0:0:
160,288,166421,1,4,0:0:0:0:
160,96,166591,1,0,0:0:0:0:
352,96,166762,1,8,0:0:0:0:
160,96,166932,1,0,0:0:0:0:
160,96,167017,1,0,0:0:0:0:
352,96,167103,1,8,0:0:0:0:
352,96,167273,1,8,0:0:0:0:
160,96,167443,1,0,0:0:0:0:
352,96,167614,1,8,0:0:0:0:
160,96,167955,1,0,0:0:0:0:
352,96,168125,1,8,0:0:0:0:
160,96,168296,1,0,0:0:0:0:
160,96,168381,1,0,0:0:0:0:
352,96,168466,1,8,0:0:0:0:
352,96,168637,1,8,0:0:0:0:
160,96,168807,1,0,0:0:0:0:
160,96,169148,1,0,0:0:0:0:
160,96,169318,1,0,0:0:0:0:
352,96,169489,1,8,0:0:0:0:
160,96,169659,1,0,0:0:0:0:
160,96,169745,1,0,0:0:0:0:
352,96,169830,1,8,0:0:0:0:
352,96,170000,1,8,0:0:0:0:
160,96,170085,1,0,0:0:0:0:
352,96,170171,1,8,0:0:0:0:
160,96,170341,1,0,0:0:0:0:
352,288,170512,1,12,0:0:0:0:
160,96,170682,1,0,0:0:0:0:
160,96,170767,1,0,0:0:0:0:
352,96,170853,1,8,0:0:0:0:
352,96,171023,1,8,0:0:0:0:
160,96,171108,1,0,0:0:0:0:
352,96,171193,1,8,0:0:0:0:
160,96,171364,1,0,0:0:0:0:
352,96,171534,1,8,0:0:0:0:
352,96,171705,1,8,0:0:0:0:
160,288,171875,1,4,0:0:0:0:
160,96,172046,1,0,0:0:0:0:
352,96,172216,1,8,0:0:0:0:
160,96,172387,1,0,0:0:0:0:
160,96,172472,1,0,0:0:0:0:
352,96,172557,1,8,0:0:0:0:
352,96,172728,1,8,0:0:0:0:
160,96,172898,1,0,0:0:0:0:
352,96,173068,1,8,0:0:0:0:
160,96,173409,1,0,0:0:0:0:
352,96,173580,1,8,0:0:0:0:
160,96,173750,1,0,0:0:0:0:
160,96,173835,1,0,0:0:0:0:
352,96,173921,1,8,0:0:0:0:
352,96,174091,1,8,0:0:0:0:
160,96,174176,1,0,0:0:0:0:
352,96,174262,1,8,0:0:0:0:
352,96,174432,1,0,0:0:0:0:
352,288,174603,1,12,0:0:0:0:
160,96,174773,1,0,0:0:0:0:
352,96,174943,1,8,0:0:0:0:
160,96,175114,1,0,0:0:0:0:
160,96,175199,1,0,0:0:0:0:
352,96,175284,1,8,0:0:0:0:
352,96,175455,1,8,0:0:0:0:
160,96,175625,1,0,0:0:0:0:
352,96,175796,1,8,0:0:0:0:
352,96,175966,1,8,0:0:0:0:
160,96,176051,1,0,0:0:0:0:
352,96,176137,1,8,0:0:0:0:
160,96,176222,1,0,0:0:0:0:
352,96,176307,1,8,0:0:0:0:
352,96,176392,1,8,0:0:0:0:
160,96,176478,1,0,0:0:0:0:
160,96,176563,1,0,0:0:0:0:
352,96,176648,1,8,0:0:0:0:
160,96,176733,1,0,0:0:0:0:
352,96,176818,1,8,0:0:0:0:
160,96,176904,1,0,0:0:0:0:
352,96,176989,1,8,0:0:0:0:
352,96,177074,1,8,0:0:0:0:
160,96,177159,1,0,0:0:0:0:
160,96,177245,1,0,0:0:0:0:
352,96,177330,1,8,0:0:0:0:
160,96,177500,1,0,0:0:0:0:
352,96,177671,1,8,0:0:0:0:
352,96,177841,1,0,0:0:0:0:
160,96,177926,1,0,0:0:0:0:
352,96,178012,1,8,0:0:0:0:
160,96,178182,1,0,0:0:0:0:
352,96,178353,1,8,0:0:0:0:
160,96,178523,1,0,0:0:0:0:
352,96,178864,1,8,0:0:0:0:
160,96,179034,1,0,0:0:0:0:
160,96,179205,1,0,0:0:0:0:
160,96,179290,1,0,0:0:0:0:
352,96,179375,1,8,0:0:0:0:
352,96,179546,1,8,0:0:0:0:
160,96,179716,1,0,0:0:0:0:
160,96,180057,1,0,0:0:0:0:
160,96,180228,1,0,0:0:0:0:
160,96,180313,1,0,0:0:0:0:
352,96,180398,1,8,0:0:0:0:
160,96,180568,1,0,0:0:0:0:
352,96,180739,1,8,0:0:0:0:
160,96,180909,1,8,0:0:0:0:
160,96,180995,1,8,0:0:0:0:
352,96,181080,1,0,0:0:0:0:
352,96,181250,1,0,0:0:0:0:
160,96,181335,1,0,0:0:0:0:
160,96,181421,1,8,0:0:0:0:
160,96,181591,1,0,0:0:0:0:
160,96,181676,1,0,0:0:0:0:
352,96,181762,1,8,0:0:0:0:
160,96,181932,1,0,0:0:0:0:
352,96,182103,1,8,0:0:0:0:
352,96,182273,1,8,0:0:0:0:
160,96,182443,1,0,0:0:0:0:
160,288,182784,1,4,0:0:0:0:
160,96,182955,1,0,0:0:0:0:
160,96,183040,1,0,0:0:0:0:
352,96,183125,1,8,0:0:0:0:
160,96,183296,1,0,0:0:0:0:
160,96,183381,1,0,0:0:0:0:
352,96,183466,1,8,0:0:0:0:
160,96,183637,1,0,0:0:0:0:
352,96,183807,1,8,0:0:0:0:
160,96,183978,1,0,0:0:0:0:
160,96,184318,1,0,0:0:0:0:
352,96,184489,1,8,0:0:0:0:
160,96,184659,1,0,0:0:0:0:
160,96,184745,1,0,0:0:0:0:
352,96,184830,1,8,0:0:0:0:
352,96,185000,1,8,0:0:0:0:
160,96,185171,1,0,0:0:0:0:
352,96,185341,1,8,0:0:0:0:
160,288,185512,1,4,0:0:0:0:
352,96,185682,1,8,0:0:0:0:
160,96,185767,1,0,0:0:0:0:
352,96,185853,1,8,0:0:0:0:
160,96,186023,1,0,0:0:0:0:
160,96,186108,1,0,0:0:0:0:
352,96,186193,1,8,0:0:0:0:
352,96,186364,1,8,0:0:0:0:
160,96,186534,1,0,0:0:0:0:
352,96,186705,1,8,0:0:0:0:
352,96,186875,1,8,0:0:0:0:
160,96,186989,1,0,0:0:0:0:
160,96,187103,1,0,0:0:0:0:
352,96,187216,1,8,0:0:0:0:
160,96,187330,1,0,0:0:0:0:
160,96,187443,1,0,0:0:0:0:
352,96,187557,1,8,0:0:0:0:
160,96,187642,1,0,0:0:0:0:
352,96,187728,1,8,0:0:0:0:
352,96,188068,1,8,0:0:0:0:
352,96,188154,1,8,0:0:0:0:
160,288,188239,1,4,0:0:0:0:
160,96,188409,1,0,0:0:0:0:
352,96,188580,1,8,0:0:0:0:
160,96,188750,1,0,0:0:0:0:
160,96,188835,1,0,0:0:0:0:
352,96,188921,1,8,0:0:0:0:
352,96,189091,1,8,0:0:0:0:
160,96,189262,1,0,0:0:0:0:
352,96,189432,1,8,0:0:0:0:
160,96,189773,1,0,0:0:0:0:
352,96,189943,1,8,0:0:0:0:
160,96,190114,1,0,0:0:0:0:
160,96,190199,1,0,0:0:0:0:
352,96,190284,1,8,0:0:0:0:
352,96,190455,1,8,0:0:0:0:
352,96,190540,1,8,0:0:0:0:
160,96,190625,1,0,0:0:0:0:
352,96,190796,1,8,0:0:0:0:
160,96,190966,1,0,0:0:0:0:
160,96,191137,1,0,0:0:0:0:
160,96,191222,1,0,0:0:0:0:
352,96,191307,1,8,0:0:0:0:
160,96,191478,1,0,0:0:0:0:
352,96,191648,1,8,0:0:0:0:
352,96,191818,1,8,0:0:0:0:
352,96,191904,1,8,0:0:0:0:
160,96,191989,1,0,0:0:0:0:
352,96,192159,1,8,0:0:0:0:
160,96,192500,1,0,0:0:0:0:
352,96,192671,1,8,0:0:0:0:
160,96,192841,1,0,0:0:0:0:
160,96,192926,1,0,0:0:0:0:
352,96,193012,1,8,0:0:0:0:
352,96,193182,1,8,0:0:0:0:
352,96,193267,1,8,0:0:0:0:
160,96,193353,1,0,0:0:0:0:
352,96,193523,1,8,0:0:0:0:
160,288,193693,1,4,0:0:0:0:
160,96,193864,1,8,0:0:0:0:
352,96,193949,1,8,0:0:0:0:
352,96,194034,1,0,0:0:0:0:
160,96,194205,1,8,0:0:0:0:
352,96,194375,1,0,0:0:0:0:
160,96,194546,1,0,0:0:0:0:
352,96,194716,1,8,0:0:0:0:
352,96,194887,1,8,0:0:0:0:
160,96,195228,1,0,0:0:0:0:
352,96,195398,1,8,0:0:0:0:
352,96,195568,1,8,0:0:0:0:
352,96,195654,1,8,0:0:0:0:
160,96,195739,1,0,0:0:0:0:
352,96,195909,1,8,0:0:0:0:
160,96,196080,1,0,0:0:0:0:
352,96,196250,1,8,0:0:0:0:
160,96,196421,1,0,0:0:0:0:
352,96,196591,1,8,0:0:0:0:
160,96,196676,1,0,0:0:0:0:
160,96,196762,1,0,0:0:0:0:
352,96,196932,1,8,0:0:0:0:
160,96,197103,1,0,0:0:0:0:
160,96,197273,1,0,0:0:0:0:
352,96,197443,1,8,0:0:0:0:
352,288,197614,1,12,0:0:0:0:
352,96,197955,1,8,0:0:0:0:
160,96,198040,1,0,0:0:0:0:
160,96,198125,1,0,0:0:0:0:
160,96,198210,1,0,0:0:0:0:
352,96,198296,1,8,0:0:0:0:
160,96,198381,1,0,0:0:0:0:
352,96,198466,1,8,0:0:0:0:
352,96,198551,1,8,0:0:0:0:
160,96,198637,1,0,0:0:0:0:
160,96,198722,1,0,0:0:0:0:
352,96,198807,1,8,0:0:0:0:
352,96,198892,1,8,0:0:0:0:
352,96,198978,1,8,0:0:0:0:
352,96,199063,1,8,0:0:0:0:
160,288,199148,1,4,0:0:0:0:
160,96,199318,1,0,0:0:0:0:
352,96,199489,1,8,0:0:0:0:
160,96,199659,1,8,0:0:0:0:
352,96,199745,1,0,0:0:0:0:
352,96,199830,1,8,0:0:0:0:
160,96,200000,1,0,0:0:0:0:
352,96,200085,1,0,0:0:0:0:
352,96,200171,1,8,0:0:0:0:
352,96,200341,1,8,0:0:0:0:
160,96,200512,1,0,0:0:0:0:
352,96,200682,1,8,0:0:0:0:
352,96,200853,1,8,0:0:0:0:
160,96,201023,1,0,0:0:0:0:
352,96,201108,1,8,0:0:0:0:
160,96,201193,1,0,0:0:0:0:
160,96,201364,1,8,0:0:0:0:
352,96,201534,1,0,0:0:0:0:
352,96,201705,1,8,0:0:0:0:
160,96,201790,1,0,0:0:0:0:
352,96,201875,1,8,0:0:0:0:
160,96,202046,1,8,0:0:0:0:
352,96,202216,1,0,0:0:0:0:
352,96,202387,1,8,0:0:0:0:
160,96,202472,1,8,0:0:0:0:
160,96,202557,1,0,0:0:0:0:
160,96,202728,1,0,0:0:0:0:
352,96,202898,1,8,0:0:0:0:
352,288,203068,1,12,0:0:0:0:
160,96,203239,1,0,0:0:0:0:
160,96,203409,1,8,0:0:0:0:
352,96,203580,1,0,0:0:0:0:
352,96,203750,1,8,0:0:0:0:
352,96,203835,1,0,0:0:0:0:
160,96,203921,1,8,0:0:0:0:
352,96,204091,1,8,0:0:0:0:
352,96,204176,1,8,0:0:0:0:
160,96,204262,1,0,0:0:0:0:
352,96,204432,1,8,0:0:0:0:
160,288,204603,1,4,0:0:0:0:
352,96,204773,1,8,0:0:0:0:
160,96,204943,1,0,0:0:0:0:
160,96,205114,1,0,0:0:0:0:
160,96,205199,1,0,0:0:0:0:
352,96,205284,1,8,0:0:0:0:
352,96,205455,1,8,0:0:0:0:
160,96,205625,1,0,0:0:0:0:
352,96,205796,1,8,0:0:0:0:
352,96,205966,1,8,0:0:0:0:
160,96,206137,1,0,0:0:0:0:
352,96,206307,1,8,0:0:0:0:
160,96,206478,1,0,0:0:0:0:
160,96,206563,1,0,0:0:0:0:
352,96,206648,1,8,0:0:0:0:
352,96,206818,1,8,0:0:0:0:
352,96,206904,1,8,0:0:0:0:
160,96,206989,1,0,0:0:0:0:
352,96,207159,1,8,0:0:0:0:
160,288,207330,1,4,0:0:0:0:
352,96,207500,1,8,0:0:0:0:
160,96,207585,1,0,0:0:0:0:
352,96,207671,1,8,0:0:0:0:
160,96,207756,1,0,0:0:0:0:
352,96,207841,1,8,0:0:0:0:
352,96,207926,1,8,0:0:0:0:
160,96,208012,1,0,0:0:0:0:
160,96,208097,1,0,0:0:0:0:
352,96,208182,1,8,0:0:0:0:
160,96,208267,1,0,0:0:0:0:
352,96,208353,1,8,0:0:0:0:
160,96,208438,1,0,0:0:0:0:
352,96,208523,1,8,0:0:0:0:
352,96,208608,1,8,0:0:0:0:
160,96,208693,1,0,0:0:0:0:
160,96,208779,1,0,0:0:0:0:
352,96,208864,1,8,0:0:0:0:
352,96,208949,1,8,0:0:0:0:
160,96,209034,1,0,0:0:0:0:
352,96,209120,1,8,0:0:0:0:
160,96,209205,1,0,0:0:0:0:
160,96,209290,1,0,0:0:0:0:
352,96,209375,1,8,0:0:0:0:
160,96,209460,1,0,0:0:0:0:
352,96,209546,1,8,0:0:0:0:
160,96,209631,1,0,0:0:0:0:
352,96,209716,1,8,0:0:0:0:
352,96,209801,1,8,0:0:0:0:
160,96,209887,1,0,0:0:0:0:
352,96,209972,1,8,0:0:0:0:
160,288,210057,1,4,0:0:0:0:
160,96,210228,1,0,0:0:0:0:
352,96,210398,1,8,0:0:0:0:
160,96,210568,1,0,0:0:0:0:
352,96,210654,1,8,0:0:0:0:
160,96,210739,1,0,0:0:0:0:
160,96,210909,1,0,0:0:0:0:
160,96,210995,1,0,0:0:0:0:
352,96,211080,1,8,0:0:0:0:
352,96,211250,1,8,0:0:0:0:
160,96,211421,1,0,0:0:0:0:
352,96,211591,1,8,0:0:0:0:
352,96,211762,1,8,0:0:0:0:
160,96,211932,1,0,0:0:0:0:
352,96,212017,1,8,0:0:0:0:
160,96,212103,1,0,0:0:0:0:
160,96,212273,1,8,0:0:0:0:
160,96,212358,1,8,0:0:0:0:
352,96,212443,1,0,0:0:0:0:
352,96,212614,1,8,0:0:0:0:
160,96,212784,1,0,0:0:0:0:
160,96,212955,1,0,0:0:0:0:
352,96,213125,1,8,0:0:0:0:
352,96,213296,1,0,0:0:0:0:
352,96,213381,1,0,0:0:0:0:
160,96,213466,1,8,0:0:0:0:
160,96,213637,1,8,0:0:0:0:
160,96,213722,1,8,0:0:0:0:
352,96,213807,1,0,0:0:0:0:
352,288,213978,1,12,0:0:0:0:
160,96,214148,1,0,0:0:0:0:
352,96,214318,1,8,0:0:0:0:
352,96,214489,1,8,0:0:0:0:
160,96,214659,1,0,0:0:0:0:
352,96,214745,1,8,0:0:0:0:
160,96,214830,1,0,0:0:0:0:
352,96,215000,1,8,0:0:0:0:
352,96,215085,1,8,0:0:0:0:
160,96,215171,1,0,0:0:0:0:
352,96,215341,1,8,0:0:0:0:
160,288,215512,1,4,0:0:0:0:
160,96,215682,1,0,0:0:0:0:
352,96,215853,1,8,0:0:0:0:
160,96,216023,1,0,0:0:0:0:
160,96,216108,1,0,0:0:0:0:
352,96,216193,1,8,0:0:0:0:
352,96,216364,1,8,0:0:0:0:
160,96,216534,1,0,0:0:0:0:
352,96,216705,1,8,0:0:0:0:
160,96,216875,1,0,0:0:0:0:
160,96,217046,1,0,0:0:0:0:
352,96,217216,1,8,0:0:0:0:
160,96,217387,1,0,0:0:0:0:
352,96,217472,1,8,0:0:0:0:
160,96,217557,1,0,0:0:0:0:
352,96,217728,1,8,0:0:0:0:
352,96,217898,1,8,0:0:0:0:
352,96,218068,1,0,0:0:0:0:
160,96,218154,1,0,0:0:0:0:
352,288,218239,1,12,0:0:0:0:
160,96,218409,1,0,0:0:0:0:
352,96,218580,1,8,0:0:0:0:
160,96,218750,1,0,0:0:0:0:
160,96,218835,1,0,0:0:0:0:
352,96,218921,1,8,0:0:0:0:
352,96,219091,1,8,0:0:0:0:
160,96,219262,1,0,0:0:0:0:
352,288,219432,1,12,0:0:0:0:
160,96,219773,1,0,0:0:0:0:
160,96,219858,1,0,0:0:0:0:
352,96,219943,1,8,0:0:0:0:
352,96,220029,1,8,0:0:0:0:
160,96,220114,1,0,0:0:0:0:
160,96,220199,1,0,0:0:0:0:
352,96,220284,1,8,0:0:0:0:
160,96,220370,1,0,0:0:0:0:
352,96,220455,1,8,0:0:0:0:
352,96,220625,1,8,0:0:0:0:
352,96,220796,1,8,0:0:0:0:
352,96,220881,1,8,0:0:0:0:
160,288,220966,5,4,0:0:0:0:
352,96,221307,1,8,0:0:0:0:
160,96,221478,1,0,0:0:0:0:
352,96,221648,1,8,0:0:0:0:
352,96,221989,1,8,0:0:0:0:
160,96,222159,1,0,0:0:0:0:
352,96,222330,1,8,0:0:0:0:
352,96,222500,1,8,0:0:0:0:
160,96,222671,1,0,0:0:0:0:
160,96,222841,1,0,0:0:0:0:
352,96,223012,1,8,0:0:0:0:
160,96,223353,1,0,0:0:0:0:
160,288,223693,1,4,0:0:0:0:
352,96,224034,1,8,0:0:0:0:
160,96,224205,1,0,0:0:0:0:
352,96,224375,1,8,0:0:0:0:
352,96,224716,1,8,0:0:0:0:
160,96,224887,1,0,0:0:0:0:
352,96,225057,1,8,0:0:0:0:
352,96,225228,1,8,0:0:0:0:
352,96,225398,1,8,0:0:0:0:
160,96,225568,1,0,0:0:0:0:
352,96,225739,1,8,0:0:0:0:
160,96,226080,1,0,0:0:0:0:
352,288,226421,1,12,0:0:0:0:
352,96,226762,1,8,0:0:0:0:
160,96,226932,1,0,0:0:0:0:
352,96,227103,1,8,0:0:0:0:
352,96,227443,1,8,0:0:0:0:
160,96,227614,1,0,0:0:0:0:
352,96,227784,1,8,0:0:0:0:
352,96,227955,1,8,0:0:0:0:
160,96,228125,1,0,0:0:0:0:
160,96,228296,1,0,0:0:0:0:
352,96,228466,1,8,0:0:0:0:
160,96,228807,1,0,0:0:0:0:
160,288,229148,1,4,0:0:0:0:
352,96,229489,1,8,0:0:0:0:
160,96,229659,1,0,0:0:0:0:
352,96,229830,1,8,0:0:0:0:
352,96,230171,1,8,0:0:0:0:
160,96,230341,1,0,0:0:0:0:
352,96,230512,1,8,0:0:0:0:
352,96,230682,1,8,0:0:0:0:
160,96,230853,1,0,0:0:0:0:
160,96,231023,1,0,0:0:0:0:
352,96,231193,1,8,0:0:0:0:
160,96,231534,1,0,0:0:0:0:
352,288,231875,1,12,0:0:0:0:
352,96,232216,1,8,0:0:0:0:
160,96,232387,1,0,0:0:0:0:
352,96,232557,1,8,0:0:0:0:
352,96,232898,1,8,0:0:0:0:
160,96,233068,1,0,0:0:0:0:
352,96,233239,1,8,0:0:0:0:
160,96,233409,1,0,0:0:0:0:
160,96,233580,1,0,0:0:0:0:
160,96,233750,1,0,0:0:0:0:
352,96,233921,1,8,0:0:0:0:
160,96,234262,1,0,0:0:0:0:
352,288,234603,1,12,0:0:0:0:
352,96,234943,1,8,0:0:0:0:
160,96,235114,1,0,0:0:0:0:
352,96,235284,1,8,0:0:0:0:
160,96,235625,1,0,0:0:0:0:
352,288,235796,1,12,0:0:0:0:
352,96,236137,1,8,0:0:0:0:
160,96,236307,1,0,0:0:0:0:
352,96,236478,1,8,0:0:0:0:
352,96,236648,1,8,0:0:0:0:
160,96,236818,1,0,0:0:0:0:
160,96,236904,1,0,0:0:0:0:
352,96,236989,1,8,0:0:0:0:
352,96,237074,1,8,0:0:0:0:
160,96,237159,1,0,0:0:0:0:
160,96,237245,1,0,0:0:0:0:
352,288,237330,5,12,0:0:0:0:
160,96,237500,1,0,0:0:0:0:
352,96,237671,1,8,0:0:0:0:
352,96,237841,1,0,0:0:0:0:
160,96,237926,1,0,0:0:0:0:
352,96,238012,1,8,0:0:0:0:
160,96,238182,1,0,0:0:0:0:
160,96,238353,1,8,0:0:0:0:
352,96,238523,1,8,0:0:0:0:
160,96,238864,1,0,0:0:0:0:
352,96,239034,1,8,0:0:0:0:
160,96,239205,1,0,0:0:0:0:
352,96,239290,1,8,0:0:0:0:
160,96,239375,1,0,0:0:0:0:
160,96,239546,1,8,0:0:0:0:
352,96,239631,1,8,0:0:0:0:
352,96,239716,1,0,0:0:0:0:
160,96,239887,1,0,0:0:0:0:
352,288,240057,1,12,0:0:0:0:
160,96,240228,1,0,0:0:0:0:
352,96,240398,1,8,0:0:0:0:
160,96,240568,1,0,0:0:0:0:
352,96,240654,1,8,0:0:0:0:
352,96,240739,1,8,0:0:0:0:
160,96,240909,1,8,0:0:0:0:
352,96,241080,1,0,0:0:0:0:
352,288,241250,1,12,0:0:0:0:
160,96,241591,1,0,0:0:0:0:
352,96,241762,1,8,0:0:0:0:
160,96,241932,1,0,0:0:0:0:
352,96,242017,1,8,0:0:0:0:
160,96,242103,1,0,0:0:0:0:
352,96,242273,1,8,0:0:0:0:
352,96,242358,1,8,0:0:0:0:
352,96,242443,1,0,0:0:0:0:
160,96,242614,1,0,0:0:0:0:
352,288,242784,1,12,0:0:0:0:
352,96,243125,1,8,0:0:0:0:
160,96,243296,1,0,0:0:0:0:
352,96,243466,1,8,0:0:0:0:
160,96,243637,1,0,0:0:0:0:
160,96,243722,1,0,0:0:0:0:
160,96,243807,1,0,0:0:0:0:
352,96,243978,1,8,0:0:0:0:
160,96,244318,1,0,0:0:0:0:
352,96,244489,1,8,0:0:0:0:
160,96,244659,1,0,0:0:0:0:
352,96,244745,1,8,0:0:0:0:
160,96,244830,1,0,0:0:0:0:
352,96,245000,1,8,0:0:0:0:
352,96,245085,1,8,0:0:0:0:
160,96,245171,1,0,0:0:0:0:
352,96,245341,1,0,0:0:0:0:
352,288,245512,1,12,0:0:0:0:
160,96,245682,1,0,0:0:0:0:
352,96,245853,1,8,0:0:0:0:
160,96,246023,1,0,0:0:0:0:
352,96,246108,1,8,0:0:0:0:
160,96,246193,1,0,0:0:0:0:
352,96,246364,1,8,0:0:0:0:
352,96,246449,1,8,0:0:0:0:
160,96,246534,1,0,0:0:0:0:
352,288,246705,1,12,0:0:0:0:
160,96,247046,1,0,0:0:0:0:
352,96,247216,1,8,0:0:0:0:
160,96,247387,1,0,0:0:0:0:
160,96,247557,1,0,0:0:0:0:
352,96,247728,1,8,0:0:0:0:
160,96,247813,1,0,0:0:0:0:
352,96,247898,1,8,0:0:0:0:
160,96,247983,1,0,0:0:0:0:
352,96,248068,1,8,0:0:0:0:
352,96,248154,1,8,0:0:0:0:
160,288,248239,1,4,0:0:0:0:
160,96,248409,1,0,0:0:0:0:
160,96,248495,1,0,0:0:0:0:
352,96,248580,1,8,0:0:0:0:
160,96,248750,1,0,0:0:0:0:
160,96,248921,1,0,0:0:0:0:
352,96,249262,1,8,0:0:0:0:
352,96,249432,1,8,0:0:0:0:
352,96,249517,1,8,0:0:0:0:
160,96,249603,1,0,0:0:0:0:
160,96,249773,1,0,0:0:0:0:
352,96,249943,1,8,0:0:0:0:
160,96,250114,1,0,0:0:0:0:
352,96,250199,1,8,0:0:0:0:
160,96,250284,1,0,0:0:0:0:
352,96,250455,1,8,0:0:0:0:
160,96,250625,1,8,0:0:0:0:
160,96,250796,1,0,0:0:0:0:
160,96,250881,1,0,0:0:0:0:
352,288,250966,1,12,0:0:0:0:
160,96,251137,1,0,0:0:0:0:
352,96,251307,1,8,0:0:0:0:
160,96,251478,1,0,0:0:0:0:
352,96,251563,1,0,0:0:0:0:
160,96,251648,1,8,0:0:0:0:
160,96,251818,1,8,0:0:0:0:
352,96,251989,1,0,0:0:0:0:
352,288,252159,1,12,0:0:0:0:
352,96,252500,1,8,0:0:0:0:
160,96,252671,1,0,0:0:0:0:
352,96,252841,1,8,0:0:0:0:
352,96,253012,1,8,0:0:0:0:
160,96,253182,1,0,0:0:0:0:
160,96,253267,1,0,0:0:0:0:
352,96,253353,1,8,0:0:0:0:
352,96,253438,1,8,0:0:0:0:
160,96,253523,1,0,0:0:0:0:
352,96,253608,1,8,0:0:0:0:
160,288,253693,1,4,0:0:0:0:
160,96,253864,1,0,0:0:0:0:
160,96,253949,1,0,0:0:0:0:
352,96,254034,1,8,0:0:0:0:
160,96,254205,1,0,0:0:0:0:
160,96,254375,1,0,0:0:0:0:
352,96,254716,1,8,0:0:0:0:
352,96,254887,1,8,0:0:0:0:
352,96,254972,1,8,0:0:0:0:
160,96,255057,1,0,0:0:0:0:
160,96,255228,1,0,0:0:0:0:
352,96,255398,1,8,0:0:0:0:
160,96,255568,1,0,0:0:0:0:
352,96,255654,1,8,0:0:0:0:
160,96,255739,1,0,0:0:0:0:
352,96,255909,1,8,0:0:0:0:
352,96,256080,1,8,0:0:0:0:
160,96,256250,1,0,0:0:0:0:
160,96,256335,1,0,0:0:0:0:
352,288,256421,1,12,0:0:0:0:
160,96,256591,1,0,0:0:0:0:
352,96,256762,1,8,0:0:0:0:
352,96,256932,1,8,0:0:0:0:
352,96,257017,1,8,0:0:0:0:
160,96,257103,1,0,0:0:0:0:
160,96,257273,1,0,0:0:0:0:
352,96,257443,1,8,0:0:0:0:
352,288,257614,1,12,0:0:0:0:
352,96,257955,1,8,0:0:0:0:
160,96,258125,1,0,0:0:0:0:
352,96,258296,1,8,0:0:0:0:
352,96,258466,1,8,0:0:0:0:
352,96,258637,1,8,0:0:0:0:
160,96,258722,1,0,0:0:0:0:
352,96,258807,1,8,0:0:0:0:
352,96,258892,1,8,0:0:0:0:
160,96,258978,1,0,0:0:0:0:
160,96,259063,1,0,0:0:0:0:
352,288,259148,1,12,0:0:0:0:
256,192,259318,12,0,261023,0:0:0:0:
160,96,261364,5,0,0:0:0:0:
352,96,261534,1,8,0:0:0:0:
352,96,261705,1,8,0:0:0:0:
160,96,261875,1,0,0:0:0:0:
352,96,262216,1,8,0:0:0:0:
160,96,262387,1,0,0:0:0:0:
160,96,262728,1,0,0:0:0:0:
160,96,262898,1,0,0:0:0:0:
352,96,262983,1,8,0:0:0:0:
160,96,263068,1,0,0:0:0:0:
352,96,263409,1,8,0:0:0:0:
160,96,263750,1,0,0:0:0:0:
160,96,263835,1,0,0:0:0:0:
352,96,263921,1,8,0:0:0:0:
352,96,264091,1,8,0:0:0:0:
160,96,264262,1,0,0:0:0:0:
160,96,264432,1,0,0:0:0:0:
160,96,264603,1,0,0:0:0:0:
352,96,264943,1,8,0:0:0:0:
160,96,265114,1,0,0:0:0:0:
160,96,265455,1,0,0:0:0:0:
352,96,265625,1,8,0:0:0:0:
160,96,265796,1,0,0:0:0:0:
352,96,266137,1,8,0:0:0:0:
160,96,266307,1,0,0:0:0:0:
352,96,266478,1,0,0:0:0:0:
160,96,266563,1,0,0:0:0:0:
352,96,266648,1,8,0:0:0:0:
160,96,266818,1,0,0:0:0:0:
352,96,266989,1,8,0:0:0:0:
352,96,267159,1,8,0:0:0:0:
352,96,267245,1,8,0:0:0:0:
160,96,267330,1,0,0:0:0:0:
160,96,267500,1,0,0:0:0:0:
352,96,267671,1,8,0:0:0:0:
160,96,267841,1,0,0:0:0:0:
160,96,268012,1,0,0:0:0:0:
160,96,268182,1,0,0:0:0:0:
352,96,268353,1,8,0:0:0:0:
352,96,268523,1,8,0:0:0:0:
352,96,268693,1,8,0:0:0:0:
160,96,268807,1,0,0:0:0:0:
160,96,268921,1,0,0:0:0:0:
352,96,269034,1,8,0:0:0:0:
160,96,269148,1,0,0:0:0:0:
352,96,269262,1,8,0:0:0:0:
352,96,269375,1,8,0:0:0:0:
160,96,269489,1,0,0:0:0:0:
160,96,269603,1,0,0:0:0:0:
352,96,269716,1,8,0:0:0:0:
160,96,269830,1,0,0:0:0:0:
160,96,269943,1,0,0:0:0:0:
352,288,270057,1,12,0:0:0:0:
160,96,270228,1,0,0:0:0:0:
160,96,270313,1,0,0:0:0:0:
352,96,270398,1,8,0:0:0:0:
160,96,270568,1,0,0:0:0:0:
352,96,270739,1,8,0:0:0:0:
160,96,270909,1,8,0:0:0:0:
160,96,270995,1,8,0:0:0:0:
160,96,271080,1,0,0:0:0:0:
352,96,271250,1,8,0:0:0:0:
352,96,271421,1,8,0:0:0:0:
160,96,271591,1,0,0:0:0:0:
352,96,271762,1,8,0:0:0:0:
352,96,271932,1,0,0:0:0:0:
352,96,272017,1,0,0:0:0:0:
160,96,272103,1,8,0:0:0:0:
160,96,272273,1,8,0:0:0:0:
160,96,272358,1,8,0:0:0:0:
352,96,272443,1,0,0:0:0:0:
160,96,272614,1,8,0:0:0:0:
160,288,272784,1,4,0:0:0:0:
160,96,272955,1,0,0:0:0:0:
352,96,273125,1,8,0:0:0:0:
352,96,273296,1,0,0:0:0:0:
160,96,273637,1,0,0:0:0:0:
160,96,273722,1,0,0:0:0:0:
352,96,273807,1,8,0:0:0:0:
352,96,273978,1,0,0:0:0:0:
160,96,274148,1,8,0:0:0:0:
352,96,274318,1,0,0:0:0:0:
352,96,274489,1,8,0:0:0:0:
160,96,274659,1,8,0:0:0:0:
160,96,274745,1,8,0:0:0:0:
160,96,274830,1,0,0:0:0:0:
352,96,275000,1,0,0:0:0:0:
352,96,275085,1,0,0:0:0:0:
160,96,275171,1,8,0:0:0:0:
160,96,275341,1,0,0:0:0:0:
160,96,275426,1,0,0:0:0:0:
352,96,275512,1,8,0:0:0:0:
160,96,275597,1,0,0:0:0:0:
160,96,275682,1,0,0:0:0:0:
160,96,275767,1,0,0:0:0:0:
352,96,275853,1,8,0:0:0:0:
160,96,275938,1,0,0:0:0:0:
352,96,276023,1,8,0:0:0:0:
160,96,276108,1,0,0:0:0:0:
352,96,276193,1,8,0:0:0:0:
160,96,276279,1,0,0:0:0:0:
160,96,276364,1,0,0:0:0:0:
352,96,276449,1,8,0:0:0:0:
160,96,276534,1,0,0:0:0:0:
160,96,276620,1,0,0:0:0:0:
352,96,276705,1,8,0:0:0:0:
160,96,276790,1,0,0:0:0:0:
352,96,276875,1,8,0:0:0:0:
352,96,276960,1,8,0:0:0:0:
160,96,277046,1,0,0:0:0:0:
352,96,277131,1,8,0:0:0:0:
352,96,277216,1,8,0:0:0:0:
160,96,277301,1,0,0:0:0:0:
352,96,277387,1,8,0:0:0:0:
160,96,277472,1,0,0:0:0:0:
352,96,277557,1,8,0:0:0:0:
160,96,277642,1,0,0:0:0:0:
352,96,277728,1,8,0:0:0:0:
352,96,277813,1,8,0:0:0:0:
160,96,277898,1,0,0:0:0:0:
352,96,277983,1,8,0:0:0:0:
160,96,278068,1,0,0:0:0:0:
160,96,278154,1,0,0:0:0:0:
352,96,278239,1,8,0:0:0:0:
352,96,278324,1,8,0:0:0:0:
160,96,278409,1,0,0:0:0:0:
352,96,278495,1,8,0:0:0:0:
160,96,278580,1,0,0:0:0:0:
160,96,278665,1,0,0:0:0:0:
352,96,278750,1,8,0:0:0:0:
352,96,278835,1,8,0:0:0:0:
160,96,278921,1,0,0:0:0:0:
352,96,279006,1,8,0:0:0:0:
160,96,279091,1,0,0:0:0:0:
160,96,279176,1,0,0:0:0:0:
352,96,279262,1,8,0:0:0:0:
160,96,279347,1,0,0:0:0:0:
352,96,279432,1,8,0:0:0:0:
352,96,279517,1,8,0:0:0:0:
160,96,279603,1,0,0:0:0:0:
160,96,279688,1,0,0:0:0:0:
352,96,279773,1,8,0:0:0:0:
160,96,279858,1,0,0:0:0:0:
352,96,279943,1,8,0:0:0:0:
160,96,280029,1,0,0:0:0:0:
352,96,280114,1,8,0:0:0:0:
160,96,280199,1,0,0:0:0:0:
352,96,280284,1,8,0:0:0:0:
352,96,280370,1,8,0:0:0:0:
160,96,280455,1,0,0:0:0:0:
352,96,280540,1,8,0:0:0:0:
352,96,280625,1,8,0:0:0:0:
352,96,280710,1,8,0:0:0:0:
160,96,280796,1,0,0:0:0:0:
160,96,280881,1,0,0:0:0:0:
352,288,280966,5,12,0:0:0:0:
352,96,281307,1,8,0:0:0:0:
160,96,281478,1,0,0:0:0:0:
160,96,281563,1,0,0:0:0:0:
352,96,281648,1,0,0:0:0:0:
160,96,281818,1,0,0:0:0:0:
352,96,281989,1,8,0:0:0:0:
352,96,282159,1,8,0:0:0:0:
352,96,282245,1,8,0:0:0:0:
160,96,282330,1,0,0:0:0:0:
160,96,282500,1,0,0:0:0:0:
352,96,282671,1,8,0:0:0:0:
352,96,282841,1,8,0:0:0:0:
352,96,282926,1,8,0:0:0:0:
160,96,283012,1,8,0:0:0:0:
352,96,283182,1,0,0:0:0:0:
160,96,283353,1,8,0:0:0:0:
352,96,283523,1,8,0:0:0:0:
352,96,283608,1,8,0:0:0:0:
160,96,283693,1,0,0:0:0:0:
352,96,283864,1,8,0:0:0:0:
352,96,284034,1,8,0:0:0:0:
160,96,284205,1,0,0:0:0:0:
160,96,284290,1,0,0:0:0:0:
352,96,284375,1,8,0:0:0:0:
352,96,284546,1,8,0:0:0:0:
160,96,284716,1,0,0:0:0:0:
352,96,284887,1,8,0:0:0:0:
160,96,285057,1,0,0:0:0:0:
352,96,285228,1,8,0:0:0:0:
352,96,285313,1,8,0:0:0:0:
160,96,285398,1,0,0:0:0:0:
352,96,285568,1,8,0:0:0:0:
160,96,285739,1,0,0:0:0:0:
352,96,285909,1,8,0:0:0:0:
352,96,285995,1,8,0:0:0:0:
160,96,286080,1,0,0:0:0:0:
352,96,286250,1,8,0:0:0:0:
352,288,286421,1,12,0:0:0:0:
352,96,286762,1,8,0:0:0:0:
160,96,286932,1,0,0:0:0:0:
160,96,287017,1,0,0:0:0:0:
352,96,287103,1,8,0:0:0:0:
352,96,287273,1,8,0:0:0:0:
352,96,287358,1,8,0:0:0:0:
160,96,287443,1,0,0:0:0:0:
352,96,287614,1,8,0:0:0:0:
160,96,287784,1,0,0:0:0:0:
352,96,287955,1,8,0:0:0:0:
352,96,288040,1,8,0:0:0:0:
160,96,288125,1,0,0:0:0:0:
352,96,288296,1,8,0:0:0:0:
160,96,288466,1,0,0:0:0:0:
352,96,288637,1,8,0:0:0:0:
352,96,288722,1,0,0:0:0:0:
160,96,288807,1,8,0:0:0:0:
160,96,288978,1,0,0:0:0:0:
160,96,289063,1,0,0:0:0:0:
352,96,289148,1,8,0:0:0:0:
160,96,289233,1,0,0:0:0:0:
352,96,289318,1,8,0:0:0:0:
352,96,289404,1,8,0:0:0:0:
352,96,289489,1,8,0:0:0:0:
160,96,289574,1,0,0:0:0:0:
352,96,289659,1,8,0:0:0:0:
160,96,289745,1,0,0:0:0:0:
352,96,289830,1,8,0:0:0:0:
352,96,289915,1,8,0:0:0:0:
160,96,290000,1,0,0:0:0:0:
352,96,290085,1,8,0:0:0:0:
352,96,290171,1,8,0:0:0:0:
160,96,290256,1,0,0:0:0:0:
352,96,290341,1,8,0:0:0:0:
160,96,290426,1,0,0:0:0:0:
352,96,290512,1,8,0:0:0:0:
160,96,290597,1,0,0:0:0:0:
160,96,290682,1,0,0:0:0:0:
160,96,290767,1,0,0:0:0:0:
352,96,290853,1,8,0:0:0:0:
352,96,290938,1,8,0:0:0:0:
160,96,291023,1,0,0:0:0:0:
160,96,291108,1,0,0:0:0:0:
352,96,291193,1,8,0:0:0:0:
352,96,291279,1,8,0:0:0:0:
160,96,291364,1,0,0:0:0:0:
160,96,291449,1,0,0:0:0:0:
352,96,291534,1,8,0:0:0:0:
160,96,291620,1,0,0:0:0:0:
352,96,291705,1,8,0:0:0:0:
352,96,291875,5,8,0:0:0:0:
160,96,291960,1,0,0:0:0:0:
352,96,292046,1,8,0:0:0:0:
352,96,292131,1,8,0:0:0:0:
160,96,292216,1,0,0:0:0:0:
160,96,292301,1,0,0:0:0:0:
352,96,292387,1,8,0:0:0:0:
160,96,292472,1,0,0:0:0:0:
352,96,292557,1,8,0:0:0:0:
352,96,292642,1,8,0:0:0:0:
160,96,292728,1,0,0:0:0:0:
160,96,292813,1,0,0:0:0:0:
352,96,292898,1,8,0:0:0:0:
160,96,292983,1,0,0:0:0:0:
352,96,293068,1,8,0:0:0:0:
352,96,293154,1,8,0:0:0:0:
160,96,293239,1,0,0:0:0:0:
160,96,293324,1,0,0:0:0:0:
352,96,293409,1,8,0:0:0:0:
160,96,293495,1,0,0:0:0:0:
352,96,293580,1,8,0:0:0:0:
352,96,293665,1,8,0:0:0:0:
160,96,293750,1,0,0:0:0:0:
160,96,293835,1,0,0:0:0:0:
352,96,293921,1,8,0:0:0:0:
160,96,294006,1,0,0:0:0:0:
352,96,294091,1,8,0:0:0:0:
352,96,294176,1,8,0:0:0:0:
160,96,294262,1,0,0:0:0:0:
160,96,294347,1,0,0:0:0:0:
352,96,294432,1,8,0:0:0:0:
160,96,294517,1,0,0:0:0:0:
352,96,294603,1,8,0:0:0:0:
160,96,294688,1,0,0:0:0:0:
352,96,294773,1,8,0:0:0:0:
352,96,294858,1,8,0:0:0:0:
160,96,294943,1,0,0:0:0:0:
160,96,295029,1,0,0:0:0:0:
352,96,295114,1,8,0:0:0:0:
160,96,295199,1,0,0:0:0:0:
352,96,295284,1,8,0:0:0:0:
352,96,295370,1,8,0:0:0:0:
160,96,295455,1,0,0:0:0:0:
160,96,295540,1,0,0:0:0:0:
352,96,295625,1,8,0:0:0:0:
160,96,295710,1,0,0:0:0:0:
352,96,295796,1,8,0:0:0:0:
352,96,295881,1,8,0:0:0:0:
160,96,295966,1,0,0:0:0:0:
160,96,296051,1,0,0:0:0:0:
352,96,296137,1,8,0:0:0:0:
160,96,296222,1,0,0:0:0:0:
352,96,296307,1,8,0:0:0:0:
352,96,296392,1,8,0:0:0:0:
352,96,296478,1,8,0:0:0:0:
160,96,296563,1,0,0:0:0:0:
352,96,296648,1,8,0:0:0:0:
160,96,296733,1,0,0:0:0:0:
352,96,296818,1,8,0:0:0:0:
352,96,296904,1,8,0:0:0:0:
160,96,296989,1,0,0:0:0:0:
352,96,297074,1,8,0:0:0:0:
160,96,297159,1,0,0:0:0:0:
160,96,297245,1,0,0:0:0:0:
352,288,297330,1,12,0:0:0:0:
160,96,297500,1,0,0:0:0:0:
160,96,297585,1,0,0:0:0:0:
352,96,297671,1,8,0:0:0:0:
352,96,297841,1,8,0:0:0:0:
160,96,297926,1,0,0:0:0:0:
352,96,298012,1,8,0:0:0:0:
160,96,298182,1,0,0:0:0:0:
352,96,298267,1,8,0:0:0:0:
352,96,298353,1,8,0:0:0:0:
160,96,298523,1,0,0:0:0:0:
160,96,298608,1,0,0:0:0:0:
352,96,298693,1,8,0:0:0:0:
352,96,298864,1,8,0:0:0:0:
160,96,298949,1,0,0:0:0:0:
352,96,299034,1,8,0:0:0:0:
160,96,299205,1,0,0:0:0:0:
352,96,299290,1,8,0:0:0:0:
352,96,299375,1,8,0:0:0:0:
352,96,299546,1,8,0:0:0:0:
160,96,299631,1,0,0:0:0:0:
352,96,299716,1,8,0:0:0:0:
352,96,299801,1,8,0:0:0:0:
160,96,299887,1,0,0:0:0:0:
160,96,299972,1,0,0:0:0:0:
352,288,300057,1,12,0:0:0:0:
160,96,300398,1,0,0:0:0:0:
160,96,300568,1,0,0:0:0:0:
160,96,300654,1,0,0:0:0:0:
352,96,300739,1,8,0:0:0:0:
160,96,300909,1,0,0:0:0:0:
352,96,301080,1,8,0:0:0:0:
352,96,301165,1,8,0:0:0:0:
160,96,301250,1,0,0:0:0:0:
160,96,301335,1,0,0:0:0:0:
352,288,301421,1,12,0:0:0:0:
160,96,301591,1,0,0:0:0:0:
160,96,301762,1,0,0:0:0:0:
352,96,301932,1,8,0:0:0:0:
352,96,302017,1,8,0:0:0:0:
160,96,302103,1,0,0:0:0:0:
160,96,302273,1,0,0:0:0:0:
352,96,302443,1,8,0:0:0:0:
160,96,302614,1,0,0:0:0:0:
352,288,302784,1,12,0:0:0:0:
256,192,302955,12,0,304489,0:0:0:0:
352,96,304830,5,8,0:0:0:0:
160,288,305341,1,4,0:0:0:0:
352,96,305682,1,8,0:0:0:0:
160,96,305853,1,0,0:0:0:0:
352,96,306023,1,8,0:0:0:0:
352,96,306108,1,8,0:0:0:0:
352,96,306193,1,8,0:0:0:0:
160,96,306364,1,0,0:0:0:0:
352,96,306534,1,8,0:0:0:0:
160,96,306705,1,0,0:0:0:0:
352,96,307046,1,8,0:0:0:0:
160,96,307216,1,0,0:0:0:0:
160,96,307387,1,0,0:0:0:0:
160,96,307472,1,0,0:0:0:0:
352,96,307557,1,8,0:0:0:0:
352,96,307728,1,8,0:0:0:0:
160,96,307898,1,0,0:0:0:0:
160,288,308239,1,4,0:0:0:0:
160,96,308580,1,0,0:0:0:0:
160,96,308750,1,0,0:0:0:0:
160,96,308835,1,0,0:0:0:0:
352,96,308921,1,8,0:0:0:0:
160,96,309091,1,0,0:0:0:0:
352,96,309262,1,8,0:0:0:0:
160,96,309432,1,0,0:0:0:0:
352,96,309773,1,8,0:0:0:0:
160,96,309943,1,0,0:0:0:0:
160,96,310114,1,0,0:0:0:0:
160,96,310199,1,0,0:0:0:0:
352,96,310284,1,8,0:0:0:0:
352,96,310455,1,8,0:0:0:0:
160,96,310625,1,0,0:0:0:0:
352,288,310796,1,12,0:0:0:0:
160,96,310966,1,0,0:0:0:0:
352,96,311137,1,8,0:0:0:0:
160,96,311222,1,0,0:0:0:0:
352,96,311307,1,8,0:0:0:0:
352,96,311478,1,8,0:0:0:0:
160,96,311648,1,0,0:0:0:0:
160,96,311818,1,0,0:0:0:0:
160,96,311904,1,0,0:0:0:0:
352,96,311989,1,8,0:0:0:0:
352,288,312159,1,12,0:0:0:0:
160,96,312330,1,8,0:0:0:0:
160,96,312415,1,0,0:0:0:0:
352,96,312500,1,8,0:0:0:0:
352,96,312585,1,8,0:0:0:0:
160,96,312671,1,0,0:0:0:0:
352,96,312756,1,0,0:0:0:0:
352,96,312841,1,8,0:0:0:0:
352,96,312926,1,8,0:0:0:0:
352,96,313012,1,0,0:0:0:0:
160,96,313097,1,8,0:0:0:0:
352,96,313182,1,0,0:0:0:0:
352,96,313267,1,0,0:0:0:0:
160,96,313353,1,8,0:0:0:0:
352,96,313438,1,8,0:0:0:0:
160,96,313523,1,0,0:0:0:0:
160,96,313608,1,0,0:0:0:0:
352,288,313693,1,12,0:0:0:0:
352,96,314034,1,8,0:0:0:0:
352,96,314205,1,8,0:0:0:0:
160,96,314290,1,0,0:0:0:0:
160,96,314375,1,0,0:0:0:0:
352,96,314460,1,8,0:0:0:0:
352,96,314546,1,8,0:0:0:0:
160,96,314631,1,0,0:0:0:0:
352,96,314716,1,8,0:0:0:0:
352,96,314801,1,8,0:0:0:0:
160,96,314887,1,0,0:0:0:0:
352,96,315057,1,8,0:0:0:0:
160,96,315228,1,0,0:0:0:0:
160,96,315313,1,0,0:0:0:0:
352,96,315398,1,8,0:0:0:0:
352,96,315568,1,8,0:0:0:0:
160,96,315654,1,0,0:0:0:0:
352,96,315739,1,8,0:0:0:0:
160,96,315909,1,0,0:0:0:0:
160,96,315995,1,0,0:0:0:0:
352,96,316080,1,8,0:0:0:0:
160,288,316250,1,4,0:0:0:0:
352,96,316421,1,8,0:0:0:0:
160,96,316591,1,0,0:0:0:0:
352,96,316762,1,8,0:0:0:0:
352,96,316932,1,8,0:0:0:0:
352,96,317017,1,8,0:0:0:0:
160,96,317103,1,0,0:0:0:0:
160,96,317273,1,0,0:0:0:0:
352,96,317443,1,8,0:0:0:0:
352,288,317614,1,12,0:0:0:0:
160,96,317955,1,0,0:0:0:0:
160,96,318040,1,0,0:0:0:0:
352,96,318125,1,8,0:0:0:0:
160,96,318210,1,0,0:0:0:0:
352,96,318296,1,8,0:0:0:0:
352,96,318381,1,8,0:0:0:0:
160,96,318466,1,0,0:0:0:0:
160,96,318551,1,0,0:0:0:0:
352,96,318637,1,8,0:0:0:0:
160,96,318722,1,0,0:0:0:0:
352,96,318807,1,8,0:0:0:0:
160,96,318978,1,0,0:0:0:0:
160,96,319063,1,0,0:0:0:0:
352,288,319148,1,12,0:0:0:0:
160,96,319324,1,0,0:0:0:0:
160,96,319412,1,0,0:0:0:0:
160,96,319500,1,0,0:0:0:0:
352,96,319677,1,8,0:0:0:0:
160,96,319765,1,0,0:0:0:0:
352,96,319853,1,8,0:0:0:0:
160,96,320030,1,0,0:0:0:0:
352,96,320118,1,8,0:0:0:0:
352,96,320206,1,8,0:0:0:0:
352,96,320383,1,8,0:0:0:0:
160,96,320471,1,0,0:0:0:0:
352,96,320559,1,8,0:0:0:0:
160,96,320744,1,0,0:0:0:0:
160,96,320836,1,0,0:0:0:0:
352,96,320929,1,8,0:0:0:0:
160,96,321114,1,0,0:0:0:0:
352,96,321207,1,8,0:0:0:0:
352,96,321299,1,8,0:0:0:0:
160,96,321484,1,0,0:0:0:0:
160,96,321577,1,0,0:0:0:0:
352,96,321670,1,8,0:0:0:0:
352,96,321855,1,8,0:0:0:0:
160,96,321947,1,0,0:0:0:0:
352,96,322040,1,8,0:0:0:0:
160,96,322240,1,0,0:0:0:0:
352,96,322340,1,8,0:0:0:0:
160,96,322440,1,0,0:0:0:0:
352,96,322640,1,8,0:0:0:0:
352,96,322824,1,8,0:0:0:0:
160,96,322960,1,0,0:0:0:0:
352,96,323097,1,8,0:0:0:0:
352,96,323234,1,8,0:0:0:0:
160,96,323371,1,0,0:0:0:0:
160,96,323508,1,0,0:0:0:0:
352,96,323645,1,8,0:0:0:0:
352,288,323881,1,12,0:0:0:0:
160,288,324322,1,4,0:0:0:0:
352,288,324808,1,12,0:0:0:0:
352,288,325150,1,12,0:0:0:0:
352,288,325544,1,12,0:0:0:0:
160,96,325930,1,0,0:0:0:0:
352,288,326123,1,12,0:0:0:0:
256,192,326373,12,0,329623,0:0:0:0:
352,96,330123,5,8,0:0:0:0:
160,96,330373,1,0,0:0:0:0:
352,96,330623,1,8,0:0:0:0:
352,96,330873,1,8,0:0:0:0:
352,96,331123,1,8,0:0:0:0:
160,96,331373,1,0,0:0:0:0:
352,96,331623,1,8,0:0:0:0:
160,96,331873,1,0,0:0:0:0:
352,96,332123,1,8,0:0:0:0:
352,96,332373,1,8,0:0:0:0:
352,96,332623,1,8,0:0:0:0:
160,96,332873,1,0,0:0:0:0:
352,96,333123,1,8,0:0:0:0:
352,96,333373,1,8,0:0:0:0:
160,96,333623,1,0,0:0:0:0:
352,96,333873,1,8,0:0:0:0:
160,96,334081,1,0,0:0:0:0:
352,96,334123,1,8,0:0:0:0:
160,96,334373,1,0,0:0:0:0:
352,96,334623,1,8,0:0:0:0:
352,96,334873,1,8,0:0:0:0:
352,96,335123,1,8,0:0:0:0:
160,96,335373,1,0,0:0:0:0:
352,96,335623,1,8,0:0:0:0:
160,96,335873,1,0,0:0:0:0:
352,96,336123,1,8,0:0:0:0:
352,96,336373,1,8,0:0:0:0:
352,96,336623,1,8,0:0:0:0:
160,96,336873,1,0,0:0:0:0:
352,96,337123,1,8,0:0:0:0:
352,96,337373,1,8,0:0:0:0:
160,96,337623,1,0,0:0:0:0:
352,96,337873,1,8,0:0:0:0:
352,96,338123,1,8,0:0:0:0:
160,96,338373,1,0,0:0:0:0:
352,96,338623,1,8,0:0:0:0:
352,96,338873,1,8,0:0:0:0:
352,96,339123,1,8,0:0:0:0:
160,96,339373,1,0,0:0:0:0:
352,96,339623,1,8,0:0:0:0:
160,96,339873,1,0,0:0:0:0:
352,96,340123,1,8,0:0:0:0:
352,96,340373,1,8,0:0:0:0:
352,96,340623,1,8,0:0:0:0:
160,96,340873,1,0,0:0:0:0:
352,96,341123,1,8,0:0:0:0:
352,96,341373,1,8,0:0:0:0:
160,96,341623,1,0,0:0:0:0:
352,96,341873,1,8,0:0:0:0:
160,96,342123,1,0,0:0:0:0:
160,96,342373,1,0,0:0:0:0:
160,96,342623,1,0,0:0:0:0:
352,96,342873,1,8,0:0:0:0:
160,96,344123,1,0,0:0:0:0:
160,96,344373,1,0,0:0:0:0:
160,96,344623,1,0,0:0:0:0:
352,96,344831,1,8,0:0:0:0:
160,96,344873,1,0,0:0:0:0:
160,96,345123,1,0,0:0:0:0:
352,96,345373,1,8,0:0:0:0:
352,96,345623,1,8,0:0:0:0:
160,96,345873,1,0,0:0:0:0:
160,96,346123,1,0,0:0:0:0:
160,96,346373,1,0,0:0:0:0:
160,96,346623,1,0,0:0:0:0:
352,96,346873,1,8,0:0:0:0:
160,96,348123,1,0,0:0:0:0:
160,96,348373,1,0,0:0:0:0:
160,96,348623,1,0,0:0:0:0:
160,96,348831,1,0,0:0:0:0:
352,96,348873,1,8,0:0:0:0:
352,96,349123,1,8,0:0:0:0:
352,96,349373,1,8,0:0:0:0:
160,96,349623,1,0,0:0:0:0:
352,96,349873,1,8,0:0:0:0:
160,96,350123,1,0,0:0:0:0:
160,96,350373,1,0,0:0:0:0:
160,96,350623,1,0,0:0:0:0:
352,96,350873,1,8,0:0:0:0:
160,96,352123,1,0,0:0:0:0:
160,96,352373,1,0,0:0:0:0:
160,96,352623,1,0,0:0:0:0:
352,96,352831,1,8,0:0:0:0:
160,96,352873,1,0,0:0:0:0:
160,96,353123,1,0,0:0:0:0:
352,96,353373,1,8,0:0:0:0:
352,96,353623,1,8,0:0:0:0:
160,96,353873,1,0,0:0:0:0:
160,96,354123,1,0,0:0:0:0:
160,96,354373,1,0,0:0:0:0:
160,96,354623,1,0,0:0:0:0:
352,96,354873,1,8,0:0:0:0:
160,96,356123,1,0,0:0:0:0:
160,96,356381,1,0,0:0:0:0:
160,96,356640,1,0,0:0:0:0:
352,96,356898,1,8,0:0:0:0:
160,96,357157,1,0,0:0:0:0:
352,96,357429,1,8,0:0:0:0:
352,96,357702,1,8,0:0:0:0:
160,96,357975,1,0,0:0:0:0:
352,96,358247,1,8,0:0:0:0:
160,96,358521,1,0,0:0:0:0:
352,96,358796,1,8,0:0:0:0:
160,96,359071,1,0,0:0:0:0:
352,96,359345,1,8,0:0:0:0:
160,96,359895,1,0,0:0:0:0:
352,96,360444,1,8,0:0:0:0:
160,96,360716,1,0,0:0:0:0:
160,96,360989,1,0,0:0:0:0:
160,96,361262,1,0,0:0:0:0:
352,96,361535,1,8,0:0:0:0:
352,96,361808,1,8,0:0:0:0:
160,96,362081,1,0,0:0:0:0:
160,96,362354,1,0,0:0:0:0:
160,96,362627,1,0,0:0:0:0:
352,96,362898,1,8,0:0:0:0:
352,96,363169,1,8,0:0:0:0:
160,96,363440,1,0,0:0:0:0:
160,96,363711,1,0,0:0:0:0:
352,96,363982,1,8,0:0:0:0:
352,96,364253,1,8,0:0:0:0:
160,96,364524,1,0,0:0:0:0:
352,96,364795,1,8,0:0:0:0:
160,96,365067,1,0,0:0:0:0:
352,96,365340,1,8,0:0:0:0:
352,96,365613,1,8,0:0:0:0:
352,96,365885,1,8,0:0:0:0:
160,96,366158,1,0,0:0:0:0:
352,96,366431,1,8,0:0:0:0:
160,96,366704,1,0,0:0:0:0:
160,96,366976,1,0,0:0:0:0:
160,96,367249,1,0,0:0:0:0:
352,96,367522,1,8,0:0:0:0:
160,96,367795,1,0,0:0:0:0:
352,96,368067,1,8,0:0:0:0:
160,96,368613,1,0,0:0:0:0:
352,96,369158,1,8,0:0:0:0:
160,96,369431,1,0,0:0:0:0:
160,96,369704,1,0,0:0:0:0:
160,96,369976,1,0,0:0:0:0:
352,96,370249,1,8,0:0:0:0:
352,96,370522,1,8,0:0:0:0:
160,96,370795,1,0,0:0:0:0:
160,96,371067,1,0,0:0:0:0:
352,96,371340,1,8,0:0:0:0:
160,96,371613,1,0,0:0:0:0:
160,96,371885,1,0,0:0:0:0:
352,96,372158,1,8,0:0:0:0:
352,96,372431,1,8,0:0:0:0:
160,96,372704,1,0,0:0:0:0:
352,96,372976,1,8,0:0:0:0:
160,96,373249,1,0,0:0:0:0:
160,96,373522,1,0,0:0:0:0:
160,96,373795,1,0,0:0:0:0:
352,96,374067,1,8,0:0:0:0:
160,96,374340,1,0,0:0:0:0:
352,96,374613,1,8,0:0:0:0:
160,96,374885,1,0,0:0:0:0:
352,96,375158,1,8,0:0:0:0:
352,96,375431,1,8,0:0:0:0:
160,96,375704,1,0,0:0:0:0:
160,96,375976,1,0,0:0:0:0:
352,96,376249,1,8,0:0:0:0:
160,96,376522,1,0,0:0:0:0:
352,96,376795,1,8,0:0:0:0:
160,96,377340,1,0,0:0:0:0:
352,96,377885,1,8,0:0:0:0:
160,96,378158,1,0,0:0:0:0:
160,96,378431,1,0,0:0:0:0:
160,96,378704,1,0,0:0:0:0:
352,96,378976,1,8,0:0:0:0:
160,96,379249,1,0,0:0:0:0:
352,96,379522,1,8,0:0:0:0:
352,96,379795,1,8,0:0:0:0:
352,96,380067,1,8,0:0:0:0:
160,96,380340,1,0,0:0:0:0:
160,96,380613,1,0,0:0:0:0:
352,96,380885,1,8,0:0:0:0:
160,96,381658,1,0,0:0:0:0:
352,96,381704,1,8,0:0:0:0:
352,96,382249,1,8,0:0:0:0:
160,96,382522,1,0,0:0:0:0:
160,96,382795,1,0,0:0:0:0:
352,96,383067,1,8,0:0:0:0:
352,96,383340,1,8,0:0:0:0:
160,96,383613,1,0,0:0:0:0:
352,96,383885,1,8,0:0:0:0:
352,96,384158,1,8,0:0:0:0:
352,96,384431,1,8,0:0:0:0:
160,96,384704,1,0,0:0:0:0:
160,96,384976,1,0,0:0:0:0:
352,96,385249,1,8,0:0:0:0:
352,96,385522,1,8,0:0:0:0:
160,96,385795,1,0,0:0:0:0:
352,96,386067,1,8,0:0:0:0:
160,96,386340,1,0,0:0:0:0:
160,96,386613,1,0,0:0:0:0:
160,96,386885,1,0,0:0:0:0:
352,96,387158,1,8,0:0:0:0:
352,96,387431,1,8,0:0:0:0:
160,96,387704,1,0,0:0:0:0:
352,96,387976,1,8,0:0:0:0:
160,96,388249,1,0,0:0:0:0:
160,96,388522,1,0,0:0:0:0:
160,96,388658,1,0,0:0:0:0:
352,96,388795,1,8,0:0:0:0:
352,96,389076,1,8,0:0:0:0:
160,96,389357,1,0,0:0:0:0:
160,96,389638,1,0,0:0:0:0:
352,96,389919,1,8,0:0:0:0:
160,96,390200,1,0,0:0:0:0:
352,96,390481,1,8,0:0:0:0:
352,96,390799,1,8,0:0:0:0:
160,96,391117,1,0,0:0:0:0:
160,96,391452,1,0,0:0:0:0:
352,96,391787,1,8,0:0:0:0:
160,96,392401,1,0,0:0:0:0:
352,96,392457,1,8,0:0:0:0:
160,96,393248,1,0,0:0:0:0:
352,96,393320,1,8,0:0:0:0:
160,288,394557,5,4,0:0:0:0:
160,96,394857,1,0,0:0:0:0:
352,96,395157,1,8,0:0:0:0:
160,96,395457,1,0,0:0:0:0:
352,96,395757,1,8,0:0:0:0:
160,96,396357,1,0,0:0:0:0:
352,96,396957,1,8,0:0:0:0:
160,96,397557,1,0,0:0:0:0:
160,96,397857,1,0,0:0:0:0:
352,96,398157,1,8,0:0:0:0:
352,96,398457,1,8,0:0:0:0:
160,96,398757,1,0,0:0:0:0:
352,96,399057,1,8,0:0:0:0:
160,96,399357,1,0,0:0:0:0:
352,96,399657,1,8,0:0:0:0:
352,96,399957,1,8,0:0:0:0:
352,96,401157,1,8,0:0:0:0:
352,96,401457,1,8,0:0:0:0:
160,96,401757,1,0,0:0:0:0:
160,96,402357,1,0,0:0:0:0:
352,96,402957,1,8,0:0:0:0:
160,96,403557,1,0,0:0:0:0:
352,96,404157,1,8,0:0:0:0:
352,96,405357,1,8,0:0:0:0:
160,96,405657,1,0,0:0:0:0:
352,96,405957,1,8,0:0:0:0:
352,96,406257,1,8,0:0:0:0:
160,96,406557,1,0,0:0:0:0:
352,96,407157,1,8,0:0:0:0:
352,96,407757,1,8,0:0:0:0:
160,96,408357,1,0,0:0:0:0:
352,96,408957,1,8,0:0:0:0:
352,96,409557,1,8,0:0:0:0:
160,96,410157,1,0,0:0:0:0:
160,96,410757,1,0,0:0:0:0:
352,96,411057,1,8,0:0:0:0:
352,96,411357,1,8,0:0:0:0:
160,96,411957,1,0,0:0:0:0:
160,96,412257,1,0,0:0:0:0:
352,96,412557,1,8,0:0:0:0:
352,96,412857,1,8,0:0:0:0:
160,96,413157,1,0,0:0:0:0:
160,96,413457,1,0,0:0:0:0:
352,288,413757,1,12,0:0:0:0:
160,96,414357,1,0,0:0:0:0:
352,96,414957,1,8,0:0:0:0:
160,96,415557,1,0,0:0:0:0:
352,96,416157,1,8,0:0:0:0:
352,96,417357,1,8,0:0:0:0:
160,96,417657,1,0,0:0:0:0:
352,96,417957,1,8,0:0:0:0:
352,96,418257,1,8,0:0:0:0:
352,96,418557,1,8,0:0:0:0:
160,96,418857,1,0,0:0:0:0:
160,96,419157,1,0,0:0:0:0:
352,96,420957,1,8,0:0:0:0:
160,96,421557,1,0,0:0:0:0:
352,96,422157,1,8,0:0:0:0:
160,96,422757,1,0,0:0:0:0:
160,96,423357,1,0,0:0:0:0:
160,96,424557,1,0,0:0:0:0:
160,96,424857,1,0,0:0:0:0:
352,96,425157,1,8,0:0:0:0:
160,96,425457,1,0,0:0:0:0:
352,96,425757,1,8,0:0:0:0:
160,96,426357,1,0,0:0:0:0:
352,96,426957,1,8,0:0:0:0:
352,96,427557,1,8,0:0:0:0:
352,96,428157,1,8,0:0:0:0:
160,96,429057,1,0,0:0:0:0:
352,96,429357,1,8,0:0:0:0:
352,96,432957,1,8,0:0:0:0:
160,96,433891,1,0,0:0:0:0:
352,96,434203,1,8,0:0:0:0:
352,96,434869,1,8,0:0:0:0:
160,96,435203,1,0,0:0:0:0:
160,96,435425,1,0,0:0:0:0:
160,96,435536,1,0,0:0:0:0:
352,96,436812,1,8,0:0:0:0:
352,96,437196,1,8,0:0:0:0:
160,96,437630,1,0,0:0:0:0:
160,96,438130,1,0,0:0:0:0:
352,96,438796,5,8,0:0:0:0:
160,96,439068,1,0,0:0:0:0:
160,96,439341,1,0,0:0:0:0:
352,96,439886,1,8,0:0:0:0:
352,96,440977,1,8,0:0:0:0:
160,96,441244,1,0,0:0:0:0:
160,96,441512,1,0,0:0:0:0:
352,96,442049,1,8,0:0:0:0:
160,96,442321,1,0,0:0:0:0:
352,96,442594,1,8,0:0:0:0:
352,96,442867,1,8,0:0:0:0:
352,96,443140,1,8,0:0:0:0:
160,96,443415,1,0,0:0:0:0:
160,96,443691,1,0,0:0:0:0:
352,96,444242,1,8,0:0:0:0:
160,96,444793,1,0,0:0:0:0:
160,96,445062,1,0,0:0:0:0:
352,96,445332,1,8,0:0:0:0:
352,96,445605,1,8,0:0:0:0:
160,96,445878,1,0,0:0:0:0:
352,96,446152,1,8,0:0:0:0:
352,96,446423,1,8,0:0:0:0:
160,96,446694,1,0,0:0:0:0:
352,96,446967,1,8,0:0:0:0:
160,96,447244,1,0,0:0:0:0:
352,96,447522,1,8,0:0:0:0:
160,96,447822,1,0,0:0:0:0:
160,96,448122,1,0,0:0:0:0:
352,96,448722,1,8,0:0:0:0:
352,96,449922,1,8,0:0:0:0:
160,96,450222,1,0,0:0:0:0:
160,96,450522,1,0,0:0:0:0:
352,96,451215,1,8,0:0:0:0:
352,96,451554,1,8,0:0:0:0:
160,96,451894,1,0,0:0:0:0:
352,96,452234,1,8,0:0:0:0:
352,96,452574,1,8,0:0:0:0:
160,96,452914,1,0,0:0:0:0:
160,96,453255,1,0,0:0:0:0:
352,96,453937,1,8,0:0:0:0:
160,96,454687,1,0,0:0:0:0:
160,96,455136,1,0,0:0:0:0:
352,96,455553,1,8,0:0:0:0:
352,96,455970,1,8,0:0:0:0:
352,96,456399,1,8,0:0:0:0:
160,96,456828,1,0,0:0:0:0:
352,96,457258,1,8,0:0:0:0:
352,96,457719,1,8,0:0:0:0:
352,96,458210,1,8,0:0:0:0:
352,96,458835,1,8,0:0:0:0:
352,96,459528,1,8,0:0:0:0:
160,96,459831,1,0,0:0:0:0:
352,96,460134,1,8,0:0:0:0:
352,96,460437,1,8,0:0:0:0:
352,96,460740,1,8,0:0:0:0:
160,96,461043,1,0,0:0:0:0:
352,96,461346,1,8,0:0:0:0:
160,96,461649,1,0,0:0:0:0:
352,96,461952,1,8,0:0:0:0:
352,96,462255,1,8,0:0:0:0:
352,96,462558,1,8,0:0:0:0:
160,96,462861,1,0,0:0:0:0:
352,96,463164,1,8,0:0:0:0:
352,96,463467,1,8,0:0:0:0:
160,96,463770,1,0,0:0:0:0:
352,96,464073,1,8,0:0:0:0:
352,96,464376,1,8,0:0:0:0:
160,96,464688,1,0,0:0:0:0:
352,96,465001,1,8,0:0:0:0:
352,96,465313,1,8,0:0:0:0:
352,96,465626,1,8,0:0:0:0:
160,96,465938,1,0,0:0:0:0:
352,96,466251,1,8,0:0:0:0:
160,96,466563,1,0,0:0:0:0:
352,96,466876,1,8,0:0:0:0:
352,96,467231,1,8,0:0:0:0:
352,96,467586,1,8,0:0:0:0:
160,96,467941,1,0,0:0:0:0:
352,96,468296,1,8,0:0:0:0:
352,96,468699,1,8,0:0:0:0:
352,96,469103,1,8,0:0:0:0:
160,96,469603,1,0,0:0:0:0:
160,96,470288,1,0,0:0:0:0:
