osu file format v14

[General]
AudioFilename: Lancelot.mp3
AudioLeadIn: 0
PreviewTime: 42675
Countdown: 1
SampleSet: Soft
StackLeniency: 0.7
Mode: 3
LetterboxInBreaks: 0
SpecialStyle: 0
WidescreenStoryboard: 0

[Editor]
DistanceSpacing: 0.8
BeatDivisor: 4
GridSize: 8
TimelineZoom: 1.9

[Metadata]
Title:Lancelot ~Flame of the Rebellion~
TitleUnicode:Lancelot~Flame of the Rebellion~
Artist:Penoreri
ArtistUnicode:ぺのれり
Creator:Wonki
Version:VIVID
Source:SOUND VOLTEX VIVID WAVE
Tags:Murumoo Virtue-
BeatmapID:2129703
BeatmapSetID:1017584

[Difficulty]
HPDrainRate:8.5
CircleSize:4
OverallDifficulty:8.5
ApproachRate:5
SliderMultiplier:1.4
SliderTickRate:1

[Events]
//Background and Video events
0,0,"lance.jpg",0,0
//Break Periods
//Storyboard Layer 0 (Background)
//Storyboard Layer 1 (Fail)
//Storyboard Layer 2 (Pass)
//Storyboard Layer 3 (Foreground)
//Storyboard Layer 4 (Overlay)
//Storyboard Sound Samples

[TimingPoints]
701,291.26213592233,4,2,1,50,1,0
42060,307.692307692308,4,2,1,50,1,0
42675,291.26213592233,4,2,1,50,1,0
58985,295.566502463054,4,2,1,50,1,0
68443,307.692307692308,4,2,1,50,1,0
79519,317.460317460317,4,2,1,50,1,0
80788,300,4,2,1,50,1,0
99388,283.018867924528,4,2,1,50,1,0
99388,-103.092783505155,4,2,1,50,0,0
99954,283.018867924528,4,2,1,50,1,0
99954,-103.092783505155,4,2,1,50,0,0
103350,277.777777777778,4,2,1,50,1,0
103450,-105.263157894737,4,2,1,50,0,0

[HitObjects]
192,192,555,5,0,0:0:0:0:
320,192,628,1,0,0:0:0:0:
64,192,701,1,0,0:0:0:0:
192,192,701,1,0,0:0:0:0:
448,192,701,1,0,0:0:0:0:
320,192,992,1,0,0:0:0:0:
448,192,992,1,0,0:0:0:0:
64,192,992,1,0,0:0:0:0:
192,192,1283,1,0,0:0:0:0:
64,192,1283,1,0,0:0:0:0:
448,192,1283,1,0,0:0:0:0:
64,192,1574,1,0,0:0:0:0:
192,192,1574,1,0,0:0:0:0:
320,192,1574,1,0,0:0:0:0:
64,192,1866,1,0,0:0:0:0:
320,192,1866,1,0,0:0:0:0:
448,192,1866,1,0,0:0:0:0:
192,192,2157,1,0,0:0:0:0:
320,192,2157,1,0,0:0:0:0:
448,192,2157,1,0,0:0:0:0:
64,192,2302,1,0,0:0:0:0:
320,192,2302,1,0,0:0:0:0:
64,192,2448,1,0,0:0:0:0:
192,192,2448,1,0,0:0:0:0:
448,192,2448,1,0,0:0:0:0:
64,192,2594,1,0,0:0:0:0:
192,192,2594,1,0,0:0:0:0:
320,192,2594,1,0,0:0:0:0:
448,192,2594,1,0,0:0:0:0:
64,192,2812,1,0,0:0:0:0:
192,192,2812,1,0,0:0:0:0:
320,192,2812,1,0,0:0:0:0:
448,192,2812,1,0,0:0:0:0:
64,192,3031,1,0,0:0:0:0:
192,192,3031,1,0,0:0:0:0:
320,192,3031,1,0,0:0:0:0:
448,192,3031,1,0,0:0:0:0:
448,192,3225,1,0,0:0:0:0:
192,192,3225,1,0,0:0:0:0:
192,192,3322,128,0,3759:0:0:0:0:
448,192,3322,128,0,3759:0:0:0:0:
64,192,3759,1,0,0:0:0:0:
192,192,3832,1,0,0:0:0:0:
448,192,3904,1,0,0:0:0:0:
320,192,3977,1,0,0:0:0:0:
192,192,4050,1,0,0:0:0:0:
64,192,4123,1,0,0:0:0:0:
448,192,4196,1,0,0:0:0:0:
320,192,4268,1,0,0:0:0:0:
192,192,4341,1,0,0:0:0:0:
320,192,4414,1,0,0:0:0:0:
192,192,4487,1,0,0:0:0:0:
320,192,4560,1,0,0:0:0:0:
192,192,4633,1,0,0:0:0:0:
64,192,4705,1,0,0:0:0:0:
192,192,4778,1,0,0:0:0:0:
320,192,4778,1,0,0:0:0:0:
448,192,4778,1,0,0:0:0:0:
64,192,4924,1,0,0:0:0:0:
192,192,4997,1,0,0:0:0:0:
320,192,5069,1,0,0:0:0:0:
192,192,5142,1,0,0:0:0:0:
320,192,5215,1,0,0:0:0:0:
448,192,5288,1,0,0:0:0:0:
320,192,5361,1,0,0:0:0:0:
192,192,5361,1,0,0:0:0:0:
64,192,5361,1,0,0:0:0:0:
192,192,5458,1,0,0:0:0:0:
448,192,5458,1,0,0:0:0:0:
320,192,5555,1,0,0:0:0:0:
64,192,5555,1,0,0:0:0:0:
192,192,5652,1,0,0:0:0:0:
64,192,5652,1,0,0:0:0:0:
320,192,5749,1,0,0:0:0:0:
448,192,5749,1,0,0:0:0:0:
192,192,5846,1,0,0:0:0:0:
320,192,5846,1,0,0:0:0:0:
64,192,5943,1,0,0:0:0:0:
448,192,5943,1,0,0:0:0:0:
64,192,6040,1,0,0:0:0:0:
320,192,6040,1,0,0:0:0:0:
192,192,6137,1,0,0:0:0:0:
448,192,6137,1,0,0:0:0:0:
320,192,6234,1,0,0:0:0:0:
448,192,6234,1,0,0:0:0:0:
64,192,6332,1,0,0:0:0:0:
192,192,6332,1,0,0:0:0:0:
192,192,6429,1,0,0:0:0:0:
320,192,6429,1,0,0:0:0:0:
64,192,6526,1,0,0:0:0:0:
320,192,6526,1,0,0:0:0:0:
448,192,6526,1,0,0:0:0:0:
192,192,6623,1,0,0:0:0:0:
448,192,6623,1,0,0:0:0:0:
320,192,6720,1,0,0:0:0:0:
64,192,6720,1,0,0:0:0:0:
64,192,6817,1,0,0:0:0:0:
192,192,6817,1,0,0:0:0:0:
320,192,6914,1,0,0:0:0:0:
448,192,6914,1,0,0:0:0:0:
64,192,7011,1,0,0:0:0:0:
320,192,7011,1,0,0:0:0:0:
192,192,7108,1,0,0:0:0:0:
64,192,7108,1,0,0:0:0:0:
320,192,7205,1,0,0:0:0:0:
448,192,7205,1,0,0:0:0:0:
192,192,7302,1,0,0:0:0:0:
448,192,7302,1,0,0:0:0:0:
64,192,7400,1,0,0:0:0:0:
192,192,7400,1,0,0:0:0:0:
448,192,7497,1,0,0:0:0:0:
320,192,7497,1,0,0:0:0:0:
192,192,7594,1,0,0:0:0:0:
64,192,7594,1,0,0:0:0:0:
320,192,7691,1,0,0:0:0:0:
448,192,7691,1,0,0:0:0:0:
64,192,7691,1,0,0:0:0:0:
64,192,7885,1,0,0:0:0:0:
192,192,7885,1,0,0:0:0:0:
320,192,7885,1,0,0:0:0:0:
192,192,8079,1,0,0:0:0:0:
448,192,8079,1,0,0:0:0:0:
320,192,8079,1,0,0:0:0:0:
64,192,8273,1,0,0:0:0:0:
192,192,8273,1,0,0:0:0:0:
448,192,8273,1,0,0:0:0:0:
320,192,8273,1,0,0:0:0:0:
64,192,8467,1,0,0:0:0:0:
192,192,8467,1,0,0:0:0:0:
448,192,8467,1,0,0:0:0:0:
64,192,8662,1,0,0:0:0:0:
320,192,8662,1,0,0:0:0:0:
448,192,8662,1,0,0:0:0:0:
64,192,8856,1,0,0:0:0:0:
192,192,8856,1,0,0:0:0:0:
448,192,8856,1,0,0:0:0:0:
320,192,8856,1,0,0:0:0:0:
192,192,9001,1,0,0:0:0:0:
448,192,9001,1,0,0:0:0:0:
320,192,9001,1,0,0:0:0:0:
64,192,9147,1,0,0:0:0:0:
320,192,9147,1,0,0:0:0:0:
192,192,9220,1,0,0:0:0:0:
320,192,9293,1,0,0:0:0:0:
448,192,9293,1,0,0:0:0:0:
64,192,9366,1,0,0:0:0:0:
192,192,9438,1,0,0:0:0:0:
320,192,9438,1,0,0:0:0:0:
448,192,9438,1,0,0:0:0:0:
320,192,9511,1,0,0:0:0:0:
448,192,9511,1,0,0:0:0:0:
64,192,9584,1,0,0:0:0:0:
192,192,9584,1,0,0:0:0:0:
320,192,9657,1,0,0:0:0:0:
448,192,9657,1,0,0:0:0:0:
64,192,9730,1,0,0:0:0:0:
192,192,9730,1,0,0:0:0:0:
320,192,9730,1,0,0:0:0:0:
192,192,9802,1,0,0:0:0:0:
64,192,9802,1,0,0:0:0:0:
320,192,9875,1,0,0:0:0:0:
448,192,9875,1,0,0:0:0:0:
192,192,9948,1,0,0:0:0:0:
64,192,9948,1,0,0:0:0:0:
320,192,10021,1,0,0:0:0:0:
448,192,10021,1,0,0:0:0:0:
64,192,10021,1,0,0:0:0:0:
192,192,10167,1,0,0:0:0:0:
320,192,10167,1,0,0:0:0:0:
64,192,10312,1,0,0:0:0:0:
448,192,10312,1,0,0:0:0:0:
192,192,10385,1,0,0:0:0:0:
64,192,10458,1,0,0:0:0:0:
320,192,10458,1,0,0:0:0:0:
448,192,10531,1,0,0:0:0:0:
192,192,10603,1,0,0:0:0:0:
64,192,10603,1,0,0:0:0:0:
320,192,10603,1,0,0:0:0:0:
192,192,10749,1,0,0:0:0:0:
64,192,10822,1,0,0:0:0:0:
448,192,10822,1,0,0:0:0:0:
320,192,10822,1,0,0:0:0:0:
192,192,10895,1,0,0:0:0:0:
320,192,10967,1,0,0:0:0:0:
64,192,11040,1,0,0:0:0:0:
192,192,11040,1,0,0:0:0:0:
448,192,11040,1,0,0:0:0:0:
64,192,11186,1,0,0:0:0:0:
320,192,11186,1,0,0:0:0:0:
448,192,11186,1,0,0:0:0:0:
192,192,11332,1,0,0:0:0:0:
320,192,11332,1,0,0:0:0:0:
64,192,11404,1,0,0:0:0:0:
320,192,11477,1,0,0:0:0:0:
448,192,11477,1,0,0:0:0:0:
192,192,11550,1,0,0:0:0:0:
64,192,11623,1,0,0:0:0:0:
320,192,11623,1,0,0:0:0:0:
448,192,11696,1,0,0:0:0:0:
64,192,11768,1,0,0:0:0:0:
192,192,11768,1,0,0:0:0:0:
320,192,11768,1,0,0:0:0:0:
320,192,11914,1,0,0:0:0:0:
448,192,11987,1,0,0:0:0:0:
192,192,11987,1,0,0:0:0:0:
64,192,11987,1,0,0:0:0:0:
320,192,12060,1,0,0:0:0:0:
192,192,12133,1,0,0:0:0:0:
64,192,12205,1,0,0:0:0:0:
320,192,12205,1,0,0:0:0:0:
448,192,12205,1,0,0:0:0:0:
192,192,12351,1,0,0:0:0:0:
64,192,12351,1,0,0:0:0:0:
448,192,12351,1,0,0:0:0:0:
320,192,12424,1,0,0:0:0:0:
192,192,12497,1,0,0:0:0:0:
320,192,12569,1,0,0:0:0:0:
192,192,12642,1,0,0:0:0:0:
64,192,12642,1,0,0:0:0:0:
448,192,12642,1,0,0:0:0:0:
320,192,12715,1,0,0:0:0:0:
192,192,12788,1,0,0:0:0:0:
64,192,12861,1,0,0:0:0:0:
192,192,12934,1,0,0:0:0:0:
320,192,12934,1,0,0:0:0:0:
448,192,12934,1,0,0:0:0:0:
64,192,13006,1,0,0:0:0:0:
192,192,13079,1,0,0:0:0:0:
320,192,13152,1,0,0:0:0:0:
448,192,13225,1,0,0:0:0:0:
192,192,13225,1,0,0:0:0:0:
64,192,13225,1,0,0:0:0:0:
320,192,13298,1,0,0:0:0:0:
64,192,13370,1,0,0:0:0:0:
448,192,13443,1,0,0:0:0:0:
64,192,13516,1,0,0:0:0:0:
192,192,13516,1,0,0:0:0:0:
320,192,13516,1,0,0:0:0:0:
64,192,13662,1,0,0:0:0:0:
320,192,13662,1,0,0:0:0:0:
448,192,13662,1,0,0:0:0:0:
192,192,13807,1,0,0:0:0:0:
448,192,13807,1,0,0:0:0:0:
320,192,13807,1,0,0:0:0:0:
192,192,13953,1,0,0:0:0:0:
64,192,13953,1,0,0:0:0:0:
448,192,13953,1,0,0:0:0:0:
192,192,14099,1,0,0:0:0:0:
320,192,14099,1,0,0:0:0:0:
64,192,14099,1,0,0:0:0:0:
192,192,14244,1,0,0:0:0:0:
320,192,14244,1,0,0:0:0:0:
448,192,14244,1,0,0:0:0:0:
64,192,14390,1,0,0:0:0:0:
448,192,14390,1,0,0:0:0:0:
192,192,14463,1,0,0:0:0:0:
320,192,14463,1,0,0:0:0:0:
64,192,14535,1,0,0:0:0:0:
448,192,14535,1,0,0:0:0:0:
192,192,14608,1,0,0:0:0:0:
320,192,14681,1,0,0:0:0:0:
64,192,14681,1,0,0:0:0:0:
448,192,14681,1,0,0:0:0:0:
320,192,14778,1,0,0:0:0:0:
192,192,14778,1,0,0:0:0:0:
192,192,14875,1,0,0:0:0:0:
64,192,14875,1,0,0:0:0:0:
448,192,14875,1,0,0:0:0:0:
64,192,14972,1,0,0:0:0:0:
192,192,15069,1,0,0:0:0:0:
320,192,15069,1,0,0:0:0:0:
448,192,15069,1,0,0:0:0:0:
192,192,15167,1,0,0:0:0:0:
448,192,15167,1,0,0:0:0:0:
64,192,15264,1,0,0:0:0:0:
320,192,15264,1,0,0:0:0:0:
448,192,15264,1,0,0:0:0:0:
320,192,15361,1,0,0:0:0:0:
192,192,15361,1,0,0:0:0:0:
192,192,15458,1,0,0:0:0:0:
64,192,15555,1,0,0:0:0:0:
448,192,15555,1,0,0:0:0:0:
320,192,15555,1,0,0:0:0:0:
320,192,15652,1,0,0:0:0:0:
448,192,15652,1,0,0:0:0:0:
192,192,15749,1,0,0:0:0:0:
64,192,15749,1,0,0:0:0:0:
192,192,15846,1,0,0:0:0:0:
64,192,15846,1,0,0:0:0:0:
320,192,15846,1,0,0:0:0:0:
320,192,15943,1,0,0:0:0:0:
448,192,15943,1,0,0:0:0:0:
448,192,16040,1,0,0:0:0:0:
192,192,16040,1,0,0:0:0:0:
64,192,16040,1,0,0:0:0:0:
192,192,16137,1,0,0:0:0:0:
448,192,16234,1,0,0:0:0:0:
64,192,16234,1,0,0:0:0:0:
320,192,16234,1,0,0:0:0:0:
448,192,16332,1,0,0:0:0:0:
64,192,16332,1,0,0:0:0:0:
320,192,16429,1,0,0:0:0:0:
192,192,16429,1,0,0:0:0:0:
64,192,16429,1,0,0:0:0:0:
320,192,16526,1,0,0:0:0:0:
448,192,16526,1,0,0:0:0:0:
192,192,16623,1,0,0:0:0:0:
64,192,16623,1,0,0:0:0:0:
448,192,16720,1,0,0:0:0:0:
320,192,16720,1,0,0:0:0:0:
192,192,16720,1,0,0:0:0:0:
320,192,16817,1,0,0:0:0:0:
448,192,16817,1,0,0:0:0:0:
192,192,16914,1,0,0:0:0:0:
64,192,16914,1,0,0:0:0:0:
64,192,17011,1,0,0:0:0:0:
192,192,17011,1,0,0:0:0:0:
320,192,17011,1,0,0:0:0:0:
448,192,17011,1,0,0:0:0:0:
64,192,17157,1,0,0:0:0:0:
192,192,17230,1,0,0:0:0:0:
320,192,17302,1,0,0:0:0:0:
448,192,17375,1,0,0:0:0:0:
192,192,17448,1,0,0:0:0:0:
64,192,17448,1,0,0:0:0:0:
320,192,17521,1,0,0:0:0:0:
192,192,17594,1,0,0:0:0:0:
320,192,17594,1,0,0:0:0:0:
448,192,17594,128,0,18395:0:0:0:0:
64,192,17594,128,0,18395:0:0:0:0:
64,192,18467,1,0,0:0:0:0:
448,192,18467,1,0,0:0:0:0:
320,192,18540,1,0,0:0:0:0:
192,192,18613,1,0,0:0:0:0:
64,192,18686,1,0,0:0:0:0:
320,192,18759,1,0,0:0:0:0:
448,192,18759,1,0,0:0:0:0:
192,192,18832,1,0,0:0:0:0:
64,192,18904,1,0,0:0:0:0:
192,192,18977,1,0,0:0:0:0:
320,192,19050,1,0,0:0:0:0:
448,192,19050,1,0,0:0:0:0:
64,192,19123,1,0,0:0:0:0:
192,192,19196,1,0,0:0:0:0:
320,192,19268,1,0,0:0:0:0:
64,192,19341,1,0,0:0:0:0:
448,192,19341,1,0,0:0:0:0:
192,192,19414,1,0,0:0:0:0:
320,192,19487,1,0,0:0:0:0:
448,192,19487,1,0,0:0:0:0:
64,192,19560,1,0,0:0:0:0:
192,192,19633,1,0,0:0:0:0:
320,192,19633,1,0,0:0:0:0:
448,192,19705,1,0,0:0:0:0:
64,192,19778,1,0,0:0:0:0:
192,192,19778,1,0,0:0:0:0:
320,192,19851,1,0,0:0:0:0:
64,192,19924,1,0,0:0:0:0:
448,192,19924,1,0,0:0:0:0:
192,192,19997,1,0,0:0:0:0:
64,192,20069,1,0,0:0:0:0:
448,192,20069,1,0,0:0:0:0:
320,192,20142,1,0,0:0:0:0:
192,192,20215,1,0,0:0:0:0:
64,192,20215,1,0,0:0:0:0:
192,192,20288,1,0,0:0:0:0:
320,192,20361,1,0,0:0:0:0:
448,192,20361,1,0,0:0:0:0:
320,192,20434,1,0,0:0:0:0:
64,192,20506,1,0,0:0:0:0:
192,192,20506,1,0,0:0:0:0:
320,192,20579,1,0,0:0:0:0:
448,192,20579,1,0,0:0:0:0:
192,192,20652,1,0,0:0:0:0:
64,192,20652,1,0,0:0:0:0:
320,192,20725,1,0,0:0:0:0:
448,192,20725,1,0,0:0:0:0:
64,192,20798,1,0,0:0:0:0:
192,192,20798,1,0,0:0:0:0:
320,192,20870,1,0,0:0:0:0:
448,192,20870,1,0,0:0:0:0:
192,192,20943,1,0,0:0:0:0:
64,192,20943,1,0,0:0:0:0:
320,192,21016,1,0,0:0:0:0:
448,192,21016,1,0,0:0:0:0:
64,192,21089,1,0,0:0:0:0:
192,192,21089,1,0,0:0:0:0:
320,192,21162,1,0,0:0:0:0:
448,192,21234,1,0,0:0:0:0:
64,192,21234,1,0,0:0:0:0:
192,192,21307,1,0,0:0:0:0:
320,192,21380,1,0,0:0:0:0:
448,192,21380,1,0,0:0:0:0:
64,192,21453,1,0,0:0:0:0:
192,192,21526,1,0,0:0:0:0:
320,192,21599,1,0,0:0:0:0:
192,192,21671,1,0,0:0:0:0:
64,192,21671,1,0,0:0:0:0:
448,192,21671,1,0,0:0:0:0:
192,192,22108,1,0,0:0:0:0:
320,192,22108,1,0,0:0:0:0:
320,192,22181,1,0,0:0:0:0:
192,192,22181,1,0,0:0:0:0:
192,192,22254,1,0,0:0:0:0:
320,192,22254,1,0,0:0:0:0:
320,192,22472,1,0,0:0:0:0:
64,192,22472,1,0,0:0:0:0:
192,192,22691,1,0,0:0:0:0:
448,192,22691,1,0,0:0:0:0:
320,192,22836,1,0,0:0:0:0:
448,192,22836,1,0,0:0:0:0:
192,192,23055,1,0,0:0:0:0:
448,192,23055,1,0,0:0:0:0:
320,192,23273,1,0,0:0:0:0:
64,192,23273,1,0,0:0:0:0:
192,192,23419,1,0,0:0:0:0:
64,192,23419,1,0,0:0:0:0:
448,192,23419,1,0,0:0:0:0:
64,192,23637,1,0,0:0:0:0:
320,192,23637,1,0,0:0:0:0:
192,192,23856,1,0,0:0:0:0:
448,192,23856,1,0,0:0:0:0:
64,192,24001,1,0,0:0:0:0:
320,192,24001,1,0,0:0:0:0:
448,192,24001,1,0,0:0:0:0:
192,192,24438,1,0,0:0:0:0:
320,192,24438,1,0,0:0:0:0:
192,192,24511,1,0,0:0:0:0:
320,192,24511,1,0,0:0:0:0:
192,192,24584,1,0,0:0:0:0:
320,192,24584,1,0,0:0:0:0:
320,192,24802,1,0,0:0:0:0:
448,192,24802,1,0,0:0:0:0:
64,192,25021,1,0,0:0:0:0:
192,192,25021,1,0,0:0:0:0:
64,192,25167,1,0,0:0:0:0:
320,192,25167,1,0,0:0:0:0:
448,192,25167,1,0,0:0:0:0:
192,192,25385,1,0,0:0:0:0:
320,192,25385,1,0,0:0:0:0:
448,192,25603,1,0,0:0:0:0:
64,192,25603,1,0,0:0:0:0:
192,192,25749,1,0,0:0:0:0:
64,192,25749,1,0,0:0:0:0:
320,192,25749,1,0,0:0:0:0:
64,192,25967,1,0,0:0:0:0:
320,192,25967,1,0,0:0:0:0:
448,192,25967,1,0,0:0:0:0:
192,192,26186,1,0,0:0:0:0:
320,192,26186,1,0,0:0:0:0:
448,192,26186,1,0,0:0:0:0:
64,192,26332,1,0,0:0:0:0:
320,192,26332,1,0,0:0:0:0:
448,192,26332,1,0,0:0:0:0:
192,192,26429,1,0,0:0:0:0:
320,192,26526,1,0,0:0:0:0:
448,192,26526,1,0,0:0:0:0:
192,192,26623,1,0,0:0:0:0:
64,192,26623,1,0,0:0:0:0:
320,192,26720,1,0,0:0:0:0:
64,192,26817,1,0,0:0:0:0:
448,192,26817,1,0,0:0:0:0:
192,192,26914,1,0,0:0:0:0:
320,192,26914,1,0,0:0:0:0:
64,192,26914,1,0,0:0:0:0:
448,192,27011,1,0,0:0:0:0:
192,192,27108,1,0,0:0:0:0:
64,192,27108,1,0,0:0:0:0:
320,192,27205,1,0,0:0:0:0:
448,192,27205,1,0,0:0:0:0:
192,192,27302,1,0,0:0:0:0:
320,192,27400,1,0,0:0:0:0:
64,192,27400,1,0,0:0:0:0:
192,192,27497,1,0,0:0:0:0:
448,192,27497,1,0,0:0:0:0:
320,192,27594,1,0,0:0:0:0:
192,192,27691,1,0,0:0:0:0:
64,192,27691,1,0,0:0:0:0:
320,192,27788,1,0,0:0:0:0:
448,192,27788,1,0,0:0:0:0:
64,192,27885,1,0,0:0:0:0:
192,192,27982,1,0,0:0:0:0:
320,192,27982,1,0,0:0:0:0:
64,192,28079,1,0,0:0:0:0:
448,192,28079,1,0,0:0:0:0:
320,192,28079,1,0,0:0:0:0:
192,192,28176,1,0,0:0:0:0:
320,192,28273,1,0,0:0:0:0:
448,192,28273,1,0,0:0:0:0:
192,192,28370,1,0,0:0:0:0:
64,192,28370,1,0,0:0:0:0:
320,192,28467,1,0,0:0:0:0:
64,192,28565,1,0,0:0:0:0:
448,192,28565,1,0,0:0:0:0:
64,192,28662,1,0,0:0:0:0:
192,192,28662,1,0,0:0:0:0:
320,192,28662,1,0,0:0:0:0:
320,192,28759,1,0,0:0:0:0:
192,192,28856,1,0,0:0:0:0:
320,192,28953,1,0,0:0:0:0:
448,192,28953,1,0,0:0:0:0:
192,192,29050,1,0,0:0:0:0:
64,192,29050,1,0,0:0:0:0:
320,192,29147,1,0,0:0:0:0:
448,192,29147,1,0,0:0:0:0:
64,192,29244,1,0,0:0:0:0:
192,192,29293,1,0,0:0:0:0:
320,192,29341,1,0,0:0:0:0:
64,192,29390,1,0,0:0:0:0:
192,192,29438,1,0,0:0:0:0:
320,192,29487,1,0,0:0:0:0:
448,192,29535,1,0,0:0:0:0:
320,192,29584,1,0,0:0:0:0:
192,192,29633,1,0,0:0:0:0:
448,192,29681,1,0,0:0:0:0:
320,192,29730,1,0,0:0:0:0:
192,192,29778,1,0,0:0:0:0:
64,192,29827,1,0,0:0:0:0:
192,192,29875,1,0,0:0:0:0:
320,192,29924,1,0,0:0:0:0:
192,192,29972,1,0,0:0:0:0:
320,192,30021,1,0,0:0:0:0:
448,192,30069,1,0,0:0:0:0:
192,192,30118,1,0,0:0:0:0:
64,192,30167,1,0,0:0:0:0:
320,192,30215,1,0,0:0:0:0:
192,192,30264,1,0,0:0:0:0:
64,192,30264,1,0,0:0:0:0:
320,192,30312,1,0,0:0:0:0:
448,192,30312,1,0,0:0:0:0:
192,192,30409,1,0,0:0:0:0:
320,192,30409,1,0,0:0:0:0:
64,192,30409,1,0,0:0:0:0:
64,192,30628,1,0,0:0:0:0:
192,192,30628,1,0,0:0:0:0:
448,192,30628,1,0,0:0:0:0:
192,192,30846,1,0,0:0:0:0:
320,192,30846,1,0,0:0:0:0:
448,192,30846,1,0,0:0:0:0:
64,192,30992,1,0,0:0:0:0:
192,192,30992,1,0,0:0:0:0:
320,192,30992,1,0,0:0:0:0:
448,192,30992,1,0,0:0:0:0:
64,192,31137,1,0,0:0:0:0:
320,192,31137,1,0,0:0:0:0:
192,192,31283,1,0,0:0:0:0:
64,192,31283,1,0,0:0:0:0:
448,192,31283,1,0,0:0:0:0:
320,192,31429,1,0,0:0:0:0:
448,192,31429,1,0,0:0:0:0:
192,192,31501,1,0,0:0:0:0:
64,192,31501,1,0,0:0:0:0:
320,192,31574,1,0,0:0:0:0:
448,192,31574,1,0,0:0:0:0:
192,192,31720,1,0,0:0:0:0:
448,192,31793,1,0,0:0:0:0:
320,192,31793,1,0,0:0:0:0:
64,192,31793,1,0,0:0:0:0:
64,192,31866,1,0,0:0:0:0:
448,192,31866,1,0,0:0:0:0:
192,192,32011,1,0,0:0:0:0:
320,192,32011,1,0,0:0:0:0:
64,192,32157,1,0,0:0:0:0:
320,192,32157,1,0,0:0:0:0:
448,192,32157,1,0,0:0:0:0:
192,192,32302,1,0,0:0:0:0:
448,192,32302,1,0,0:0:0:0:
64,192,32448,1,0,0:0:0:0:
320,192,32448,1,0,0:0:0:0:
192,192,32521,1,0,0:0:0:0:
64,192,32594,1,0,0:0:0:0:
320,192,32594,1,0,0:0:0:0:
192,192,32667,1,0,0:0:0:0:
64,192,32739,1,0,0:0:0:0:
448,192,32739,1,0,0:0:0:0:
320,192,32812,1,0,0:0:0:0:
192,192,32885,1,0,0:0:0:0:
448,192,32885,1,0,0:0:0:0:
320,192,32958,1,0,0:0:0:0:
64,192,33031,1,0,0:0:0:0:
448,192,33031,1,0,0:0:0:0:
192,192,33103,1,0,0:0:0:0:
320,192,33176,1,0,0:0:0:0:
64,192,33176,1,0,0:0:0:0:
192,192,33249,1,0,0:0:0:0:
64,192,33322,1,0,0:0:0:0:
448,192,33322,1,0,0:0:0:0:
320,192,33322,1,0,0:0:0:0:
192,192,33467,1,0,0:0:0:0:
64,192,33540,1,0,0:0:0:0:
320,192,33540,1,0,0:0:0:0:
448,192,33540,1,0,0:0:0:0:
448,192,33613,1,0,0:0:0:0:
320,192,33613,1,0,0:0:0:0:
192,192,33759,1,0,0:0:0:0:
320,192,33759,1,0,0:0:0:0:
64,192,33904,1,0,0:0:0:0:
320,192,33904,1,0,0:0:0:0:
448,192,33904,1,0,0:0:0:0:
320,192,34050,1,0,0:0:0:0:
448,192,34123,1,0,0:0:0:0:
192,192,34123,1,0,0:0:0:0:
64,192,34123,1,0,0:0:0:0:
192,192,34196,1,0,0:0:0:0:
64,192,34196,1,0,0:0:0:0:
192,192,34341,1,0,0:0:0:0:
320,192,34341,1,0,0:0:0:0:
192,192,34487,1,0,0:0:0:0:
64,192,34487,1,0,0:0:0:0:
448,192,34487,1,0,0:0:0:0:
192,192,34633,1,0,0:0:0:0:
64,192,34633,1,0,0:0:0:0:
448,192,34633,1,0,0:0:0:0:
64,192,34778,1,0,0:0:0:0:
320,192,34778,1,0,0:0:0:0:
448,192,34778,1,0,0:0:0:0:
192,192,34851,1,0,0:0:0:0:
320,192,34924,1,0,0:0:0:0:
448,192,34997,1,0,0:0:0:0:
64,192,35069,1,0,0:0:0:0:
192,192,35069,1,0,0:0:0:0:
320,192,35142,1,0,0:0:0:0:
448,192,35142,1,0,0:0:0:0:
192,192,35215,1,0,0:0:0:0:
64,192,35288,1,0,0:0:0:0:
320,192,35288,1,0,0:0:0:0:
448,192,35288,1,0,0:0:0:0:
192,192,35361,1,0,0:0:0:0:
320,192,35434,1,0,0:0:0:0:
192,192,35506,1,0,0:0:0:0:
64,192,35506,1,0,0:0:0:0:
448,192,35506,1,0,0:0:0:0:
192,192,35579,1,0,0:0:0:0:
64,192,35579,1,0,0:0:0:0:
320,192,35652,1,0,0:0:0:0:
448,192,35652,1,0,0:0:0:0:
64,192,35943,1,0,0:0:0:0:
448,192,35943,1,0,0:0:0:0:
320,192,36016,1,0,0:0:0:0:
192,192,36089,1,0,0:0:0:0:
64,192,36162,1,0,0:0:0:0:
192,192,36234,1,0,0:0:0:0:
320,192,36234,1,0,0:0:0:0:
448,192,36234,1,0,0:0:0:0:
64,192,36307,1,0,0:0:0:0:
192,192,36380,1,0,0:0:0:0:
320,192,36453,1,0,0:0:0:0:
64,192,36526,1,0,0:0:0:0:
448,192,36526,1,0,0:0:0:0:
192,192,36599,1,0,0:0:0:0:
320,192,36671,1,0,0:0:0:0:
192,192,36744,1,0,0:0:0:0:
448,192,36817,1,0,0:0:0:0:
64,192,36817,1,0,0:0:0:0:
320,192,36817,1,0,0:0:0:0:
192,192,36890,1,0,0:0:0:0:
320,192,36963,1,0,0:0:0:0:
448,192,37035,1,0,0:0:0:0:
192,192,37108,1,0,0:0:0:0:
64,192,37108,1,0,0:0:0:0:
320,192,37108,1,0,0:0:0:0:
448,192,37181,1,0,0:0:0:0:
320,192,37254,1,0,0:0:0:0:
192,192,37327,1,0,0:0:0:0:
64,192,37400,1,0,0:0:0:0:
448,192,37400,1,0,0:0:0:0:
320,192,37400,1,0,0:0:0:0:
64,192,37545,1,0,0:0:0:0:
448,192,37545,1,0,0:0:0:0:
320,192,37545,1,0,0:0:0:0:
192,192,37691,1,0,0:0:0:0:
64,192,37691,1,0,0:0:0:0:
320,192,37739,1,0,0:0:0:0:
448,192,37788,1,0,0:0:0:0:
64,192,37836,1,0,0:0:0:0:
192,192,37885,1,0,0:0:0:0:
320,192,37934,1,0,0:0:0:0:
192,192,37982,1,0,0:0:0:0:
64,192,37982,1,0,0:0:0:0:
448,192,37982,1,0,0:0:0:0:
64,192,38176,1,0,0:0:0:0:
192,192,38176,1,0,0:0:0:0:
448,192,38176,1,0,0:0:0:0:
192,192,38273,1,0,0:0:0:0:
64,192,38370,1,0,0:0:0:0:
448,192,38370,1,0,0:0:0:0:
320,192,38370,1,0,0:0:0:0:
448,192,38467,1,0,0:0:0:0:
64,192,38467,1,0,0:0:0:0:
320,192,38467,1,0,0:0:0:0:
64,192,38565,1,0,0:0:0:0:
448,192,38565,1,0,0:0:0:0:
320,192,38565,1,0,0:0:0:0:
320,192,38759,1,0,0:0:0:0:
448,192,38759,1,0,0:0:0:0:
64,192,38759,1,0,0:0:0:0:
320,192,38856,1,0,0:0:0:0:
64,192,38953,1,0,0:0:0:0:
192,192,38953,1,0,0:0:0:0:
448,192,38953,1,0,0:0:0:0:
448,192,39050,1,0,0:0:0:0:
192,192,39050,1,0,0:0:0:0:
64,192,39050,1,0,0:0:0:0:
64,192,39147,1,0,0:0:0:0:
192,192,39147,1,0,0:0:0:0:
448,192,39147,1,0,0:0:0:0:
192,192,39341,1,0,0:0:0:0:
320,192,39341,1,0,0:0:0:0:
448,192,39341,1,0,0:0:0:0:
320,192,39438,1,0,0:0:0:0:
448,192,39438,1,0,0:0:0:0:
64,192,39535,1,0,0:0:0:0:
192,192,39535,1,0,0:0:0:0:
192,192,39633,1,0,0:0:0:0:
64,192,39633,1,0,0:0:0:0:
192,192,39730,1,0,0:0:0:0:
448,192,39730,1,0,0:0:0:0:
64,192,39730,1,0,0:0:0:0:
320,192,39827,1,0,0:0:0:0:
448,192,39924,1,0,0:0:0:0:
192,192,39924,1,0,0:0:0:0:
64,192,39924,1,0,0:0:0:0:
192,192,40021,1,0,0:0:0:0:
320,192,40021,1,0,0:0:0:0:
448,192,40021,1,0,0:0:0:0:
64,192,40118,1,0,0:0:0:0:
320,192,40118,1,0,0:0:0:0:
192,192,40215,1,0,0:0:0:0:
448,192,40215,1,0,0:0:0:0:
64,192,40312,1,0,0:0:0:0:
320,192,40312,1,0,0:0:0:0:
448,192,40312,1,0,0:0:0:0:
64,192,40409,1,0,0:0:0:0:
320,192,40409,1,0,0:0:0:0:
64,192,40506,1,0,0:0:0:0:
192,192,40506,1,0,0:0:0:0:
448,192,40603,1,0,0:0:0:0:
320,192,40603,1,0,0:0:0:0:
448,192,40700,1,0,0:0:0:0:
320,192,40700,1,0,0:0:0:0:
448,192,40798,1,0,0:0:0:0:
192,192,40798,1,0,0:0:0:0:
64,192,40895,1,0,0:0:0:0:
320,192,40895,1,0,0:0:0:0:
64,192,40992,1,0,0:0:0:0:
320,192,40992,1,0,0:0:0:0:
64,192,41089,1,0,0:0:0:0:
192,192,41089,1,0,0:0:0:0:
320,192,41186,1,0,0:0:0:0:
448,192,41186,1,0,0:0:0:0:
192,192,41283,1,0,0:0:0:0:
448,192,41283,1,0,0:0:0:0:
64,192,41380,1,0,0:0:0:0:
448,192,41380,1,0,0:0:0:0:
320,192,41477,1,0,0:0:0:0:
192,192,41477,1,0,0:0:0:0:
64,192,41477,1,0,0:0:0:0:
64,192,42060,1,0,0:0:0:0:
448,192,42060,1,0,0:0:0:0:
64,192,42675,1,0,0:0:0:0:
320,192,42675,1,0,0:0:0:0:
448,192,42675,1,0,0:0:0:0:
448,192,42820,1,0,0:0:0:0:
192,192,42820,1,0,0:0:0:0:
64,192,42893,1,0,0:0:0:0:
320,192,42893,1,0,0:0:0:0:
192,192,42966,1,0,0:0:0:0:
192,192,43039,1,0,0:0:0:0:
64,192,43111,1,0,0:0:0:0:
320,192,43111,1,0,0:0:0:0:
448,192,43111,1,0,0:0:0:0:
192,192,43257,1,0,0:0:0:0:
320,192,43257,1,0,0:0:0:0:
64,192,43403,1,0,0:0:0:0:
320,192,43403,1,0,0:0:0:0:
192,192,43475,1,0,0:0:0:0:
448,192,43475,1,0,0:0:0:0:
320,192,43548,1,0,0:0:0:0:
320,192,43621,1,0,0:0:0:0:
192,192,43694,1,0,0:0:0:0:
64,192,43694,1,0,0:0:0:0:
448,192,43694,1,0,0:0:0:0:
64,192,43840,1,0,0:0:0:0:
320,192,43840,1,0,0:0:0:0:
448,192,43840,1,0,0:0:0:0:
320,192,43985,1,0,0:0:0:0:
192,192,43985,1,0,0:0:0:0:
64,192,44058,1,0,0:0:0:0:
448,192,44058,1,0,0:0:0:0:
192,192,44131,1,0,0:0:0:0:
192,192,44204,1,0,0:0:0:0:
64,192,44276,1,0,0:0:0:0:
320,192,44276,1,0,0:0:0:0:
448,192,44276,1,0,0:0:0:0:
192,192,44422,1,0,0:0:0:0:
64,192,44422,1,0,0:0:0:0:
320,192,44495,1,0,0:0:0:0:
448,192,44568,1,0,0:0:0:0:
192,192,44568,1,0,0:0:0:0:
64,192,44641,1,0,0:0:0:0:
320,192,44713,1,0,0:0:0:0:
448,192,44713,1,0,0:0:0:0:
192,192,44786,1,0,0:0:0:0:
64,192,44859,1,0,0:0:0:0:
448,192,44859,1,0,0:0:0:0:
320,192,44932,1,0,0:0:0:0:
192,192,45005,1,0,0:0:0:0:
64,192,45005,1,0,0:0:0:0:
448,192,45005,1,0,0:0:0:0:
320,192,45150,1,0,0:0:0:0:
448,192,45150,1,0,0:0:0:0:
192,192,45223,1,0,0:0:0:0:
64,192,45223,1,0,0:0:0:0:
448,192,45296,1,0,0:0:0:0:
448,192,45369,1,0,0:0:0:0:
320,192,45441,1,0,0:0:0:0:
192,192,45441,1,0,0:0:0:0:
64,192,45441,1,0,0:0:0:0:
192,192,45587,1,0,0:0:0:0:
448,192,45587,1,0,0:0:0:0:
64,192,45733,1,0,0:0:0:0:
192,192,45733,1,0,0:0:0:0:
320,192,45806,1,0,0:0:0:0:
448,192,45806,1,0,0:0:0:0:
192,192,45878,1,0,0:0:0:0:
64,192,45878,1,0,0:0:0:0:
320,192,45951,1,0,0:0:0:0:
448,192,46024,1,0,0:0:0:0:
192,192,46024,1,0,0:0:0:0:
320,192,46097,1,0,0:0:0:0:
64,192,46097,1,0,0:0:0:0:
448,192,46170,1,0,0:0:0:0:
192,192,46170,1,0,0:0:0:0:
64,192,46315,1,0,0:0:0:0:
192,192,46315,1,0,0:0:0:0:
320,192,46315,1,0,0:0:0:0:
448,192,46315,1,0,0:0:0:0:
64,192,46461,1,0,0:0:0:0:
320,192,46461,1,0,0:0:0:0:
192,192,46607,1,0,0:0:0:0:
64,192,46607,1,0,0:0:0:0:
320,192,46607,1,0,0:0:0:0:
448,192,46607,1,0,0:0:0:0:
192,192,46752,1,0,0:0:0:0:
320,192,46752,1,0,0:0:0:0:
64,192,46825,1,0,0:0:0:0:
448,192,46825,1,0,0:0:0:0:
320,192,46898,1,0,0:0:0:0:
192,192,46898,1,0,0:0:0:0:
64,192,47043,1,0,0:0:0:0:
192,192,47043,1,0,0:0:0:0:
320,192,47116,1,0,0:0:0:0:
448,192,47116,1,0,0:0:0:0:
192,192,47189,1,0,0:0:0:0:
64,192,47189,1,0,0:0:0:0:
64,192,47335,1,0,0:0:0:0:
320,192,47335,1,0,0:0:0:0:
448,192,47335,1,0,0:0:0:0:
192,192,47553,1,0,0:0:0:0:
448,192,47553,1,0,0:0:0:0:
192,192,47626,128,0,47844:0:0:0:0:
448,192,47626,128,0,48063:0:0:0:0:
64,192,47626,1,0,0:0:0:0:
320,192,47699,1,0,0:0:0:0:
64,192,47772,1,0,0:0:0:0:
64,192,47917,1,0,0:0:0:0:
192,192,47917,1,0,0:0:0:0:
320,192,47917,1,0,0:0:0:0:
64,192,48063,1,0,0:0:0:0:
192,192,48063,1,0,0:0:0:0:
320,192,48136,1,0,0:0:0:0:
448,192,48136,1,0,0:0:0:0:
192,192,48208,1,0,0:0:0:0:
64,192,48208,1,0,0:0:0:0:
320,192,48281,1,0,0:0:0:0:
192,192,48354,1,0,0:0:0:0:
448,192,48354,1,0,0:0:0:0:
320,192,48427,1,0,0:0:0:0:
64,192,48427,1,0,0:0:0:0:
192,192,48500,1,0,0:0:0:0:
448,192,48500,1,0,0:0:0:0:
64,192,48718,1,0,0:0:0:0:
320,192,48718,1,0,0:0:0:0:
320,192,48791,128,0,49009:0:0:0:0:
64,192,48791,128,0,49228:0:0:0:0:
448,192,48791,1,0,0:0:0:0:
192,192,48864,1,0,0:0:0:0:
448,192,48937,1,0,0:0:0:0:
192,192,49082,1,0,0:0:0:0:
320,192,49082,1,0,0:0:0:0:
448,192,49082,1,0,0:0:0:0:
320,192,49228,1,0,0:0:0:0:
448,192,49228,1,0,0:0:0:0:
192,192,49301,1,0,0:0:0:0:
64,192,49374,1,0,0:0:0:0:
448,192,49374,1,0,0:0:0:0:
320,192,49446,1,0,0:0:0:0:
192,192,49519,1,0,0:0:0:0:
64,192,49519,1,0,0:0:0:0:
320,192,49592,1,0,0:0:0:0:
448,192,49665,1,0,0:0:0:0:
192,192,49665,1,0,0:0:0:0:
64,192,49665,1,0,0:0:0:0:
320,192,49810,1,0,0:0:0:0:
192,192,49883,1,0,0:0:0:0:
64,192,49883,1,0,0:0:0:0:
448,192,49883,1,0,0:0:0:0:
192,192,49956,1,0,0:0:0:0:
64,192,49956,1,0,0:0:0:0:
64,192,50102,1,0,0:0:0:0:
320,192,50102,1,0,0:0:0:0:
448,192,50102,1,0,0:0:0:0:
192,192,50247,1,0,0:0:0:0:
64,192,50247,1,0,0:0:0:0:
448,192,50247,1,0,0:0:0:0:
192,192,50393,1,0,0:0:0:0:
64,192,50466,1,0,0:0:0:0:
320,192,50466,1,0,0:0:0:0:
448,192,50466,1,0,0:0:0:0:
320,192,50539,1,0,0:0:0:0:
448,192,50539,1,0,0:0:0:0:
64,192,50684,1,0,0:0:0:0:
192,192,50684,1,0,0:0:0:0:
320,192,50684,1,0,0:0:0:0:
192,192,50830,1,0,0:0:0:0:
320,192,50830,1,0,0:0:0:0:
448,192,50830,1,0,0:0:0:0:
320,192,50975,1,0,0:0:0:0:
448,192,50975,1,0,0:0:0:0:
64,192,51121,1,0,0:0:0:0:
192,192,51121,1,0,0:0:0:0:
320,192,51121,1,0,0:0:0:0:
448,192,51121,1,0,0:0:0:0:
192,192,51194,1,0,0:0:0:0:
320,192,51267,1,0,0:0:0:0:
448,192,51340,1,0,0:0:0:0:
64,192,51412,1,0,0:0:0:0:
192,192,51412,1,0,0:0:0:0:
320,192,51412,1,0,0:0:0:0:
448,192,51485,1,0,0:0:0:0:
320,192,51558,1,0,0:0:0:0:
192,192,51631,1,0,0:0:0:0:
64,192,51704,1,0,0:0:0:0:
320,192,51704,1,0,0:0:0:0:
448,192,51704,1,0,0:0:0:0:
192,192,51776,1,0,0:0:0:0:
320,192,51849,1,0,0:0:0:0:
192,192,51922,1,0,0:0:0:0:
320,192,51995,1,0,0:0:0:0:
64,192,51995,1,0,0:0:0:0:
448,192,51995,1,0,0:0:0:0:
192,192,51995,1,0,0:0:0:0:
320,192,52141,1,0,0:0:0:0:
448,192,52141,1,0,0:0:0:0:
192,192,52213,1,0,0:0:0:0:
320,192,52213,1,0,0:0:0:0:
64,192,52286,1,0,0:0:0:0:
320,192,52359,1,0,0:0:0:0:
448,192,52359,1,0,0:0:0:0:
64,192,52432,1,0,0:0:0:0:
192,192,52432,1,0,0:0:0:0:
320,192,52432,1,0,0:0:0:0:
192,192,52577,1,0,0:0:0:0:
448,192,52577,1,0,0:0:0:0:
64,192,52723,1,0,0:0:0:0:
320,192,52723,1,0,0:0:0:0:
64,192,52869,1,0,0:0:0:0:
192,192,52869,1,0,0:0:0:0:
448,192,52869,1,0,0:0:0:0:
320,192,52941,1,0,0:0:0:0:
192,192,53014,1,0,0:0:0:0:
64,192,53014,1,0,0:0:0:0:
448,192,53014,1,0,0:0:0:0:
64,192,53160,1,0,0:0:0:0:
192,192,53160,1,0,0:0:0:0:
320,192,53160,1,0,0:0:0:0:
448,192,53160,1,0,0:0:0:0:
320,192,53306,1,0,0:0:0:0:
448,192,53306,1,0,0:0:0:0:
192,192,53451,1,0,0:0:0:0:
320,192,53524,1,0,0:0:0:0:
448,192,53524,1,0,0:0:0:0:
192,192,53597,1,0,0:0:0:0:
64,192,53597,1,0,0:0:0:0:
320,192,53670,1,0,0:0:0:0:
192,192,53670,1,0,0:0:0:0:
448,192,53742,1,0,0:0:0:0:
320,192,53742,1,0,0:0:0:0:
192,192,53888,1,0,0:0:0:0:
320,192,53961,1,0,0:0:0:0:
64,192,53961,1,0,0:0:0:0:
448,192,53961,1,0,0:0:0:0:
320,192,54034,1,0,0:0:0:0:
448,192,54034,1,0,0:0:0:0:
64,192,54107,1,0,0:0:0:0:
192,192,54107,1,0,0:0:0:0:
320,192,54179,1,0,0:0:0:0:
448,192,54179,1,0,0:0:0:0:
64,192,54325,1,0,0:0:0:0:
192,192,54325,1,0,0:0:0:0:
448,192,54325,1,0,0:0:0:0:
320,192,54471,128,0,54616:0:0:0:0:
64,192,54568,1,0,0:0:0:0:
192,192,54568,1,0,0:0:0:0:
448,192,54616,1,0,0:0:0:0:
448,192,54689,1,0,0:0:0:0:
320,192,54762,1,0,0:0:0:0:
192,192,54762,1,0,0:0:0:0:
64,192,54762,1,0,0:0:0:0:
64,192,54908,1,0,0:0:0:0:
320,192,54908,1,0,0:0:0:0:
448,192,54908,1,0,0:0:0:0:
192,192,55053,128,0,55199:0:0:0:0:
320,192,55126,1,0,0:0:0:0:
448,192,55126,1,0,0:0:0:0:
64,192,55199,1,0,0:0:0:0:
64,192,55272,1,0,0:0:0:0:
448,192,55344,1,0,0:0:0:0:
320,192,55344,1,0,0:0:0:0:
192,192,55344,1,0,0:0:0:0:
192,192,55490,1,0,0:0:0:0:
64,192,55490,1,0,0:0:0:0:
448,192,55490,1,0,0:0:0:0:
320,192,55636,1,0,0:0:0:0:
448,192,55636,1,0,0:0:0:0:
192,192,55708,1,0,0:0:0:0:
64,192,55781,1,0,0:0:0:0:
320,192,55781,1,0,0:0:0:0:
192,192,55854,1,0,0:0:0:0:
64,192,55927,1,0,0:0:0:0:
448,192,55927,1,0,0:0:0:0:
320,192,56000,1,0,0:0:0:0:
192,192,56073,1,0,0:0:0:0:
448,192,56073,1,0,0:0:0:0:
64,192,56073,1,0,0:0:0:0:
192,192,56218,1,0,0:0:0:0:
320,192,56218,1,0,0:0:0:0:
64,192,56364,1,0,0:0:0:0:
448,192,56364,1,0,0:0:0:0:
192,192,56437,1,0,0:0:0:0:
320,192,56437,1,0,0:0:0:0:
448,192,56509,1,0,0:0:0:0:
64,192,56509,1,0,0:0:0:0:
192,192,56655,1,0,0:0:0:0:
320,192,56655,1,0,0:0:0:0:
448,192,56655,1,0,0:0:0:0:
64,192,56801,1,0,0:0:0:0:
320,192,56801,1,0,0:0:0:0:
448,192,56801,1,0,0:0:0:0:
64,192,56946,1,0,0:0:0:0:
192,192,56946,128,0,57019:0:0:0:0:
320,192,57019,128,0,57092:0:0:0:0:
448,192,57092,128,0,57165:0:0:0:0:
64,192,57092,1,0,0:0:0:0:
320,192,57165,128,0,57238:0:0:0:0:
192,192,57238,128,0,57310:0:0:0:0:
448,192,57238,1,0,0:0:0:0:
64,192,57310,128,0,57383:0:0:0:0:
192,192,57383,128,0,57456:0:0:0:0:
448,192,57383,1,0,0:0:0:0:
320,192,57456,128,0,57529:0:0:0:0:
448,192,57529,128,0,57602:0:0:0:0:
64,192,57529,1,0,0:0:0:0:
320,192,57602,128,0,57674:0:0:0:0:
192,192,57674,128,0,57747:0:0:0:0:
448,192,57674,1,0,0:0:0:0:
64,192,57747,128,0,57820:0:0:0:0:
320,192,57820,1,0,0:0:0:0:
448,192,57820,1,0,0:0:0:0:
192,192,57820,128,0,57893:0:0:0:0:
64,192,57893,128,0,57966:0:0:0:0:
448,192,57966,1,0,0:0:0:0:
320,192,57966,128,0,58039:0:0:0:0:
192,192,58039,128,0,58111:0:0:0:0:
64,192,58111,1,0,0:0:0:0:
320,192,58111,128,0,58184:0:0:0:0:
448,192,58184,128,0,58257:0:0:0:0:
320,192,58257,1,0,0:0:0:0:
192,192,58257,128,0,58330:0:0:0:0:
64,192,58330,128,0,58403:0:0:0:0:
192,192,58403,1,0,0:0:0:0:
320,192,58403,1,0,0:0:0:0:
448,192,58403,1,0,0:0:0:0:
64,192,58548,1,0,0:0:0:0:
320,192,58548,1,0,0:0:0:0:
448,192,58548,1,0,0:0:0:0:
192,192,58694,1,0,0:0:0:0:
448,192,58694,1,0,0:0:0:0:
64,192,58694,1,0,0:0:0:0:
320,192,58767,1,0,0:0:0:0:
192,192,58840,1,0,0:0:0:0:
64,192,58840,1,0,0:0:0:0:
448,192,58840,1,0,0:0:0:0:
320,192,58912,1,0,0:0:0:0:
192,192,58985,1,0,0:0:0:0:
64,192,58985,1,0,0:0:0:0:
448,192,58985,1,0,0:0:0:0:
64,192,59280,1,0,0:0:0:0:
192,192,59280,1,0,0:0:0:0:
320,192,59280,1,0,0:0:0:0:
64,192,59477,1,0,0:0:0:0:
192,192,59477,1,0,0:0:0:0:
320,192,59477,1,0,0:0:0:0:
192,192,59576,1,0,0:0:0:0:
64,192,59576,1,0,0:0:0:0:
448,192,59576,128,0,59760:0:0:0:0:
192,192,59760,1,0,0:0:0:0:
64,192,59871,1,0,0:0:0:0:
320,192,59871,1,0,0:0:0:0:
448,192,59871,1,0,0:0:0:0:
64,192,59970,1,0,0:0:0:0:
320,192,59970,1,0,0:0:0:0:
448,192,59970,1,0,0:0:0:0:
320,192,60068,1,0,0:0:0:0:
448,192,60068,1,0,0:0:0:0:
64,192,60068,1,0,0:0:0:0:
64,192,60167,1,0,0:0:0:0:
192,192,60167,1,0,0:0:0:0:
320,192,60167,1,0,0:0:0:0:
448,192,60167,1,0,0:0:0:0:
192,192,60462,1,0,0:0:0:0:
320,192,60462,1,0,0:0:0:0:
448,192,60462,1,0,0:0:0:0:
192,192,60659,1,0,0:0:0:0:
320,192,60659,1,0,0:0:0:0:
448,192,60659,1,0,0:0:0:0:
320,192,60758,1,0,0:0:0:0:
448,192,60758,1,0,0:0:0:0:
64,192,60758,128,0,60943:0:0:0:0:
320,192,60943,1,0,0:0:0:0:
64,192,61053,1,0,0:0:0:0:
192,192,61053,1,0,0:0:0:0:
448,192,61053,1,0,0:0:0:0:
64,192,61152,1,0,0:0:0:0:
192,192,61152,1,0,0:0:0:0:
448,192,61152,1,0,0:0:0:0:
448,192,61251,1,0,0:0:0:0:
192,192,61251,1,0,0:0:0:0:
64,192,61251,1,0,0:0:0:0:
64,192,61349,1,0,0:0:0:0:
192,192,61349,1,0,0:0:0:0:
320,192,61349,1,0,0:0:0:0:
448,192,61349,1,0,0:0:0:0:
192,192,61645,1,0,0:0:0:0:
320,192,61645,1,0,0:0:0:0:
64,192,61645,1,0,0:0:0:0:
64,192,61743,1,0,0:0:0:0:
192,192,61743,1,0,0:0:0:0:
320,192,61743,1,0,0:0:0:0:
320,192,61842,1,0,0:0:0:0:
192,192,61842,1,0,0:0:0:0:
64,192,61842,1,0,0:0:0:0:
64,192,61940,1,0,0:0:0:0:
192,192,61940,1,0,0:0:0:0:
448,192,61940,1,0,0:0:0:0:
320,192,61940,1,0,0:0:0:0:
192,192,62236,1,0,0:0:0:0:
320,192,62236,1,0,0:0:0:0:
448,192,62236,1,0,0:0:0:0:
320,192,62334,1,0,0:0:0:0:
448,192,62334,1,0,0:0:0:0:
192,192,62334,1,0,0:0:0:0:
192,192,62433,1,0,0:0:0:0:
320,192,62433,1,0,0:0:0:0:
448,192,62433,1,0,0:0:0:0:
448,192,62531,1,0,0:0:0:0:
320,192,62531,1,0,0:0:0:0:
192,192,62531,1,0,0:0:0:0:
64,192,62531,1,0,0:0:0:0:
64,192,62630,1,0,0:0:0:0:
64,192,62728,1,0,0:0:0:0:
64,192,62827,1,0,0:0:0:0:
192,192,62827,1,0,0:0:0:0:
320,192,62827,1,0,0:0:0:0:
448,192,62827,1,0,0:0:0:0:
320,192,62925,1,0,0:0:0:0:
320,192,63024,1,0,0:0:0:0:
320,192,63122,1,0,0:0:0:0:
448,192,63122,1,0,0:0:0:0:
192,192,63122,1,0,0:0:0:0:
64,192,63122,1,0,0:0:0:0:
64,192,63221,1,0,0:0:0:0:
192,192,63221,1,0,0:0:0:0:
192,192,63319,1,0,0:0:0:0:
320,192,63319,1,0,0:0:0:0:
320,192,63418,1,0,0:0:0:0:
448,192,63418,1,0,0:0:0:0:
64,192,63418,1,0,0:0:0:0:
192,192,63418,1,0,0:0:0:0:
448,192,63517,1,0,0:0:0:0:
320,192,63517,1,0,0:0:0:0:
192,192,63615,1,0,0:0:0:0:
64,192,63615,1,0,0:0:0:0:
64,192,63714,1,0,0:0:0:0:
320,192,63714,1,0,0:0:0:0:
192,192,63714,1,0,0:0:0:0:
448,192,64009,128,0,64231:0:0:0:0:
448,192,64305,1,0,0:0:0:0:
192,192,64305,1,0,0:0:0:0:
64,192,64305,1,0,0:0:0:0:
320,192,64305,128,0,64526:0:0:0:0:
192,192,64600,128,0,64822:0:0:0:0:
320,192,64600,1,0,0:0:0:0:
320,192,64896,128,0,65118:0:0:0:0:
64,192,64896,1,0,0:0:0:0:
192,192,64896,1,0,0:0:0:0:
448,192,64896,1,0,0:0:0:0:
320,192,65191,1,0,0:0:0:0:
192,192,65191,128,0,65290:0:0:0:0:
448,192,65339,128,0,65487:0:0:0:0:
64,192,65388,1,0,0:0:0:0:
192,192,65388,1,0,0:0:0:0:
192,192,65487,1,0,0:0:0:0:
64,192,65487,1,0,0:0:0:0:
320,192,65585,1,0,0:0:0:0:
448,192,65585,1,0,0:0:0:0:
192,192,65684,1,0,0:0:0:0:
320,192,65684,1,0,0:0:0:0:
192,192,65783,1,0,0:0:0:0:
64,192,65783,1,0,0:0:0:0:
320,192,65881,1,0,0:0:0:0:
448,192,65881,1,0,0:0:0:0:
64,192,65980,1,0,0:0:0:0:
192,192,65980,1,0,0:0:0:0:
64,192,66078,1,0,0:0:0:0:
320,192,66078,1,0,0:0:0:0:
448,192,66078,1,0,0:0:0:0:
192,192,66275,1,0,0:0:0:0:
64,192,66275,1,0,0:0:0:0:
448,192,66275,1,0,0:0:0:0:
448,192,66374,1,0,0:0:0:0:
320,192,66374,128,0,68494:0:0:0:0:
64,192,66374,128,0,66891:0:0:0:0:
192,192,66374,128,0,66891:0:0:0:0:
192,192,66965,1,0,0:0:0:0:
64,192,66965,1,0,0:0:0:0:
448,192,67039,1,0,0:0:0:0:
192,192,67113,1,0,0:0:0:0:
64,192,67113,1,0,0:0:0:0:
448,192,67186,1,0,0:0:0:0:
192,192,67260,1,0,0:0:0:0:
64,192,67260,1,0,0:0:0:0:
448,192,67334,1,0,0:0:0:0:
192,192,67408,1,0,0:0:0:0:
64,192,67408,1,0,0:0:0:0:
448,192,67482,1,0,0:0:0:0:
192,192,67556,1,0,0:0:0:0:
64,192,67556,1,0,0:0:0:0:
448,192,67630,1,0,0:0:0:0:
192,192,67704,1,0,0:0:0:0:
64,192,67704,1,0,0:0:0:0:
448,192,67778,1,0,0:0:0:0:
192,192,67851,1,0,0:0:0:0:
64,192,67851,1,0,0:0:0:0:
448,192,67925,1,0,0:0:0:0:
192,192,67999,1,0,0:0:0:0:
64,192,67999,1,0,0:0:0:0:
448,192,68073,1,0,0:0:0:0:
64,192,68147,1,0,0:0:0:0:
192,192,68147,1,0,0:0:0:0:
448,192,68221,1,0,0:0:0:0:
192,192,68295,1,0,0:0:0:0:
64,192,68295,1,0,0:0:0:0:
448,192,68369,1,0,0:0:0:0:
64,192,68443,128,0,68494:0:0:0:0:
192,192,68443,128,0,68494:0:0:0:0:
192,192,69058,1,0,0:0:0:0:
448,192,69058,1,0,0:0:0:0:
64,192,69673,1,0,0:0:0:0:
320,192,69673,1,0,0:0:0:0:
448,192,69673,1,0,0:0:0:0:
192,192,70289,1,0,0:0:0:0:
64,192,70289,1,0,0:0:0:0:
448,192,70904,1,0,0:0:0:0:
192,192,70904,1,0,0:0:0:0:
320,192,71519,1,0,0:0:0:0:
192,192,72135,1,0,0:0:0:0:
64,192,72135,1,0,0:0:0:0:
192,192,72750,1,0,0:0:0:0:
320,192,72750,1,0,0:0:0:0:
64,192,73366,1,0,0:0:0:0:
320,192,73366,1,0,0:0:0:0:
448,192,73366,1,0,0:0:0:0:
192,192,73443,1,0,0:0:0:0:
448,192,73519,1,0,0:0:0:0:
320,192,73596,1,0,0:0:0:0:
64,192,73673,1,0,0:0:0:0:
320,192,73750,1,0,0:0:0:0:
192,192,73827,1,0,0:0:0:0:
448,192,73904,1,0,0:0:0:0:
320,192,73981,1,0,0:0:0:0:
64,192,74058,1,0,0:0:0:0:
448,192,74135,1,0,0:0:0:0:
192,192,74212,1,0,0:0:0:0:
320,192,74289,1,0,0:0:0:0:
64,192,74366,1,0,0:0:0:0:
448,192,74443,1,0,0:0:0:0:
192,192,74519,1,0,0:0:0:0:
448,192,74596,1,0,0:0:0:0:
320,192,74673,1,0,0:0:0:0:
64,192,74750,1,0,0:0:0:0:
192,192,74827,1,0,0:0:0:0:
320,192,74904,1,0,0:0:0:0:
448,192,74981,1,0,0:0:0:0:
192,192,75058,1,0,0:0:0:0:
64,192,75135,1,0,0:0:0:0:
448,192,75212,1,0,0:0:0:0:
320,192,75289,1,0,0:0:0:0:
448,192,75366,1,0,0:0:0:0:
320,192,75443,1,0,0:0:0:0:
64,192,75519,1,0,0:0:0:0:
192,192,75596,1,0,0:0:0:0:
320,192,75673,1,0,0:0:0:0:
448,192,75750,1,0,0:0:0:0:
64,192,75827,1,0,0:0:0:0:
192,192,75827,1,0,0:0:0:0:
320,192,75930,1,0,0:0:0:0:
448,192,75930,1,0,0:0:0:0:
192,192,76032,1,0,0:0:0:0:
64,192,76135,1,0,0:0:0:0:
320,192,76135,1,0,0:0:0:0:
448,192,76237,1,0,0:0:0:0:
192,192,76237,1,0,0:0:0:0:
320,192,76340,1,0,0:0:0:0:
192,192,76443,1,0,0:0:0:0:
448,192,76443,1,0,0:0:0:0:
320,192,76545,1,0,0:0:0:0:
64,192,76545,1,0,0:0:0:0:
192,192,76648,1,0,0:0:0:0:
320,192,76750,1,0,0:0:0:0:
448,192,76750,1,0,0:0:0:0:
64,192,76853,1,0,0:0:0:0:
192,192,76853,1,0,0:0:0:0:
448,192,76955,1,0,0:0:0:0:
64,192,77058,1,0,0:0:0:0:
320,192,77058,1,0,0:0:0:0:
192,192,77160,1,0,0:0:0:0:
448,192,77160,1,0,0:0:0:0:
64,192,77263,1,0,0:0:0:0:
192,192,77366,1,0,0:0:0:0:
448,192,77366,1,0,0:0:0:0:
320,192,77468,1,0,0:0:0:0:
64,192,77468,1,0,0:0:0:0:
448,192,77571,1,0,0:0:0:0:
192,192,77673,1,0,0:0:0:0:
64,192,77673,1,0,0:0:0:0:
320,192,77776,1,0,0:0:0:0:
448,192,77776,1,0,0:0:0:0:
64,192,77878,1,0,0:0:0:0:
192,192,77981,1,0,0:0:0:0:
320,192,77981,1,0,0:0:0:0:
448,192,78084,1,0,0:0:0:0:
320,192,78084,1,0,0:0:0:0:
192,192,78186,1,0,0:0:0:0:
64,192,78186,1,0,0:0:0:0:
64,192,78289,1,0,0:0:0:0:
448,192,78289,1,0,0:0:0:0:
320,192,78289,1,0,0:0:0:0:
192,192,78391,1,0,0:0:0:0:
320,192,78391,1,0,0:0:0:0:
64,192,78494,1,0,0:0:0:0:
192,192,78494,1,0,0:0:0:0:
320,192,78596,1,0,0:0:0:0:
448,192,78596,1,0,0:0:0:0:
192,192,78699,1,0,0:0:0:0:
320,192,78699,1,0,0:0:0:0:
64,192,78801,1,0,0:0:0:0:
192,192,78801,1,0,0:0:0:0:
448,192,78904,1,0,0:0:0:0:
320,192,78904,1,0,0:0:0:0:
320,192,79007,1,0,0:0:0:0:
192,192,79007,1,0,0:0:0:0:
192,192,79109,1,0,0:0:0:0:
64,192,79109,1,0,0:0:0:0:
320,192,79212,1,0,0:0:0:0:
448,192,79212,1,0,0:0:0:0:
320,192,79314,1,0,0:0:0:0:
192,192,79314,1,0,0:0:0:0:
192,192,79417,1,0,0:0:0:0:
64,192,79417,1,0,0:0:0:0:
320,192,79519,1,0,0:0:0:0:
448,192,79519,1,0,0:0:0:0:
64,192,79519,128,0,80153:0:0:0:0:
448,192,80153,128,0,80683:0:0:0:0:
192,192,80153,1,0,0:0:0:0:
320,192,80153,1,0,0:0:0:0:
64,192,80788,1,0,0:0:0:0:
192,192,80788,1,0,0:0:0:0:
448,192,80788,1,0,0:0:0:0:
320,192,80788,1,0,0:0:0:0:
64,192,80988,1,0,0:0:0:0:
192,192,80988,1,0,0:0:0:0:
320,192,81088,1,0,0:0:0:0:
448,192,81088,1,0,0:0:0:0:
192,192,81188,1,0,0:0:0:0:
320,192,81188,1,0,0:0:0:0:
192,192,81288,1,0,0:0:0:0:
64,192,81288,1,0,0:0:0:0:
192,192,81388,1,0,0:0:0:0:
320,192,81388,1,0,0:0:0:0:
64,192,81388,1,0,0:0:0:0:
448,192,81388,1,0,0:0:0:0:
320,192,81488,1,0,0:0:0:0:
448,192,81488,1,0,0:0:0:0:
192,192,81588,1,0,0:0:0:0:
64,192,81588,1,0,0:0:0:0:
64,192,81688,1,0,0:0:0:0:
448,192,81688,1,0,0:0:0:0:
192,192,81788,1,0,0:0:0:0:
320,192,81788,1,0,0:0:0:0:
320,192,81888,1,0,0:0:0:0:
448,192,81888,1,0,0:0:0:0:
64,192,81988,1,0,0:0:0:0:
192,192,81988,1,0,0:0:0:0:
320,192,81988,1,0,0:0:0:0:
448,192,81988,1,0,0:0:0:0:
192,192,82088,1,0,0:0:0:0:
64,192,82088,1,0,0:0:0:0:
320,192,82188,1,0,0:0:0:0:
448,192,82188,1,0,0:0:0:0:
192,192,82288,1,0,0:0:0:0:
320,192,82288,1,0,0:0:0:0:
192,192,82388,1,0,0:0:0:0:
64,192,82388,1,0,0:0:0:0:
320,192,82488,1,0,0:0:0:0:
448,192,82488,1,0,0:0:0:0:
64,192,82588,1,0,0:0:0:0:
192,192,82588,1,0,0:0:0:0:
320,192,82588,1,0,0:0:0:0:
448,192,82588,1,0,0:0:0:0:
64,192,82688,1,0,0:0:0:0:
192,192,82688,1,0,0:0:0:0:
320,192,82788,1,0,0:0:0:0:
448,192,82788,1,0,0:0:0:0:
64,192,82888,1,0,0:0:0:0:
192,192,82888,1,0,0:0:0:0:
64,192,82988,1,0,0:0:0:0:
192,192,82988,1,0,0:0:0:0:
448,192,83088,1,0,0:0:0:0:
320,192,83088,1,0,0:0:0:0:
320,192,83188,1,0,0:0:0:0:
448,192,83188,1,0,0:0:0:0:
192,192,83188,1,0,0:0:0:0:
64,192,83188,1,0,0:0:0:0:
192,192,83288,1,0,0:0:0:0:
64,192,83288,1,0,0:0:0:0:
320,192,83388,1,0,0:0:0:0:
448,192,83388,1,0,0:0:0:0:
64,192,83488,1,0,0:0:0:0:
192,192,83488,1,0,0:0:0:0:
320,192,83588,1,0,0:0:0:0:
192,192,83588,1,0,0:0:0:0:
320,192,83688,1,0,0:0:0:0:
448,192,83688,1,0,0:0:0:0:
320,192,83788,1,0,0:0:0:0:
448,192,83788,1,0,0:0:0:0:
192,192,83788,1,0,0:0:0:0:
64,192,83788,1,0,0:0:0:0:
192,192,83888,1,0,0:0:0:0:
64,192,83888,1,0,0:0:0:0:
320,192,83988,1,0,0:0:0:0:
448,192,83988,1,0,0:0:0:0:
64,192,84088,1,0,0:0:0:0:
320,192,84088,1,0,0:0:0:0:
192,192,84188,1,0,0:0:0:0:
64,192,84188,1,0,0:0:0:0:
320,192,84288,1,0,0:0:0:0:
448,192,84288,1,0,0:0:0:0:
64,192,84388,1,0,0:0:0:0:
192,192,84388,1,0,0:0:0:0:
320,192,84388,1,0,0:0:0:0:
448,192,84388,1,0,0:0:0:0:
192,192,84488,1,0,0:0:0:0:
64,192,84488,1,0,0:0:0:0:
320,192,84588,1,0,0:0:0:0:
448,192,84588,1,0,0:0:0:0:
192,192,84688,1,0,0:0:0:0:
448,192,84688,1,0,0:0:0:0:
320,192,84788,1,0,0:0:0:0:
64,192,84788,1,0,0:0:0:0:
64,192,84888,1,0,0:0:0:0:
192,192,84888,1,0,0:0:0:0:
64,192,84988,1,0,0:0:0:0:
192,192,84988,1,0,0:0:0:0:
320,192,84988,1,0,0:0:0:0:
448,192,84988,1,0,0:0:0:0:
320,192,85088,1,0,0:0:0:0:
448,192,85088,1,0,0:0:0:0:
448,192,85188,1,0,0:0:0:0:
320,192,85188,1,0,0:0:0:0:
192,192,85288,1,0,0:0:0:0:
64,192,85288,1,0,0:0:0:0:
192,192,85388,1,0,0:0:0:0:
64,192,85388,1,0,0:0:0:0:
192,192,85488,1,0,0:0:0:0:
64,192,85488,1,0,0:0:0:0:
64,192,85588,1,0,0:0:0:0:
192,192,85588,1,0,0:0:0:0:
320,192,85588,1,0,0:0:0:0:
448,192,85588,1,0,0:0:0:0:
320,192,85688,1,0,0:0:0:0:
448,192,85688,1,0,0:0:0:0:
64,192,85788,1,0,0:0:0:0:
192,192,85788,1,0,0:0:0:0:
192,192,85888,1,0,0:0:0:0:
320,192,85888,1,0,0:0:0:0:
448,192,85988,1,0,0:0:0:0:
320,192,85988,1,0,0:0:0:0:
192,192,86088,1,0,0:0:0:0:
64,192,86088,1,0,0:0:0:0:
64,192,86188,1,0,0:0:0:0:
192,192,86188,1,0,0:0:0:0:
320,192,86188,1,0,0:0:0:0:
448,192,86188,1,0,0:0:0:0:
320,192,86288,1,0,0:0:0:0:
448,192,86288,1,0,0:0:0:0:
192,192,86388,1,0,0:0:0:0:
64,192,86388,1,0,0:0:0:0:
192,192,86488,1,0,0:0:0:0:
448,192,86488,1,0,0:0:0:0:
320,192,86588,1,0,0:0:0:0:
64,192,86588,1,0,0:0:0:0:
64,192,86688,1,0,0:0:0:0:
192,192,86688,1,0,0:0:0:0:
64,192,86788,1,0,0:0:0:0:
192,192,86788,1,0,0:0:0:0:
320,192,86788,1,0,0:0:0:0:
448,192,86788,1,0,0:0:0:0:
320,192,86888,1,0,0:0:0:0:
448,192,86888,1,0,0:0:0:0:
192,192,86988,1,0,0:0:0:0:
64,192,86988,1,0,0:0:0:0:
64,192,87088,1,0,0:0:0:0:
320,192,87088,1,0,0:0:0:0:
192,192,87188,1,0,0:0:0:0:
448,192,87188,1,0,0:0:0:0:
320,192,87288,1,0,0:0:0:0:
448,192,87288,1,0,0:0:0:0:
448,192,87388,1,0,0:0:0:0:
320,192,87388,1,0,0:0:0:0:
64,192,87388,1,0,0:0:0:0:
192,192,87388,1,0,0:0:0:0:
192,192,87488,1,0,0:0:0:0:
64,192,87488,1,0,0:0:0:0:
320,192,87588,1,0,0:0:0:0:
448,192,87588,1,0,0:0:0:0:
192,192,87688,1,0,0:0:0:0:
64,192,87688,1,0,0:0:0:0:
64,192,87788,1,0,0:0:0:0:
192,192,87788,1,0,0:0:0:0:
320,192,87888,1,0,0:0:0:0:
448,192,87888,1,0,0:0:0:0:
320,192,87988,1,0,0:0:0:0:
448,192,87988,1,0,0:0:0:0:
192,192,87988,1,0,0:0:0:0:
64,192,87988,1,0,0:0:0:0:
64,192,88088,1,0,0:0:0:0:
192,192,88088,1,0,0:0:0:0:
320,192,88188,1,0,0:0:0:0:
448,192,88188,1,0,0:0:0:0:
64,192,88288,1,0,0:0:0:0:
320,192,88288,1,0,0:0:0:0:
192,192,88388,1,0,0:0:0:0:
448,192,88388,1,0,0:0:0:0:
64,192,88488,1,0,0:0:0:0:
320,192,88488,1,0,0:0:0:0:
192,192,88588,1,0,0:0:0:0:
64,192,88588,1,0,0:0:0:0:
320,192,88588,1,0,0:0:0:0:
448,192,88588,1,0,0:0:0:0:
192,192,88688,1,0,0:0:0:0:
64,192,88688,1,0,0:0:0:0:
320,192,88788,1,0,0:0:0:0:
448,192,88788,1,0,0:0:0:0:
192,192,88888,1,0,0:0:0:0:
448,192,88888,1,0,0:0:0:0:
64,192,88988,1,0,0:0:0:0:
320,192,88988,1,0,0:0:0:0:
192,192,89088,1,0,0:0:0:0:
448,192,89088,1,0,0:0:0:0:
448,192,89188,1,0,0:0:0:0:
320,192,89188,1,0,0:0:0:0:
192,192,89188,1,0,0:0:0:0:
64,192,89188,1,0,0:0:0:0:
64,192,89288,1,0,0:0:0:0:
320,192,89288,1,0,0:0:0:0:
192,192,89388,1,0,0:0:0:0:
448,192,89388,1,0,0:0:0:0:
320,192,89488,1,0,0:0:0:0:
448,192,89488,1,0,0:0:0:0:
320,192,89588,1,0,0:0:0:0:
448,192,89588,1,0,0:0:0:0:
192,192,89688,1,0,0:0:0:0:
64,192,89688,1,0,0:0:0:0:
192,192,89788,1,0,0:0:0:0:
320,192,89788,1,0,0:0:0:0:
64,192,89788,1,0,0:0:0:0:
448,192,89788,1,0,0:0:0:0:
192,192,89888,1,0,0:0:0:0:
320,192,89888,1,0,0:0:0:0:
64,192,89988,1,0,0:0:0:0:
448,192,89988,1,0,0:0:0:0:
64,192,90088,1,0,0:0:0:0:
192,192,90088,1,0,0:0:0:0:
320,192,90088,1,0,0:0:0:0:
192,192,90188,1,0,0:0:0:0:
320,192,90188,1,0,0:0:0:0:
448,192,90188,1,0,0:0:0:0:
320,192,90288,1,0,0:0:0:0:
448,192,90288,1,0,0:0:0:0:
64,192,90288,1,0,0:0:0:0:
192,192,90388,1,0,0:0:0:0:
64,192,90388,1,0,0:0:0:0:
448,192,90388,1,0,0:0:0:0:
320,192,90463,1,0,0:0:0:0:
192,192,90488,1,0,0:0:0:0:
64,192,90538,1,0,0:0:0:0:
448,192,90588,1,0,0:0:0:0:
320,192,90613,1,0,0:0:0:0:
192,192,90688,1,0,0:0:0:0:
64,192,90688,1,0,0:0:0:0:
448,192,90763,1,0,0:0:0:0:
320,192,90788,1,0,0:0:0:0:
192,192,90838,1,0,0:0:0:0:
448,192,90888,1,0,0:0:0:0:
320,192,90913,1,0,0:0:0:0:
64,192,90988,1,0,0:0:0:0:
192,192,90988,1,0,0:0:0:0:
448,192,91063,1,0,0:0:0:0:
320,192,91088,1,0,0:0:0:0:
64,192,91138,1,0,0:0:0:0:
448,192,91188,1,0,0:0:0:0:
192,192,91213,1,0,0:0:0:0:
64,192,91288,1,0,0:0:0:0:
320,192,91288,1,0,0:0:0:0:
448,192,91363,1,0,0:0:0:0:
192,192,91388,1,0,0:0:0:0:
64,192,91438,1,0,0:0:0:0:
320,192,91488,1,0,0:0:0:0:
192,192,91513,1,0,0:0:0:0:
320,192,91588,1,0,0:0:0:0:
448,192,91588,1,0,0:0:0:0:
64,192,91588,1,0,0:0:0:0:
192,192,91663,1,0,0:0:0:0:
320,192,91688,1,0,0:0:0:0:
448,192,91738,1,0,0:0:0:0:
64,192,91788,1,0,0:0:0:0:
192,192,91813,1,0,0:0:0:0:
320,192,91888,1,0,0:0:0:0:
448,192,91888,1,0,0:0:0:0:
64,192,91963,1,0,0:0:0:0:
192,192,91988,1,0,0:0:0:0:
320,192,92038,1,0,0:0:0:0:
64,192,92088,1,0,0:0:0:0:
192,192,92113,1,0,0:0:0:0:
448,192,92188,1,0,0:0:0:0:
320,192,92188,1,0,0:0:0:0:
64,192,92263,1,0,0:0:0:0:
192,192,92288,1,0,0:0:0:0:
448,192,92338,1,0,0:0:0:0:
64,192,92388,1,0,0:0:0:0:
320,192,92413,1,0,0:0:0:0:
448,192,92488,1,0,0:0:0:0:
192,192,92488,1,0,0:0:0:0:
64,192,92563,1,0,0:0:0:0:
320,192,92588,1,0,0:0:0:0:
448,192,92638,1,0,0:0:0:0:
192,192,92688,1,0,0:0:0:0:
320,192,92713,1,0,0:0:0:0:
64,192,92788,1,0,0:0:0:0:
192,192,92788,1,0,0:0:0:0:
448,192,92788,1,0,0:0:0:0:
320,192,92863,1,0,0:0:0:0:
448,192,92888,1,0,0:0:0:0:
192,192,92938,1,0,0:0:0:0:
320,192,92988,1,0,0:0:0:0:
64,192,93013,1,0,0:0:0:0:
448,192,93088,1,0,0:0:0:0:
192,192,93088,1,0,0:0:0:0:
320,192,93163,1,0,0:0:0:0:
448,192,93188,1,0,0:0:0:0:
192,192,93238,1,0,0:0:0:0:
320,192,93288,1,0,0:0:0:0:
64,192,93313,1,0,0:0:0:0:
448,192,93388,1,0,0:0:0:0:
192,192,93388,1,0,0:0:0:0:
64,192,93463,1,0,0:0:0:0:
320,192,93488,1,0,0:0:0:0:
192,192,93538,1,0,0:0:0:0:
448,192,93588,1,0,0:0:0:0:
64,192,93613,1,0,0:0:0:0:
320,192,93688,1,0,0:0:0:0:
448,192,93763,1,0,0:0:0:0:
192,192,93788,1,0,0:0:0:0:
64,192,93838,1,0,0:0:0:0:
448,192,93888,1,0,0:0:0:0:
192,192,93913,1,0,0:0:0:0:
448,192,93988,1,0,0:0:0:0:
320,192,93988,1,0,0:0:0:0:
64,192,93988,1,0,0:0:0:0:
192,192,94063,1,0,0:0:0:0:
64,192,94088,1,0,0:0:0:0:
320,192,94138,1,0,0:0:0:0:
192,192,94188,1,0,0:0:0:0:
448,192,94213,1,0,0:0:0:0:
64,192,94288,1,0,0:0:0:0:
320,192,94288,1,0,0:0:0:0:
192,192,94363,1,0,0:0:0:0:
64,192,94388,1,0,0:0:0:0:
320,192,94438,1,0,0:0:0:0:
192,192,94488,1,0,0:0:0:0:
448,192,94513,1,0,0:0:0:0:
64,192,94588,1,0,0:0:0:0:
320,192,94588,1,0,0:0:0:0:
448,192,94663,1,0,0:0:0:0:
192,192,94688,1,0,0:0:0:0:
320,192,94738,1,0,0:0:0:0:
64,192,94788,1,0,0:0:0:0:
448,192,94813,1,0,0:0:0:0:
192,192,94888,1,0,0:0:0:0:
64,192,94963,1,0,0:0:0:0:
320,192,94988,1,0,0:0:0:0:
448,192,95038,1,0,0:0:0:0:
64,192,95088,1,0,0:0:0:0:
320,192,95113,1,0,0:0:0:0:
192,192,95188,1,0,0:0:0:0:
64,192,95188,1,0,0:0:0:0:
448,192,95263,1,0,0:0:0:0:
192,192,95288,1,0,0:0:0:0:
320,192,95338,1,0,0:0:0:0:
64,192,95338,1,0,0:0:0:0:
448,192,95388,1,0,0:0:0:0:
192,192,95413,1,0,0:0:0:0:
320,192,95488,1,0,0:0:0:0:
448,192,95488,1,0,0:0:0:0:
64,192,95563,1,0,0:0:0:0:
320,192,95588,1,0,0:0:0:0:
192,192,95638,1,0,0:0:0:0:
448,192,95638,1,0,0:0:0:0:
64,192,95688,1,0,0:0:0:0:
320,192,95713,1,0,0:0:0:0:
64,192,95788,1,0,0:0:0:0:
192,192,95788,1,0,0:0:0:0:
320,192,95863,1,0,0:0:0:0:
192,192,95888,1,0,0:0:0:0:
64,192,95938,1,0,0:0:0:0:
448,192,95938,1,0,0:0:0:0:
320,192,95988,1,0,0:0:0:0:
192,192,96013,1,0,0:0:0:0:
448,192,96088,1,0,0:0:0:0:
64,192,96088,1,0,0:0:0:0:
320,192,96163,1,0,0:0:0:0:
192,192,96188,1,0,0:0:0:0:
448,192,96238,1,0,0:0:0:0:
64,192,96238,1,0,0:0:0:0:
320,192,96288,1,0,0:0:0:0:
192,192,96313,1,0,0:0:0:0:
320,192,96388,1,0,0:0:0:0:
448,192,96388,1,0,0:0:0:0:
64,192,96463,1,0,0:0:0:0:
320,192,96488,1,0,0:0:0:0:
192,192,96538,1,0,0:0:0:0:
448,192,96538,1,0,0:0:0:0:
64,192,96588,1,0,0:0:0:0:
320,192,96613,1,0,0:0:0:0:
192,192,96688,1,0,0:0:0:0:
64,192,96688,1,0,0:0:0:0:
448,192,96763,1,0,0:0:0:0:
192,192,96788,1,0,0:0:0:0:
320,192,96838,1,0,0:0:0:0:
64,192,96838,1,0,0:0:0:0:
448,192,96888,1,0,0:0:0:0:
192,192,96913,1,0,0:0:0:0:
448,192,96988,1,0,0:0:0:0:
320,192,96988,1,0,0:0:0:0:
192,192,97063,1,0,0:0:0:0:
320,192,97088,1,0,0:0:0:0:
448,192,97138,1,0,0:0:0:0:
64,192,97138,1,0,0:0:0:0:
192,192,97188,1,0,0:0:0:0:
320,192,97213,1,0,0:0:0:0:
64,192,97288,1,0,0:0:0:0:
448,192,97288,1,0,0:0:0:0:
192,192,97363,1,0,0:0:0:0:
320,192,97388,1,0,0:0:0:0:
64,192,97438,1,0,0:0:0:0:
448,192,97438,1,0,0:0:0:0:
192,192,97488,1,0,0:0:0:0:
320,192,97513,1,0,0:0:0:0:
64,192,97588,1,0,0:0:0:0:
192,192,97588,1,0,0:0:0:0:
448,192,97663,1,0,0:0:0:0:
192,192,97688,1,0,0:0:0:0:
320,192,97738,1,0,0:0:0:0:
64,192,97738,1,0,0:0:0:0:
448,192,97788,1,0,0:0:0:0:
192,192,97813,1,0,0:0:0:0:
320,192,97888,1,0,0:0:0:0:
448,192,97888,1,0,0:0:0:0:
64,192,97963,1,0,0:0:0:0:
320,192,97988,1,0,0:0:0:0:
448,192,98038,1,0,0:0:0:0:
192,192,98038,1,0,0:0:0:0:
64,192,98088,1,0,0:0:0:0:
320,192,98113,1,0,0:0:0:0:
192,192,98188,1,0,0:0:0:0:
64,192,98188,1,0,0:0:0:0:
448,192,98263,1,0,0:0:0:0:
320,192,98263,1,0,0:0:0:0:
192,192,98288,1,0,0:0:0:0:
64,192,98338,1,0,0:0:0:0:
448,192,98388,1,0,0:0:0:0:
320,192,98388,1,0,0:0:0:0:
192,192,98413,1,0,0:0:0:0:
64,192,98488,1,0,0:0:0:0:
448,192,98513,1,0,0:0:0:0:
320,192,98563,1,0,0:0:0:0:
192,192,98613,1,0,0:0:0:0:
448,192,98638,1,0,0:0:0:0:
64,192,98638,1,0,0:0:0:0:
320,192,98713,1,0,0:0:0:0:
192,192,98713,1,0,0:0:0:0:
448,192,98788,1,0,0:0:0:0:
64,192,98788,1,0,0:0:0:0:
64,192,99388,1,0,0:0:0:0:
320,192,99388,1,0,0:0:0:0:
192,192,99529,1,0,0:0:0:0:
64,192,99529,1,0,0:0:0:0:
448,192,99529,1,0,0:0:0:0:
320,192,99600,1,0,0:0:0:0:
192,192,99671,1,0,0:0:0:0:
64,192,99671,1,0,0:0:0:0:
448,192,99671,1,0,0:0:0:0:
320,192,99812,1,0,0:0:0:0:
448,192,99812,1,0,0:0:0:0:
64,192,99954,1,0,0:0:0:0:
192,192,99954,1,0,0:0:0:0:
320,192,99954,1,0,0:0:0:0:
320,192,100095,1,0,0:0:0:0:
192,192,100095,1,0,0:0:0:0:
64,192,100095,1,0,0:0:0:0:
64,192,100237,1,0,0:0:0:0:
192,192,100237,1,0,0:0:0:0:
320,192,100237,1,0,0:0:0:0:
192,192,100378,128,0,100590:0:0:0:0:
320,192,100378,128,0,100590:0:0:0:0:
448,192,100378,128,0,100590:0:0:0:0:
192,192,100661,1,0,0:0:0:0:
320,192,100661,1,0,0:0:0:0:
448,192,100661,1,0,0:0:0:0:
64,192,100803,1,0,0:0:0:0:
320,192,100803,1,0,0:0:0:0:
448,192,100803,1,0,0:0:0:0:
64,192,100944,1,0,0:0:0:0:
320,192,100944,1,0,0:0:0:0:
448,192,100944,1,0,0:0:0:0:
64,192,101086,1,0,0:0:0:0:
320,192,101086,1,0,0:0:0:0:
448,192,101086,1,0,0:0:0:0:
64,192,101227,128,0,101439:0:0:0:0:
192,192,101227,128,0,101439:0:0:0:0:
448,192,101227,128,0,101439:0:0:0:0:
192,192,101510,1,0,0:0:0:0:
64,192,101510,1,0,0:0:0:0:
448,192,101510,1,0,0:0:0:0:
192,192,101652,1,0,0:0:0:0:
320,192,101652,1,0,0:0:0:0:
448,192,101652,1,0,0:0:0:0:
192,192,101793,1,0,0:0:0:0:
320,192,101793,1,0,0:0:0:0:
448,192,101793,1,0,0:0:0:0:
192,192,101935,1,0,0:0:0:0:
320,192,101935,1,0,0:0:0:0:
448,192,101935,1,0,0:0:0:0:
64,192,102076,128,0,102218:0:0:0:0:
192,192,102076,128,0,102218:0:0:0:0:
320,192,102076,128,0,102218:0:0:0:0:
320,192,102312,1,0,0:0:0:0:
448,192,102312,1,0,0:0:0:0:
64,192,102312,1,0,0:0:0:0:
192,192,102406,1,0,0:0:0:0:
320,192,102406,1,0,0:0:0:0:
64,192,102501,1,0,0:0:0:0:
448,192,102501,1,0,0:0:0:0:
192,192,102595,1,0,0:0:0:0:
320,192,102595,1,0,0:0:0:0:
64,192,102689,1,0,0:0:0:0:
448,192,102689,1,0,0:0:0:0:
320,192,102784,1,0,0:0:0:0:
192,192,102784,1,0,0:0:0:0:
64,192,102878,1,0,0:0:0:0:
448,192,102878,1,0,0:0:0:0:
320,192,102972,1,0,0:0:0:0:
192,192,102972,1,0,0:0:0:0:
64,192,103067,1,0,0:0:0:0:
448,192,103067,1,0,0:0:0:0:
320,192,103161,1,0,0:0:0:0:
192,192,103161,1,0,0:0:0:0:
64,192,103255,1,0,0:0:0:0:
448,192,103255,1,0,0:0:0:0:
320,192,103350,1,0,0:0:0:0:
192,192,103350,1,0,0:0:0:0:
64,192,103350,1,0,0:0:0:0:
448,192,103350,1,0,0:0:0:0:
192,192,103905,128,0,104391:0:0:0:0:
320,192,103905,128,0,104391:0:0:0:0:
448,192,103905,128,0,104391:0:0:0:0:
64,192,104461,1,0,0:0:0:0:
192,192,104461,1,0,0:0:0:0:
320,192,104461,1,0,0:0:0:0:
448,192,104461,1,0,0:0:0:0:
192,192,104600,1,0,0:0:0:0:
64,192,104600,1,0,0:0:0:0:
64,192,104738,1,0,0:0:0:0:
192,192,104738,1,0,0:0:0:0:
320,192,104738,1,0,0:0:0:0:
448,192,104738,1,0,0:0:0:0:
320,192,104877,1,0,0:0:0:0:
448,192,104877,1,0,0:0:0:0:
320,192,105016,1,0,0:0:0:0:
448,192,105016,1,0,0:0:0:0:
192,192,105016,1,0,0:0:0:0:
64,192,105016,1,0,0:0:0:0:
64,192,105155,1,0,0:0:0:0:
320,192,105155,1,0,0:0:0:0:
64,192,105294,1,0,0:0:0:0:
192,192,105294,1,0,0:0:0:0:
448,192,105294,1,0,0:0:0:0:
320,192,105363,1,0,0:0:0:0:
448,192,105433,1,0,0:0:0:0:
192,192,105433,1,0,0:0:0:0:
448,192,105572,1,0,0:0:0:0:
320,192,105572,1,0,0:0:0:0:
192,192,105572,1,0,0:0:0:0:
64,192,105572,1,0,0:0:0:0:
192,192,105711,1,0,0:0:0:0:
64,192,105711,1,0,0:0:0:0:
64,192,105850,1,0,0:0:0:0:
448,192,105850,1,0,0:0:0:0:
320,192,105850,1,0,0:0:0:0:
192,192,105919,1,0,0:0:0:0:
448,192,105988,1,0,0:0:0:0:
320,192,105988,1,0,0:0:0:0:
64,192,105988,1,0,0:0:0:0:
64,192,106127,1,0,0:0:0:0:
192,192,106127,1,0,0:0:0:0:
320,192,106127,1,0,0:0:0:0:
448,192,106127,1,0,0:0:0:0:
192,192,106266,1,0,0:0:0:0:
320,192,106266,1,0,0:0:0:0:
64,192,106405,1,0,0:0:0:0:
192,192,106405,1,0,0:0:0:0:
448,192,106405,1,0,0:0:0:0:
320,192,106475,1,0,0:0:0:0:
448,192,106544,1,0,0:0:0:0:
64,192,106544,1,0,0:0:0:0:
64,192,106683,1,0,0:0:0:0:
192,192,106683,1,0,0:0:0:0:
320,192,106683,1,0,0:0:0:0:
448,192,106683,1,0,0:0:0:0:
192,192,106822,1,0,0:0:0:0:
448,192,106822,1,0,0:0:0:0:
320,192,106961,1,0,0:0:0:0:
448,192,106961,1,0,0:0:0:0:
192,192,106961,1,0,0:0:0:0:
64,192,106961,1,0,0:0:0:0:
64,192,107100,1,0,0:0:0:0:
192,192,107100,1,0,0:0:0:0:
64,192,107238,1,0,0:0:0:0:
320,192,107238,1,0,0:0:0:0:
192,192,107238,1,0,0:0:0:0:
448,192,107238,1,0,0:0:0:0:
320,192,107377,1,0,0:0:0:0:
448,192,107377,1,0,0:0:0:0:
320,192,107516,1,0,0:0:0:0:
448,192,107516,1,0,0:0:0:0:
192,192,107516,1,0,0:0:0:0:
64,192,107516,1,0,0:0:0:0:
64,192,107655,1,0,0:0:0:0:
320,192,107655,1,0,0:0:0:0:
64,192,107794,1,0,0:0:0:0:
192,192,107794,1,0,0:0:0:0:
320,192,107794,1,0,0:0:0:0:
448,192,107794,1,0,0:0:0:0:
64,192,107933,1,0,0:0:0:0:
448,192,107933,1,0,0:0:0:0:
64,192,108072,1,0,0:0:0:0:
192,192,108072,1,0,0:0:0:0:
320,192,108072,1,0,0:0:0:0:
448,192,108072,1,0,0:0:0:0:
64,192,108211,1,0,0:0:0:0:
192,192,108211,1,0,0:0:0:0:
320,192,108211,1,0,0:0:0:0:
64,192,108350,1,0,0:0:0:0:
320,192,108350,1,0,0:0:0:0:
192,192,108350,1,0,0:0:0:0:
448,192,108350,1,0,0:0:0:0:
448,192,108488,1,0,0:0:0:0:
64,192,108488,1,0,0:0:0:0:
192,192,108558,1,0,0:0:0:0:
320,192,108558,1,0,0:0:0:0:
448,192,108627,1,0,0:0:0:0:
64,192,108627,1,0,0:0:0:0:
192,192,108697,1,0,0:0:0:0:
320,192,108697,1,0,0:0:0:0:
448,192,108766,1,0,0:0:0:0:
64,192,108766,1,0,0:0:0:0:
192,192,108836,1,0,0:0:0:0:
64,192,108905,1,0,0:0:0:0:
320,192,108905,1,0,0:0:0:0:
448,192,108905,1,0,0:0:0:0:
192,192,109044,1,0,0:0:0:0:
320,192,109044,1,0,0:0:0:0:
64,192,109183,1,0,0:0:0:0:
320,192,109183,1,0,0:0:0:0:
192,192,109183,1,0,0:0:0:0:
448,192,109183,1,0,0:0:0:0:
192,192,109322,1,0,0:0:0:0:
64,192,109322,1,0,0:0:0:0:
192,192,109461,1,0,0:0:0:0:
64,192,109461,1,0,0:0:0:0:
320,192,109461,1,0,0:0:0:0:
448,192,109461,1,0,0:0:0:0:
192,192,109600,1,0,0:0:0:0:
320,192,109600,1,0,0:0:0:0:
64,192,109738,1,0,0:0:0:0:
320,192,109738,1,0,0:0:0:0:
448,192,109738,1,0,0:0:0:0:
192,192,109808,1,0,0:0:0:0:
320,192,109877,1,0,0:0:0:0:
448,192,109877,1,0,0:0:0:0:
64,192,110016,1,0,0:0:0:0:
192,192,110016,1,0,0:0:0:0:
320,192,110016,1,0,0:0:0:0:
448,192,110016,1,0,0:0:0:0:
64,192,110155,1,0,0:0:0:0:
320,192,110155,1,0,0:0:0:0:
64,192,110294,1,0,0:0:0:0:
192,192,110294,1,0,0:0:0:0:
320,192,110294,1,0,0:0:0:0:
448,192,110294,1,0,0:0:0:0:
192,192,110433,1,0,0:0:0:0:
448,192,110433,1,0,0:0:0:0:
320,192,110433,1,0,0:0:0:0:
320,192,110572,1,0,0:0:0:0:
448,192,110572,1,0,0:0:0:0:
64,192,110572,1,0,0:0:0:0:
192,192,110641,1,0,0:0:0:0:
64,192,110711,1,0,0:0:0:0:
320,192,110711,1,0,0:0:0:0:
192,192,110780,1,0,0:0:0:0:
64,192,110850,1,0,0:0:0:0:
448,192,110850,1,0,0:0:0:0:
320,192,110919,1,0,0:0:0:0:
192,192,110988,1,0,0:0:0:0:
448,192,110988,1,0,0:0:0:0:
64,192,110988,1,0,0:0:0:0:
320,192,111058,1,0,0:0:0:0:
192,192,111127,1,0,0:0:0:0:
64,192,111127,1,0,0:0:0:0:
320,192,111197,1,0,0:0:0:0:
448,192,111197,1,0,0:0:0:0:
192,192,111266,1,0,0:0:0:0:
64,192,111266,1,0,0:0:0:0:
320,192,111336,1,0,0:0:0:0:
448,192,111336,1,0,0:0:0:0:
192,192,111405,1,0,0:0:0:0:
64,192,111405,1,0,0:0:0:0:
192,192,111544,128,0,111891:0:0:0:0:
320,192,111544,128,0,111891:0:0:0:0:
448,192,111544,128,0,111891:0:0:0:0:
448,192,111961,1,0,0:0:0:0:
64,192,111961,1,0,0:0:0:0:
192,192,112030,1,0,0:0:0:0:
320,192,112030,1,0,0:0:0:0:
448,192,112100,1,0,0:0:0:0:
64,192,112100,1,0,0:0:0:0:
192,192,112169,1,0,0:0:0:0:
320,192,112169,1,0,0:0:0:0:
448,192,112238,1,0,0:0:0:0:
64,192,112238,1,0,0:0:0:0:
64,192,112377,128,0,112725:0:0:0:0:
192,192,112377,128,0,112725:0:0:0:0:
448,192,112377,128,0,112725:0:0:0:0:
64,192,112794,1,0,0:0:0:0:
192,192,112794,1,0,0:0:0:0:
320,192,112794,1,0,0:0:0:0:
448,192,112933,1,0,0:0:0:0:
320,192,112933,1,0,0:0:0:0:
192,192,113002,1,0,0:0:0:0:
64,192,113072,1,0,0:0:0:0:
448,192,113072,1,0,0:0:0:0:
320,192,113141,1,0,0:0:0:0:
64,192,113211,1,0,0:0:0:0:
192,192,113211,1,0,0:0:0:0:
320,192,113280,1,0,0:0:0:0:
64,192,113350,1,0,0:0:0:0:
192,192,113350,1,0,0:0:0:0:
448,192,113350,1,0,0:0:0:0:
320,192,113419,1,0,0:0:0:0:
448,192,113488,1,0,0:0:0:0:
64,192,113488,1,0,0:0:0:0:
192,192,113558,1,0,0:0:0:0:
320,192,113627,1,0,0:0:0:0:
64,192,113627,1,0,0:0:0:0:
192,192,113697,1,0,0:0:0:0:
448,192,113766,1,0,0:0:0:0:
64,192,113766,1,0,0:0:0:0:
320,192,113836,1,0,0:0:0:0:
192,192,113905,1,0,0:0:0:0:
64,192,113905,1,0,0:0:0:0:
320,192,113975,1,0,0:0:0:0:
448,192,113975,1,0,0:0:0:0:
192,192,114044,1,0,0:0:0:0:
64,192,114044,1,0,0:0:0:0:
320,192,114113,1,0,0:0:0:0:
448,192,114113,1,0,0:0:0:0:
192,192,114183,1,0,0:0:0:0:
64,192,114183,1,0,0:0:0:0:
320,192,114252,1,0,0:0:0:0:
448,192,114252,1,0,0:0:0:0:
192,192,114322,1,0,0:0:0:0:
64,192,114322,1,0,0:0:0:0:
320,192,114391,1,0,0:0:0:0:
64,192,114461,1,0,0:0:0:0:
448,192,114461,1,0,0:0:0:0:
192,192,114530,1,0,0:0:0:0:
320,192,114530,1,0,0:0:0:0:
64,192,114600,1,0,0:0:0:0:
448,192,114600,1,0,0:0:0:0:
192,192,114669,1,0,0:0:0:0:
320,192,114669,1,0,0:0:0:0:
64,192,114738,1,0,0:0:0:0:
448,192,114738,1,0,0:0:0:0:
192,192,114808,1,0,0:0:0:0:
320,192,114808,1,0,0:0:0:0:
64,192,114877,1,0,0:0:0:0:
448,192,114877,1,0,0:0:0:0:
192,192,114947,1,0,0:0:0:0:
320,192,115016,1,0,0:0:0:0:
448,192,115016,1,0,0:0:0:0:
64,192,115016,1,0,0:0:0:0:
192,192,115086,1,0,0:0:0:0:
448,192,115155,1,0,0:0:0:0:
64,192,115155,1,0,0:0:0:0:
320,192,115225,1,0,0:0:0:0:
192,192,115294,1,0,0:0:0:0:
448,192,115294,1,0,0:0:0:0:
320,192,115363,1,0,0:0:0:0:
64,192,115433,1,0,0:0:0:0:
448,192,115433,1,0,0:0:0:0:
192,192,115502,1,0,0:0:0:0:
64,192,115572,1,0,0:0:0:0:
448,192,115572,1,0,0:0:0:0:
192,192,115641,1,0,0:0:0:0:
320,192,115641,1,0,0:0:0:0:
64,192,115711,1,0,0:0:0:0:
448,192,115711,1,0,0:0:0:0:
320,192,115780,1,0,0:0:0:0:
192,192,115780,1,0,0:0:0:0:
64,192,115850,1,0,0:0:0:0:
448,192,115850,1,0,0:0:0:0:
192,192,115919,1,0,0:0:0:0:
320,192,115919,1,0,0:0:0:0:
64,192,115988,1,0,0:0:0:0:
448,192,115988,1,0,0:0:0:0:
320,192,116058,1,0,0:0:0:0:
192,192,116127,1,0,0:0:0:0:
64,192,116127,1,0,0:0:0:0:
320,192,116197,1,0,0:0:0:0:
448,192,116197,1,0,0:0:0:0:
192,192,116266,1,0,0:0:0:0:
64,192,116266,1,0,0:0:0:0:
320,192,116336,1,0,0:0:0:0:
448,192,116336,1,0,0:0:0:0:
192,192,116405,1,0,0:0:0:0:
64,192,116405,1,0,0:0:0:0:
320,192,116475,1,0,0:0:0:0:
448,192,116475,1,0,0:0:0:0:
192,192,116544,1,0,0:0:0:0:
64,192,116544,1,0,0:0:0:0:
320,192,116613,1,0,0:0:0:0:
192,192,116683,1,0,0:0:0:0:
448,192,116683,1,0,0:0:0:0:
64,192,116752,1,0,0:0:0:0:
320,192,116752,1,0,0:0:0:0:
448,192,116822,1,0,0:0:0:0:
192,192,116822,1,0,0:0:0:0:
64,192,116891,1,0,0:0:0:0:
320,192,116891,1,0,0:0:0:0:
192,192,116961,1,0,0:0:0:0:
448,192,116961,1,0,0:0:0:0:
320,192,117030,1,0,0:0:0:0:
64,192,117030,1,0,0:0:0:0:
192,192,117100,1,0,0:0:0:0:
448,192,117169,1,0,0:0:0:0:
320,192,117238,1,0,0:0:0:0:
64,192,117238,1,0,0:0:0:0:
192,192,117308,1,0,0:0:0:0:
448,192,117308,1,0,0:0:0:0:
64,192,117377,1,0,0:0:0:0:
320,192,117377,1,0,0:0:0:0:
192,192,117447,1,0,0:0:0:0:
448,192,117447,1,0,0:0:0:0:
320,192,117516,1,0,0:0:0:0:
64,192,117516,1,0,0:0:0:0:
192,192,117586,1,0,0:0:0:0:
448,192,117586,1,0,0:0:0:0:
320,192,117655,1,0,0:0:0:0:
64,192,117725,1,0,0:0:0:0:
448,192,117794,1,0,0:0:0:0:
320,192,117794,1,0,0:0:0:0:
192,192,117794,1,0,0:0:0:0:
320,192,117863,1,0,0:0:0:0:
448,192,117863,1,0,0:0:0:0:
192,192,117933,1,0,0:0:0:0:
64,192,117933,1,0,0:0:0:0:
320,192,118002,1,0,0:0:0:0:
448,192,118002,1,0,0:0:0:0:
64,192,118072,1,0,0:0:0:0:
192,192,118072,1,0,0:0:0:0:
320,192,118141,1,0,0:0:0:0:
448,192,118141,1,0,0:0:0:0:
192,192,118211,1,0,0:0:0:0:
64,192,118211,1,0,0:0:0:0:
320,192,118280,1,0,0:0:0:0:
448,192,118280,1,0,0:0:0:0:
192,192,118350,1,0,0:0:0:0:
320,192,118350,1,0,0:0:0:0:
64,192,118350,1,0,0:0:0:0:
64,192,118419,1,0,0:0:0:0:
192,192,118419,1,0,0:0:0:0:
320,192,118488,1,0,0:0:0:0:
448,192,118488,1,0,0:0:0:0:
192,192,118558,1,0,0:0:0:0:
64,192,118558,1,0,0:0:0:0:
320,192,118627,1,0,0:0:0:0:
448,192,118627,1,0,0:0:0:0:
192,192,118697,1,0,0:0:0:0:
64,192,118697,1,0,0:0:0:0:
320,192,118766,1,0,0:0:0:0:
448,192,118766,1,0,0:0:0:0:
192,192,118836,1,0,0:0:0:0:
64,192,118836,1,0,0:0:0:0:
192,192,118905,1,0,0:0:0:0:
320,192,118905,1,0,0:0:0:0:
448,192,118905,1,0,0:0:0:0:
448,192,118975,1,0,0:0:0:0:
320,192,118975,1,0,0:0:0:0:
192,192,119044,1,0,0:0:0:0:
64,192,119044,1,0,0:0:0:0:
320,192,119113,1,0,0:0:0:0:
448,192,119113,1,0,0:0:0:0:
192,192,119183,1,0,0:0:0:0:
64,192,119183,1,0,0:0:0:0:
320,192,119252,1,0,0:0:0:0:
448,192,119252,1,0,0:0:0:0:
192,192,119322,1,0,0:0:0:0:
64,192,119322,1,0,0:0:0:0:
448,192,119391,1,0,0:0:0:0:
64,192,119461,1,0,0:0:0:0:
320,192,119461,1,0,0:0:0:0:
192,192,119530,1,0,0:0:0:0:
448,192,119530,1,0,0:0:0:0:
320,192,119600,1,0,0:0:0:0:
64,192,119600,1,0,0:0:0:0:
192,192,119669,1,0,0:0:0:0:
64,192,119738,1,0,0:0:0:0:
448,192,119738,1,0,0:0:0:0:
192,192,119808,1,0,0:0:0:0:
320,192,119808,1,0,0:0:0:0:
64,192,119877,1,0,0:0:0:0:
448,192,119877,1,0,0:0:0:0:
320,192,119947,1,0,0:0:0:0:
192,192,120016,1,0,0:0:0:0:
64,192,120016,1,0,0:0:0:0:
448,192,120016,1,0,0:0:0:0:
192,192,120155,1,0,0:0:0:0:
64,192,120155,1,0,0:0:0:0:
448,192,120155,1,0,0:0:0:0:
448,192,120294,1,0,0:0:0:0:
192,192,120294,1,0,0:0:0:0:
64,192,120294,1,0,0:0:0:0:
64,192,120433,128,0,120641:0:0:0:0:
192,192,120433,128,0,120641:0:0:0:0:
320,192,120433,128,0,120641:0:0:0:0:
448,192,120433,128,0,120641:0:0:0:0:
320,192,120711,1,0,0:0:0:0:
192,192,120711,1,0,0:0:0:0:
64,192,120711,1,0,0:0:0:0:
448,192,120711,1,0,0:0:0:0:
192,192,120850,1,0,0:0:0:0:
448,192,120850,1,0,0:0:0:0:
320,192,120850,1,0,0:0:0:0:
192,192,120988,1,0,0:0:0:0:
320,192,120988,1,0,0:0:0:0:
448,192,120988,1,0,0:0:0:0:
448,192,121127,1,0,0:0:0:0:
192,192,121127,1,0,0:0:0:0:
320,192,121127,1,0,0:0:0:0:
64,192,121266,128,0,121475:0:0:0:0:
320,192,121266,128,0,121475:0:0:0:0:
448,192,121266,128,0,121475:0:0:0:0:
192,192,121266,128,0,121475:0:0:0:0:
448,192,121544,1,0,0:0:0:0:
320,192,121544,1,0,0:0:0:0:
64,192,121544,1,0,0:0:0:0:
192,192,121544,1,0,0:0:0:0:
64,192,121683,1,0,0:0:0:0:
192,192,121683,1,0,0:0:0:0:
448,192,121683,1,0,0:0:0:0:
320,192,121822,1,0,0:0:0:0:
448,192,121822,1,0,0:0:0:0:
320,192,121891,1,0,0:0:0:0:
448,192,121891,1,0,0:0:0:0:
192,192,121961,1,0,0:0:0:0:
64,192,121961,1,0,0:0:0:0:
320,192,122030,1,0,0:0:0:0:
448,192,122030,1,0,0:0:0:0:
192,192,122100,1,0,0:0:0:0:
64,192,122100,1,0,0:0:0:0:
320,192,122169,1,0,0:0:0:0:
448,192,122169,1,0,0:0:0:0:
64,192,122238,1,0,0:0:0:0:
192,192,122238,1,0,0:0:0:0:
320,192,122238,1,0,0:0:0:0:
448,192,122238,1,0,0:0:0:0:
64,192,122516,1,0,0:0:0:0:
192,192,122516,1,0,0:0:0:0:
448,192,122516,1,0,0:0:0:0:
320,192,122701,1,0,0:0:0:0:
448,192,122701,1,0,0:0:0:0:
64,192,122701,1,0,0:0:0:0:
192,192,122794,1,0,0:0:0:0:
320,192,122794,1,0,0:0:0:0:
448,192,122794,1,0,0:0:0:0:
64,192,123072,1,0,0:0:0:0:
448,192,123072,1,0,0:0:0:0:
192,192,123164,1,0,0:0:0:0:
320,192,123164,1,0,0:0:0:0:
64,192,123257,1,0,0:0:0:0:
448,192,123257,1,0,0:0:0:0:
320,192,123350,1,0,0:0:0:0:
192,192,123350,1,0,0:0:0:0:
64,192,123350,1,0,0:0:0:0:
320,192,123442,1,0,0:0:0:0:
448,192,123442,1,0,0:0:0:0:
192,192,123535,1,0,0:0:0:0:
64,192,123535,1,0,0:0:0:0:
320,192,123627,1,0,0:0:0:0:
448,192,123627,1,0,0:0:0:0:
192,192,123627,1,0,0:0:0:0:
64,192,123812,1,0,0:0:0:0:
320,192,123812,1,0,0:0:0:0:
448,192,123905,1,0,0:0:0:0:
192,192,123905,1,0,0:0:0:0:
448,192,123998,1,0,0:0:0:0:
192,192,123998,1,0,0:0:0:0:
320,192,124090,1,0,0:0:0:0:
64,192,124090,1,0,0:0:0:0:
192,192,124183,1,0,0:0:0:0:
64,192,124183,1,0,0:0:0:0:
192,192,124275,1,0,0:0:0:0:
64,192,124275,1,0,0:0:0:0:
448,192,124368,1,0,0:0:0:0:
320,192,124368,1,0,0:0:0:0:
448,192,124461,1,0,0:0:0:0:
320,192,124461,1,0,0:0:0:0:
64,192,124461,1,0,0:0:0:0:
192,192,124461,1,0,0:0:0:0:
448,192,124877,1,0,0:0:0:0:
320,192,124877,1,0,0:0:0:0:
64,192,124877,1,0,0:0:0:0:
192,192,124947,1,0,0:0:0:0:
448,192,125016,128,0,125294:0:0:0:0:
320,192,125016,128,0,125294:0:0:0:0:
64,192,125016,128,0,125294:0:0:0:0:
