osu file format v14

[General]
AudioFilename: audio.mp3
AudioLeadIn: 0
PreviewTime: -1
Countdown: 1
SampleSet: None
StackLeniency: 0.7
Mode: 3
LetterboxInBreaks: 0
SpecialStyle: 0
WidescreenStoryboard: 0

[Editor]
DistanceSpacing: 0.8
BeatDivisor: 4
GridSize: 8
TimelineZoom: 0.8000001

[Metadata]
Title:Down Under
TitleUnicode:Down Under
Artist:Pennywise
ArtistUnicode:Pennywise
Creator:Melt3dCheeze
Version:BETTER RUN BETTER TAKE COVER
Source:
Tags:
BeatmapID:1384524
BeatmapSetID:653026

[Difficulty]
HPDrainRate:0
CircleSize:4
OverallDifficulty:8.7
ApproachRate:5
SliderMultiplier:1
SliderTickRate:1

[Events]
//Background and Video events
0,0,"hahaxd.png",0,0
//Break Periods
//Storyboard Layer 0 (Background)
//Storyboard Layer 1 (Fail)
//Storyboard Layer 2 (Pass)
//Storyboard Layer 3 (Foreground)
//Storyboard Sound Samples

[TimingPoints]
580,442.186470588237,4,2,0,5,1,0
680,-100,4,2,0,5,0,0
14619,-33.3333333333333,4,2,0,5,0,0
14729,440.286470588236,4,2,0,5,1,0
14729,-100,4,2,0,5,0,0
28815,425.581428571428,4,2,0,5,1,0
28915,-100,4,2,0,5,0,0
39025,437.781428571429,4,2,0,5,1,0
45957,434.482608695652,4,2,0,5,1,0
46057,-100,4,2,0,5,0,0
59870,428.571428571429,4,2,0,5,1,0
59970,-100,4,2,0,5,0,0
70155,435.571428571429,4,2,0,5,1,0
77044,422.435211267606,4,2,0,5,1,0
77144,-100,4,2,0,5,0,0
87182,411.393103448276,4,2,0,5,1,0
87282,-100,4,2,0,5,0,0
90451,437.135211267609,4,2,0,5,1,0
90551,-100,4,2,0,5,0,0
96097,-10,4,2,0,5,0,0
97445,436.835211267609,4,2,0,5,1,0
97445,-100,4,2,0,5,0,0
111414,426.371428571428,4,2,0,5,1,0
111514,-100,4,2,0,5,0,0
113119,-10000,4,2,0,5,0,0
114824,-100,4,2,0,5,0,0
121661,442.056204379563,4,2,0,5,1,0
121761,-100,4,2,0,5,0,0
132270,6,4,2,0,5,1,0
132370,-100,4,2,0,5,0,0
135129,462,4,2,0,5,1,1

[HitObjects]
64,192,580,5,0,0:0:0:0:
320,192,580,1,0,0:0:0:0:
192,192,580,1,0,0:0:0:0:
448,192,580,1,0,0:0:0:0:
192,192,801,1,0,0:0:0:0:
64,192,1022,1,0,0:0:0:0:
320,192,1022,1,0,0:0:0:0:
192,192,1243,1,0,0:0:0:0:
320,192,1464,1,0,0:0:0:0:
448,192,1464,1,0,0:0:0:0:
192,192,1464,1,0,0:0:0:0:
64,192,1464,1,0,0:0:0:0:
320,192,1685,1,0,0:0:0:0:
192,192,1906,1,0,0:0:0:0:
448,192,1906,1,0,0:0:0:0:
320,192,2127,1,0,0:0:0:0:
192,192,2348,1,0,0:0:0:0:
64,192,2348,1,0,0:0:0:0:
320,192,2348,1,0,0:0:0:0:
448,192,2348,1,0,0:0:0:0:
192,192,2569,1,0,0:0:0:0:
192,192,2790,1,0,0:0:0:0:
320,192,2790,1,0,0:0:0:0:
192,192,3012,1,0,0:0:0:0:
192,192,3233,1,0,0:0:0:0:
320,192,3233,1,0,0:0:0:0:
448,192,3233,1,0,0:0:0:0:
64,192,3233,1,0,0:0:0:0:
192,192,3454,1,0,0:0:0:0:
320,192,3675,1,0,0:0:0:0:
64,192,3675,1,0,0:0:0:0:
192,192,3896,1,0,0:0:0:0:
320,192,4117,1,0,0:0:0:0:
448,192,4117,1,0,0:0:0:0:
64,192,4117,1,0,0:0:0:0:
192,192,4117,1,0,0:0:0:0:
320,192,4228,1,0,0:0:0:0:
192,192,4338,1,0,0:0:0:0:
192,192,4449,1,0,0:0:0:0:
320,192,4559,1,0,0:0:0:0:
64,192,4559,1,0,0:0:0:0:
192,192,4670,1,0,0:0:0:0:
192,192,4780,1,0,0:0:0:0:
448,192,4891,1,0,0:0:0:0:
320,192,5001,1,0,0:0:0:0:
64,192,5001,1,0,0:0:0:0:
192,192,5001,1,0,0:0:0:0:
448,192,5001,1,0,0:0:0:0:
320,192,5112,1,0,0:0:0:0:
320,192,5222,1,0,0:0:0:0:
192,192,5333,1,0,0:0:0:0:
64,192,5444,1,0,0:0:0:0:
192,192,5444,1,0,0:0:0:0:
320,192,5554,1,0,0:0:0:0:
448,192,5665,1,0,0:0:0:0:
320,192,5775,1,0,0:0:0:0:
448,192,5886,1,0,0:0:0:0:
320,192,5886,1,0,0:0:0:0:
192,192,5886,1,0,0:0:0:0:
64,192,5886,1,0,0:0:0:0:
192,192,5996,1,0,0:0:0:0:
320,192,6107,1,0,0:0:0:0:
64,192,6217,1,0,0:0:0:0:
192,192,6328,1,0,0:0:0:0:
320,192,6328,1,0,0:0:0:0:
448,192,6438,1,0,0:0:0:0:
320,192,6549,1,0,0:0:0:0:
192,192,6660,1,0,0:0:0:0:
64,192,6770,1,0,0:0:0:0:
320,192,6770,1,0,0:0:0:0:
448,192,6770,1,0,0:0:0:0:
192,192,6770,1,0,0:0:0:0:
192,192,6881,1,0,0:0:0:0:
192,192,6991,1,0,0:0:0:0:
192,192,7102,1,0,0:0:0:0:
192,192,7212,1,0,0:0:0:0:
192,192,7323,1,0,0:0:0:0:
192,192,7433,1,0,0:0:0:0:
192,192,7544,1,0,0:0:0:0:
320,192,7654,1,0,0:0:0:0:
448,192,7654,1,0,0:0:0:0:
192,192,7654,1,0,0:0:0:0:
64,192,7654,1,0,0:0:0:0:
448,192,7765,1,0,0:0:0:0:
320,192,7876,1,0,0:0:0:0:
192,192,7986,1,0,0:0:0:0:
320,192,8097,1,0,0:0:0:0:
64,192,8097,1,0,0:0:0:0:
192,192,8207,1,0,0:0:0:0:
320,192,8318,1,0,0:0:0:0:
192,192,8428,1,0,0:0:0:0:
448,192,8539,1,0,0:0:0:0:
320,192,8539,1,0,0:0:0:0:
192,192,8539,1,0,0:0:0:0:
64,192,8539,1,0,0:0:0:0:
192,192,8760,1,0,0:0:0:0:
320,192,8870,1,0,0:0:0:0:
192,192,8981,1,0,0:0:0:0:
64,192,8981,1,0,0:0:0:0:
448,192,8981,1,0,0:0:0:0:
320,192,9092,1,0,0:0:0:0:
448,192,9202,1,0,0:0:0:0:
192,192,9313,1,0,0:0:0:0:
64,192,9423,1,0,0:0:0:0:
192,192,9423,1,0,0:0:0:0:
320,192,9423,1,0,0:0:0:0:
448,192,9423,1,0,0:0:0:0:
192,192,9534,1,0,0:0:0:0:
320,192,9644,1,0,0:0:0:0:
320,192,9755,1,0,0:0:0:0:
192,192,9865,1,0,0:0:0:0:
448,192,9865,1,0,0:0:0:0:
320,192,9976,1,0,0:0:0:0:
192,192,10087,1,0,0:0:0:0:
64,192,10197,1,0,0:0:0:0:
192,192,10308,1,0,0:0:0:0:
320,192,10308,1,0,0:0:0:0:
448,192,10308,1,0,0:0:0:0:
64,192,10308,1,0,0:0:0:0:
64,192,10418,1,0,0:0:0:0:
192,192,10529,1,0,0:0:0:0:
320,192,10639,1,0,0:0:0:0:
192,192,10750,1,0,0:0:0:0:
448,192,10750,1,0,0:0:0:0:
320,192,10860,1,0,0:0:0:0:
192,192,10971,1,0,0:0:0:0:
64,192,11081,1,0,0:0:0:0:
192,192,11192,1,0,0:0:0:0:
320,192,11192,1,0,0:0:0:0:
448,192,11192,1,0,0:0:0:0:
64,192,11192,128,0,11634:0:0:0:0:
320,192,11413,1,0,0:0:0:0:
192,192,11634,128,0,12076:0:0:0:0:
448,192,11634,1,0,0:0:0:0:
320,192,11855,1,0,0:0:0:0:
320,192,12076,128,0,12519:0:0:0:0:
64,192,12076,1,0,0:0:0:0:
192,192,12297,1,0,0:0:0:0:
448,192,12519,128,0,12961:0:0:0:0:
192,192,12961,1,0,0:0:0:0:
64,192,12961,1,0,0:0:0:0:
192,192,13071,1,0,0:0:0:0:
64,192,13071,1,0,0:0:0:0:
320,192,13182,1,0,0:0:0:0:
320,192,13292,1,0,0:0:0:0:
192,192,13403,1,0,0:0:0:0:
64,192,13403,1,0,0:0:0:0:
192,192,13513,1,0,0:0:0:0:
64,192,13513,1,0,0:0:0:0:
320,192,13624,1,0,0:0:0:0:
320,192,13735,1,0,0:0:0:0:
192,192,13845,1,0,0:0:0:0:
64,192,13845,1,0,0:0:0:0:
64,192,13956,1,0,0:0:0:0:
192,192,13956,1,0,0:0:0:0:
320,192,14066,1,0,0:0:0:0:
320,192,14177,1,0,0:0:0:0:
192,192,14287,1,0,0:0:0:0:
64,192,14287,1,0,0:0:0:0:
64,192,14398,1,0,0:0:0:0:
192,192,14398,1,0,0:0:0:0:
192,192,14508,1,0,0:0:0:0:
64,192,14508,1,0,0:0:0:0:
64,192,14729,1,0,0:0:0:0:
192,192,14729,1,0,0:0:0:0:
320,192,14729,1,0,0:0:0:0:
448,192,14729,1,0,0:0:0:0:
64,192,14949,1,0,0:0:0:0:
192,192,15169,1,0,0:0:0:0:
320,192,15169,1,0,0:0:0:0:
448,192,15169,1,0,0:0:0:0:
64,192,15169,1,0,0:0:0:0:
448,192,15389,1,0,0:0:0:0:
320,192,15609,1,0,0:0:0:0:
192,192,15609,1,0,0:0:0:0:
64,192,15609,1,0,0:0:0:0:
448,192,15609,1,0,0:0:0:0:
448,192,15829,1,0,0:0:0:0:
320,192,16049,1,0,0:0:0:0:
192,192,16049,1,0,0:0:0:0:
64,192,16049,1,0,0:0:0:0:
448,192,16049,1,0,0:0:0:0:
64,192,16270,1,0,0:0:0:0:
448,192,16270,1,0,0:0:0:0:
192,192,16490,1,0,0:0:0:0:
320,192,16490,1,0,0:0:0:0:
448,192,16490,1,0,0:0:0:0:
64,192,16490,1,0,0:0:0:0:
448,192,16710,1,0,0:0:0:0:
448,192,16930,1,0,0:0:0:0:
320,192,16930,1,0,0:0:0:0:
192,192,16930,1,0,0:0:0:0:
64,192,16930,1,0,0:0:0:0:
192,192,17150,1,0,0:0:0:0:
448,192,17370,1,0,0:0:0:0:
320,192,17370,1,0,0:0:0:0:
192,192,17370,1,0,0:0:0:0:
64,192,17370,1,0,0:0:0:0:
64,192,17590,1,0,0:0:0:0:
192,192,17811,1,0,0:0:0:0:
320,192,17811,1,0,0:0:0:0:
448,192,17811,1,0,0:0:0:0:
64,192,17811,1,0,0:0:0:0:
192,192,18031,1,0,0:0:0:0:
320,192,18251,1,0,0:0:0:0:
448,192,18251,1,0,0:0:0:0:
192,192,18251,1,0,0:0:0:0:
64,192,18251,1,0,0:0:0:0:
320,192,18471,1,0,0:0:0:0:
64,192,18471,1,0,0:0:0:0:
320,192,18691,1,0,0:0:0:0:
192,192,18691,1,0,0:0:0:0:
64,192,18691,1,0,0:0:0:0:
448,192,18691,1,0,0:0:0:0:
192,192,18911,1,0,0:0:0:0:
448,192,19131,1,0,0:0:0:0:
320,192,19131,1,0,0:0:0:0:
192,192,19131,1,0,0:0:0:0:
64,192,19131,1,0,0:0:0:0:
448,192,19352,1,0,0:0:0:0:
192,192,19572,1,0,0:0:0:0:
64,192,19572,1,0,0:0:0:0:
320,192,19572,1,0,0:0:0:0:
448,192,19572,1,0,0:0:0:0:
320,192,19792,1,0,0:0:0:0:
64,192,20012,1,0,0:0:0:0:
192,192,20012,1,0,0:0:0:0:
320,192,20012,1,0,0:0:0:0:
448,192,20012,1,0,0:0:0:0:
320,192,20232,1,0,0:0:0:0:
64,192,20452,1,0,0:0:0:0:
192,192,20452,1,0,0:0:0:0:
320,192,20452,1,0,0:0:0:0:
448,192,20452,1,0,0:0:0:0:
192,192,20672,1,0,0:0:0:0:
192,192,20893,1,0,0:0:0:0:
64,192,20893,1,0,0:0:0:0:
320,192,20893,1,0,0:0:0:0:
448,192,20893,1,0,0:0:0:0:
64,192,21113,1,0,0:0:0:0:
320,192,21113,1,0,0:0:0:0:
320,192,21333,1,0,0:0:0:0:
448,192,21333,1,0,0:0:0:0:
192,192,21333,1,0,0:0:0:0:
64,192,21333,1,0,0:0:0:0:
320,192,21553,1,0,0:0:0:0:
192,192,21773,1,0,0:0:0:0:
64,192,21773,1,0,0:0:0:0:
320,192,21773,1,0,0:0:0:0:
448,192,21773,1,0,0:0:0:0:
64,192,21993,1,0,0:0:0:0:
320,192,22213,1,0,0:0:0:0:
448,192,22213,1,0,0:0:0:0:
192,192,22213,1,0,0:0:0:0:
64,192,22213,1,0,0:0:0:0:
320,192,22434,1,0,0:0:0:0:
320,192,22654,1,0,0:0:0:0:
192,192,22654,1,0,0:0:0:0:
64,192,22654,1,0,0:0:0:0:
448,192,22654,1,0,0:0:0:0:
192,192,22874,1,0,0:0:0:0:
192,192,23094,1,0,0:0:0:0:
320,192,23094,1,0,0:0:0:0:
448,192,23094,1,0,0:0:0:0:
64,192,23094,1,0,0:0:0:0:
320,192,23314,1,0,0:0:0:0:
64,192,23534,1,0,0:0:0:0:
192,192,23534,1,0,0:0:0:0:
320,192,23534,1,0,0:0:0:0:
448,192,23534,1,0,0:0:0:0:
192,192,23754,1,0,0:0:0:0:
320,192,23975,1,0,0:0:0:0:
448,192,23975,1,0,0:0:0:0:
192,192,23975,1,0,0:0:0:0:
64,192,23975,1,0,0:0:0:0:
192,192,24195,1,0,0:0:0:0:
320,192,24415,1,0,0:0:0:0:
448,192,24415,1,0,0:0:0:0:
192,192,24415,1,0,0:0:0:0:
64,192,24415,1,0,0:0:0:0:
320,192,24635,1,0,0:0:0:0:
320,192,24855,1,0,0:0:0:0:
448,192,24855,1,0,0:0:0:0:
192,192,24855,1,0,0:0:0:0:
64,192,24855,1,0,0:0:0:0:
64,192,25075,1,0,0:0:0:0:
64,192,25295,1,0,0:0:0:0:
192,192,25295,1,0,0:0:0:0:
320,192,25295,1,0,0:0:0:0:
448,192,25295,1,0,0:0:0:0:
64,192,25295,128,0,27057:0:0:0:0:
448,192,25295,128,0,27057:0:0:0:0:
320,192,25295,128,0,27057:0:0:0:0:
192,192,25295,128,0,27057:0:0:0:0:
192,192,25516,1,0,0:0:0:0:
320,192,25736,1,0,0:0:0:0:
448,192,25736,1,0,0:0:0:0:
192,192,25736,1,0,0:0:0:0:
64,192,25736,1,0,0:0:0:0:
320,192,25956,1,0,0:0:0:0:
192,192,26176,1,0,0:0:0:0:
64,192,26176,1,0,0:0:0:0:
320,192,26176,1,0,0:0:0:0:
448,192,26176,1,0,0:0:0:0:
192,192,26396,1,0,0:0:0:0:
320,192,26616,1,0,0:0:0:0:
448,192,26616,1,0,0:0:0:0:
192,192,26616,1,0,0:0:0:0:
64,192,26616,1,0,0:0:0:0:
320,192,26836,1,0,0:0:0:0:
192,192,27057,1,0,0:0:0:0:
64,192,27057,1,0,0:0:0:0:
320,192,27057,1,0,0:0:0:0:
448,192,27057,1,0,0:0:0:0:
320,192,27277,1,0,0:0:0:0:
320,192,27497,1,0,0:0:0:0:
448,192,27497,1,0,0:0:0:0:
192,192,27497,1,0,0:0:0:0:
64,192,27497,1,0,0:0:0:0:
320,192,27717,1,0,0:0:0:0:
448,192,27937,1,0,0:0:0:0:
320,192,27937,1,0,0:0:0:0:
192,192,27937,1,0,0:0:0:0:
64,192,27937,1,0,0:0:0:0:
320,192,28157,1,0,0:0:0:0:
192,192,28157,1,0,0:0:0:0:
448,192,28157,1,0,0:0:0:0:
64,192,28157,1,0,0:0:0:0:
320,192,28377,1,0,0:0:0:0:
448,192,28377,1,0,0:0:0:0:
192,192,28377,1,0,0:0:0:0:
64,192,28377,1,0,0:0:0:0:
64,192,28598,1,0,0:0:0:0:
192,192,28598,1,0,0:0:0:0:
448,192,28598,1,0,0:0:0:0:
320,192,28598,1,0,0:0:0:0:
64,192,28708,1,0,0:0:0:0:
192,192,28708,1,0,0:0:0:0:
192,192,28708,1,0,0:0:0:0:
320,192,28708,1,0,0:0:0:0:
320,192,28708,1,0,0:0:0:0:
448,192,28708,1,0,0:0:0:0:
448,192,28708,1,0,0:0:0:0:
64,192,28708,1,0,0:0:0:0:
320,192,28708,1,0,0:0:0:0:
320,192,28815,1,0,0:0:0:0:
448,192,28815,1,0,0:0:0:0:
192,192,28815,1,0,0:0:0:0:
64,192,28815,1,0,0:0:0:0:
192,192,28815,1,0,0:0:0:0:
448,192,28921,1,0,0:0:0:0:
448,192,29027,1,0,0:0:0:0:
320,192,29027,1,0,0:0:0:0:
192,192,29027,1,0,0:0:0:0:
64,192,29027,1,0,0:0:0:0:
64,192,29134,1,0,0:0:0:0:
64,192,29240,1,0,0:0:0:0:
192,192,29240,1,0,0:0:0:0:
320,192,29240,1,0,0:0:0:0:
448,192,29240,1,0,0:0:0:0:
320,192,29346,1,0,0:0:0:0:
448,192,29453,1,0,0:0:0:0:
320,192,29453,1,0,0:0:0:0:
192,192,29453,1,0,0:0:0:0:
64,192,29453,1,0,0:0:0:0:
192,192,29559,1,0,0:0:0:0:
448,192,29666,1,0,0:0:0:0:
320,192,29666,1,0,0:0:0:0:
192,192,29666,1,0,0:0:0:0:
64,192,29666,1,0,0:0:0:0:
448,192,29772,1,0,0:0:0:0:
320,192,29878,1,0,0:0:0:0:
448,192,29878,1,0,0:0:0:0:
192,192,29878,1,0,0:0:0:0:
64,192,29878,1,0,0:0:0:0:
64,192,29985,1,0,0:0:0:0:
192,192,30091,1,0,0:0:0:0:
320,192,30091,1,0,0:0:0:0:
448,192,30091,1,0,0:0:0:0:
64,192,30091,1,0,0:0:0:0:
192,192,30198,1,0,0:0:0:0:
64,192,30304,1,0,0:0:0:0:
192,192,30304,1,0,0:0:0:0:
320,192,30304,1,0,0:0:0:0:
448,192,30304,1,0,0:0:0:0:
64,192,30410,1,0,0:0:0:0:
64,192,30517,1,0,0:0:0:0:
192,192,30517,1,0,0:0:0:0:
320,192,30517,1,0,0:0:0:0:
448,192,30517,1,0,0:0:0:0:
192,192,30623,1,0,0:0:0:0:
320,192,30730,1,0,0:0:0:0:
192,192,30730,1,0,0:0:0:0:
448,192,30730,1,0,0:0:0:0:
64,192,30730,1,0,0:0:0:0:
192,192,30836,1,0,0:0:0:0:
320,192,30942,1,0,0:0:0:0:
192,192,30942,1,0,0:0:0:0:
64,192,30942,1,0,0:0:0:0:
448,192,30942,1,0,0:0:0:0:
320,192,31049,1,0,0:0:0:0:
320,192,31155,1,0,0:0:0:0:
192,192,31155,1,0,0:0:0:0:
448,192,31155,1,0,0:0:0:0:
64,192,31155,1,0,0:0:0:0:
192,192,31262,1,0,0:0:0:0:
448,192,31368,1,0,0:0:0:0:
320,192,31368,1,0,0:0:0:0:
192,192,31368,1,0,0:0:0:0:
64,192,31368,1,0,0:0:0:0:
448,192,31474,1,0,0:0:0:0:
64,192,31581,1,0,0:0:0:0:
192,192,31581,1,0,0:0:0:0:
320,192,31581,1,0,0:0:0:0:
448,192,31581,1,0,0:0:0:0:
192,192,31687,1,0,0:0:0:0:
320,192,31794,1,0,0:0:0:0:
448,192,31794,1,0,0:0:0:0:
192,192,31794,1,0,0:0:0:0:
64,192,31794,1,0,0:0:0:0:
64,192,31900,1,0,0:0:0:0:
320,192,32006,1,0,0:0:0:0:
448,192,32006,1,0,0:0:0:0:
192,192,32006,1,0,0:0:0:0:
64,192,32006,1,0,0:0:0:0:
320,192,32113,1,0,0:0:0:0:
448,192,32219,128,0,32326:0:0:0:0:
320,192,32219,128,0,32326:0:0:0:0:
192,192,32219,128,0,32326:0:0:0:0:
64,192,32219,128,0,32326:0:0:0:0:
64,192,32326,128,0,32432:0:0:0:0:
192,192,32326,128,0,32432:0:0:0:0:
320,192,32326,128,0,32432:0:0:0:0:
448,192,32326,128,0,32432:0:0:0:0:
64,192,32432,128,0,32538:0:0:0:0:
192,192,32432,128,0,32538:0:0:0:0:
320,192,32432,128,0,32538:0:0:0:0:
448,192,32432,128,0,32538:0:0:0:0:
448,192,32538,128,0,32645:0:0:0:0:
320,192,32538,128,0,32645:0:0:0:0:
192,192,32538,128,0,32645:0:0:0:0:
64,192,32538,128,0,32645:0:0:0:0:
64,192,32645,128,0,32751:0:0:0:0:
192,192,32645,128,0,32751:0:0:0:0:
320,192,32645,128,0,32751:0:0:0:0:
448,192,32645,128,0,32751:0:0:0:0:
448,192,32751,128,0,32858:0:0:0:0:
320,192,32751,128,0,32858:0:0:0:0:
192,192,32751,128,0,32858:0:0:0:0:
64,192,32751,128,0,32858:0:0:0:0:
64,192,32858,128,0,32964:0:0:0:0:
192,192,32858,128,0,32964:0:0:0:0:
320,192,32858,128,0,32964:0:0:0:0:
448,192,32858,128,0,32964:0:0:0:0:
64,192,33070,128,0,33921:0:0:0:0:
192,192,33283,1,0,0:0:0:0:
320,192,33496,1,0,0:0:0:0:
448,192,33709,1,0,0:0:0:0:
448,192,33921,128,0,34773:0:0:0:0:
192,192,34134,1,0,0:0:0:0:
64,192,34347,1,0,0:0:0:0:
320,192,34560,1,0,0:0:0:0:
192,192,34773,128,0,35517:0:0:0:0:
320,192,34985,1,0,0:0:0:0:
448,192,35198,1,0,0:0:0:0:
320,192,35411,1,0,0:0:0:0:
64,192,35624,1,0,0:0:0:0:
64,192,35624,1,0,0:0:0:0:
192,192,35624,1,0,0:0:0:0:
64,192,35730,1,0,0:0:0:0:
192,192,35730,1,0,0:0:0:0:
320,192,35837,1,0,0:0:0:0:
448,192,35837,1,0,0:0:0:0:
320,192,35943,1,0,0:0:0:0:
448,192,35943,1,0,0:0:0:0:
192,192,36049,1,0,0:0:0:0:
64,192,36049,1,0,0:0:0:0:
192,192,36156,1,0,0:0:0:0:
64,192,36156,1,0,0:0:0:0:
320,192,36262,1,0,0:0:0:0:
448,192,36262,1,0,0:0:0:0:
320,192,36369,1,0,0:0:0:0:
448,192,36369,1,0,0:0:0:0:
192,192,36475,1,0,0:0:0:0:
64,192,36475,1,0,0:0:0:0:
192,192,36581,1,0,0:0:0:0:
64,192,36581,1,0,0:0:0:0:
320,192,36688,1,0,0:0:0:0:
448,192,36688,1,0,0:0:0:0:
320,192,36794,1,0,0:0:0:0:
448,192,36794,1,0,0:0:0:0:
192,192,36901,1,0,0:0:0:0:
64,192,36901,1,0,0:0:0:0:
192,192,37007,1,0,0:0:0:0:
64,192,37007,1,0,0:0:0:0:
320,192,37113,1,0,0:0:0:0:
448,192,37113,1,0,0:0:0:0:
448,192,37220,1,0,0:0:0:0:
320,192,37220,1,0,0:0:0:0:
192,192,37326,1,0,0:0:0:0:
64,192,37326,1,0,0:0:0:0:
320,192,37326,1,0,0:0:0:0:
448,192,37326,1,0,0:0:0:0:
192,192,37433,1,0,0:0:0:0:
320,192,37539,1,0,0:0:0:0:
192,192,37539,1,0,0:0:0:0:
64,192,37539,1,0,0:0:0:0:
448,192,37539,1,0,0:0:0:0:
320,192,37645,1,0,0:0:0:0:
320,192,37752,1,0,0:0:0:0:
448,192,37752,1,0,0:0:0:0:
64,192,37752,1,0,0:0:0:0:
192,192,37752,1,0,0:0:0:0:
192,192,37858,1,0,0:0:0:0:
320,192,37965,1,0,0:0:0:0:
448,192,37965,1,0,0:0:0:0:
192,192,37965,1,0,0:0:0:0:
64,192,37965,1,0,0:0:0:0:
192,192,38071,1,0,0:0:0:0:
320,192,38177,1,0,0:0:0:0:
448,192,38177,1,0,0:0:0:0:
192,192,38177,1,0,0:0:0:0:
64,192,38177,1,0,0:0:0:0:
320,192,38284,1,0,0:0:0:0:
192,192,38390,1,0,0:0:0:0:
64,192,38390,1,0,0:0:0:0:
320,192,38390,1,0,0:0:0:0:
448,192,38390,1,0,0:0:0:0:
64,192,38496,1,0,0:0:0:0:
192,192,38603,1,0,0:0:0:0:
320,192,38603,1,0,0:0:0:0:
448,192,38603,1,0,0:0:0:0:
64,192,38603,1,0,0:0:0:0:
64,192,38709,1,0,0:0:0:0:
192,192,38816,1,0,0:0:0:0:
448,192,38922,1,0,0:0:0:0:
320,192,38922,1,0,0:0:0:0:
448,192,39025,128,0,40776:0:0:0:0:
192,192,39025,128,0,40776:0:0:0:0:
64,192,39025,128,0,40776:0:0:0:0:
320,192,39028,128,0,40776:0:0:0:0:
64,192,39243,1,0,0:0:0:0:
192,192,39462,1,0,0:0:0:0:
64,192,39681,1,0,0:0:0:0:
320,192,39900,1,0,0:0:0:0:
448,192,40119,1,0,0:0:0:0:
192,192,40338,1,0,0:0:0:0:
320,192,40557,1,0,0:0:0:0:
320,192,40776,128,0,42527:0:0:0:0:
192,192,40776,128,0,42527:0:0:0:0:
64,192,40776,128,0,42527:0:0:0:0:
448,192,40776,128,0,42527:0:0:0:0:
64,192,40995,1,0,0:0:0:0:
320,192,41213,1,0,0:0:0:0:
192,192,41432,1,0,0:0:0:0:
448,192,41651,1,0,0:0:0:0:
320,192,41870,1,0,0:0:0:0:
192,192,42089,1,0,0:0:0:0:
64,192,42308,1,0,0:0:0:0:
64,192,42527,128,0,44278:0:0:0:0:
448,192,42527,128,0,44278:0:0:0:0:
320,192,42527,128,0,44278:0:0:0:0:
192,192,42527,128,0,44278:0:0:0:0:
64,192,42746,1,0,0:0:0:0:
192,192,42965,1,0,0:0:0:0:
64,192,43183,1,0,0:0:0:0:
320,192,43402,1,0,0:0:0:0:
448,192,43621,1,0,0:0:0:0:
192,192,43840,1,0,0:0:0:0:
320,192,44059,1,0,0:0:0:0:
448,192,44278,128,0,45920:0:0:0:0:
320,192,44278,128,0,45920:0:0:0:0:
64,192,44278,128,0,45920:0:0:0:0:
192,192,44278,128,0,45920:0:0:0:0:
64,192,44497,1,0,0:0:0:0:
320,192,44716,1,0,0:0:0:0:
192,192,44935,5,0,0:0:0:0:
448,192,45153,1,0,0:0:0:0:
320,192,45372,1,0,0:0:0:0:
192,192,45591,1,0,0:0:0:0:
64,192,45810,1,0,0:0:0:0:
64,192,46174,1,0,0:0:0:0:
64,192,46391,1,0,0:0:0:0:
320,192,46391,1,0,0:0:0:0:
192,192,46608,1,0,0:0:0:0:
320,192,46825,1,0,0:0:0:0:
64,192,46825,1,0,0:0:0:0:
320,192,47043,1,0,0:0:0:0:
448,192,47260,1,0,0:0:0:0:
192,192,47260,1,0,0:0:0:0:
320,192,47477,1,0,0:0:0:0:
192,192,47694,1,0,0:0:0:0:
64,192,47694,1,0,0:0:0:0:
320,192,47694,1,0,0:0:0:0:
448,192,47912,1,0,0:0:0:0:
192,192,48129,1,0,0:0:0:0:
320,192,48129,1,0,0:0:0:0:
192,192,48346,1,0,0:0:0:0:
448,192,48563,1,0,0:0:0:0:
64,192,48563,1,0,0:0:0:0:
192,192,48781,1,0,0:0:0:0:
320,192,48998,1,0,0:0:0:0:
64,192,48998,1,0,0:0:0:0:
192,192,49215,1,0,0:0:0:0:
448,192,49432,1,0,0:0:0:0:
320,192,49432,1,0,0:0:0:0:
192,192,49432,1,0,0:0:0:0:
64,192,49432,1,0,0:0:0:0:
192,192,49650,1,0,0:0:0:0:
320,192,49867,1,0,0:0:0:0:
448,192,49867,1,0,0:0:0:0:
192,192,50084,1,0,0:0:0:0:
64,192,50301,1,0,0:0:0:0:
320,192,50301,1,0,0:0:0:0:
192,192,50519,1,0,0:0:0:0:
320,192,50736,1,0,0:0:0:0:
448,192,50736,1,0,0:0:0:0:
192,192,50953,1,0,0:0:0:0:
64,192,51170,1,0,0:0:0:0:
320,192,51170,1,0,0:0:0:0:
192,192,51388,1,0,0:0:0:0:
64,192,51605,1,0,0:0:0:0:
320,192,51605,1,0,0:0:0:0:
192,192,51822,1,0,0:0:0:0:
320,192,52039,1,0,0:0:0:0:
448,192,52039,1,0,0:0:0:0:
192,192,52256,1,0,0:0:0:0:
192,192,52474,1,0,0:0:0:0:
64,192,52474,1,0,0:0:0:0:
320,192,52691,1,0,0:0:0:0:
192,192,52908,1,0,0:0:0:0:
448,192,52908,1,0,0:0:0:0:
320,192,52908,1,0,0:0:0:0:
64,192,52908,1,0,0:0:0:0:
64,192,53125,1,0,0:0:0:0:
320,192,53343,1,0,0:0:0:0:
192,192,53343,1,0,0:0:0:0:
320,192,53560,1,0,0:0:0:0:
192,192,53777,1,0,0:0:0:0:
64,192,53777,1,0,0:0:0:0:
320,192,53994,1,0,0:0:0:0:
448,192,54212,1,0,0:0:0:0:
192,192,54212,1,0,0:0:0:0:
320,192,54429,1,0,0:0:0:0:
448,192,54646,1,0,0:0:0:0:
192,192,54646,1,0,0:0:0:0:
320,192,54863,1,0,0:0:0:0:
192,192,55081,1,0,0:0:0:0:
64,192,55081,1,0,0:0:0:0:
64,192,55406,1,0,0:0:0:0:
192,192,55624,1,0,0:0:0:0:
448,192,55624,1,0,0:0:0:0:
320,192,55732,1,0,0:0:0:0:
192,192,55950,1,0,0:0:0:0:
64,192,55950,1,0,0:0:0:0:
448,192,55950,1,0,0:0:0:0:
192,192,56167,1,0,0:0:0:0:
320,192,56384,1,0,0:0:0:0:
448,192,56384,1,0,0:0:0:0:
192,192,56384,1,0,0:0:0:0:
64,192,56384,1,0,0:0:0:0:
192,192,56601,128,0,56819:0:0:0:0:
320,192,56819,128,0,57036:0:0:0:0:
448,192,57036,128,0,57253:0:0:0:0:
192,192,57253,128,0,57470:0:0:0:0:
64,192,57470,128,0,57688:0:0:0:0:
320,192,57688,128,0,57905:0:0:0:0:
192,192,57905,128,0,58122:0:0:0:0:
64,192,58122,1,0,0:0:0:0:
448,192,58122,1,0,0:0:0:0:
320,192,58122,128,0,58991:0:0:0:0:
192,192,58339,1,0,0:0:0:0:
448,192,58339,1,0,0:0:0:0:
64,192,58339,1,0,0:0:0:0:
192,192,58556,1,0,0:0:0:0:
448,192,58556,1,0,0:0:0:0:
64,192,58556,1,0,0:0:0:0:
192,192,58774,1,0,0:0:0:0:
448,192,58774,1,0,0:0:0:0:
64,192,58774,1,0,0:0:0:0:
64,192,58991,128,0,59860:0:0:0:0:
192,192,58991,1,0,0:0:0:0:
448,192,58991,1,0,0:0:0:0:
320,192,58991,1,0,0:0:0:0:
192,192,59208,1,0,0:0:0:0:
320,192,59208,1,0,0:0:0:0:
448,192,59208,1,0,0:0:0:0:
192,192,59425,1,0,0:0:0:0:
320,192,59425,1,0,0:0:0:0:
448,192,59425,1,0,0:0:0:0:
192,192,59643,1,0,0:0:0:0:
320,192,59643,1,0,0:0:0:0:
448,192,59643,1,0,0:0:0:0:
192,192,59860,1,0,0:0:0:0:
192,192,59860,128,0,61584:0:0:0:0:
192,192,59860,1,0,0:0:0:0:
320,192,59860,1,0,0:0:0:0:
448,192,59860,1,0,0:0:0:0:
320,192,60084,1,0,0:0:0:0:
64,192,60084,1,0,0:0:0:0:
192,192,60298,1,0,0:0:0:0:
320,192,60512,1,0,0:0:0:0:
64,192,60727,1,0,0:0:0:0:
448,192,60727,1,0,0:0:0:0:
320,192,60834,1,0,0:0:0:0:
192,192,61155,1,0,0:0:0:0:
64,192,61370,1,0,0:0:0:0:
320,192,61370,1,0,0:0:0:0:
448,192,61584,128,0,63298:0:0:0:0:
192,192,61584,1,0,0:0:0:0:
320,192,61798,1,0,0:0:0:0:
192,192,62012,1,0,0:0:0:0:
64,192,62227,1,0,0:0:0:0:
320,192,62227,1,0,0:0:0:0:
448,192,62441,1,0,0:0:0:0:
192,192,62655,1,0,0:0:0:0:
320,192,62655,1,0,0:0:0:0:
192,192,62870,1,0,0:0:0:0:
64,192,63084,1,0,0:0:0:0:
320,192,63084,1,0,0:0:0:0:
192,192,63298,128,0,65012:0:0:0:0:
192,192,63298,1,0,0:0:0:0:
320,192,63512,1,0,0:0:0:0:
192,192,63727,1,0,0:0:0:0:
320,192,63941,1,0,0:0:0:0:
448,192,63941,1,0,0:0:0:0:
192,192,64155,1,0,0:0:0:0:
64,192,64370,1,0,0:0:0:0:
320,192,64370,1,0,0:0:0:0:
192,192,64584,1,0,0:0:0:0:
448,192,65012,1,0,0:0:0:0:
320,192,65012,1,0,0:0:0:0:
192,192,65012,128,0,66727:0:0:0:0:
192,192,65012,1,0,0:0:0:0:
64,192,65227,1,0,0:0:0:0:
320,192,65227,1,0,0:0:0:0:
192,192,65441,1,0,0:0:0:0:
448,192,65655,1,0,0:0:0:0:
320,192,65655,1,0,0:0:0:0:
192,192,65870,1,0,0:0:0:0:
320,192,66084,1,0,0:0:0:0:
64,192,66084,1,0,0:0:0:0:
64,192,66298,1,0,0:0:0:0:
320,192,66298,1,0,0:0:0:0:
192,192,66512,1,0,0:0:0:0:
192,192,66727,128,0,68441:0:0:0:0:
320,192,66727,1,0,0:0:0:0:
192,192,66941,1,0,0:0:0:0:
320,192,67155,1,0,0:0:0:0:
448,192,67370,1,0,0:0:0:0:
192,192,67370,1,0,0:0:0:0:
320,192,67584,1,0,0:0:0:0:
192,192,67798,1,0,0:0:0:0:
64,192,67798,1,0,0:0:0:0:
320,192,68227,1,0,0:0:0:0:
448,192,68441,1,0,0:0:0:0:
320,192,68441,1,0,0:0:0:0:
64,192,68441,128,0,70155:0:0:0:0:
192,192,68655,1,0,0:0:0:0:
64,192,68655,1,0,0:0:0:0:
320,192,68655,1,0,0:0:0:0:
64,192,68870,1,0,0:0:0:0:
320,192,69084,1,0,0:0:0:0:
448,192,69084,1,0,0:0:0:0:
192,192,69298,1,0,0:0:0:0:
320,192,69512,1,0,0:0:0:0:
320,192,69727,1,0,0:0:0:0:
448,192,70155,1,0,0:0:0:0:
320,192,70155,1,0,0:0:0:0:
192,192,70590,1,0,0:0:0:0:
320,192,70590,1,0,0:0:0:0:
64,192,70590,1,0,0:0:0:0:
448,192,70590,1,0,0:0:0:0:
320,192,71026,1,0,0:0:0:0:
448,192,71026,1,0,0:0:0:0:
64,192,71461,1,0,0:0:0:0:
192,192,71461,1,0,0:0:0:0:
320,192,71461,1,0,0:0:0:0:
448,192,71461,1,0,0:0:0:0:
64,192,71897,1,0,0:0:0:0:
192,192,71897,1,0,0:0:0:0:
320,192,72332,1,0,0:0:0:0:
448,192,72332,1,0,0:0:0:0:
192,192,72332,1,0,0:0:0:0:
64,192,72332,1,0,0:0:0:0:
320,192,72768,1,0,0:0:0:0:
192,192,72768,1,0,0:0:0:0:
192,192,73204,1,0,0:0:0:0:
64,192,73204,1,0,0:0:0:0:
320,192,73421,1,0,0:0:0:0:
448,192,73421,1,0,0:0:0:0:
64,192,73639,1,0,0:0:0:0:
320,192,73639,1,0,0:0:0:0:
320,192,74075,1,0,0:0:0:0:
448,192,74075,1,0,0:0:0:0:
192,192,74075,1,0,0:0:0:0:
64,192,74075,1,0,0:0:0:0:
192,192,74510,1,0,0:0:0:0:
320,192,74510,1,0,0:0:0:0:
320,192,74946,1,0,0:0:0:0:
448,192,74946,1,0,0:0:0:0:
192,192,74946,1,0,0:0:0:0:
64,192,74946,1,0,0:0:0:0:
448,192,75381,1,0,0:0:0:0:
320,192,75381,1,0,0:0:0:0:
192,192,75381,1,0,0:0:0:0:
64,192,75381,1,0,0:0:0:0:
320,192,75599,1,0,0:0:0:0:
192,192,75708,1,0,0:0:0:0:
64,192,75708,1,0,0:0:0:0:
320,192,75817,1,0,0:0:0:0:
192,192,75926,1,0,0:0:0:0:
64,192,75926,1,0,0:0:0:0:
320,192,76035,1,0,0:0:0:0:
192,192,76144,1,0,0:0:0:0:
64,192,76144,1,0,0:0:0:0:
192,192,76253,1,0,0:0:0:0:
320,192,76361,1,0,0:0:0:0:
448,192,76361,1,0,0:0:0:0:
192,192,76470,1,0,0:0:0:0:
320,192,76579,1,0,0:0:0:0:
448,192,76579,1,0,0:0:0:0:
64,192,76579,1,0,0:0:0:0:
192,192,76797,1,0,0:0:0:0:
64,192,76797,1,0,0:0:0:0:
320,192,76797,1,0,0:0:0:0:
448,192,76906,1,0,0:0:0:0:
192,192,76906,1,0,0:0:0:0:
448,192,77015,1,0,0:0:0:0:
64,192,77015,1,0,0:0:0:0:
320,192,77015,1,0,0:0:0:0:
192,192,77044,1,0,0:0:0:0:
192,192,77149,1,0,0:0:0:0:
64,192,77149,1,0,0:0:0:0:
320,192,77255,1,0,0:0:0:0:
448,192,77360,1,0,0:0:0:0:
192,192,77360,1,0,0:0:0:0:
320,192,77572,1,0,0:0:0:0:
320,192,77677,1,0,0:0:0:0:
192,192,77677,1,0,0:0:0:0:
192,192,77677,1,0,0:0:0:0:
320,192,77888,1,0,0:0:0:0:
448,192,77888,1,0,0:0:0:0:
192,192,77994,1,0,0:0:0:0:
64,192,78100,1,0,0:0:0:0:
320,192,78100,1,0,0:0:0:0:
192,192,78205,1,0,0:0:0:0:
64,192,78311,1,0,0:0:0:0:
320,192,78311,1,0,0:0:0:0:
192,192,78416,1,0,0:0:0:0:
320,192,78522,1,0,0:0:0:0:
448,192,78522,1,0,0:0:0:0:
192,192,78628,1,0,0:0:0:0:
192,192,78733,1,0,0:0:0:0:
64,192,78733,1,0,0:0:0:0:
320,192,78839,1,0,0:0:0:0:
320,192,78944,1,0,0:0:0:0:
448,192,78944,1,0,0:0:0:0:
192,192,79050,1,0,0:0:0:0:
192,192,79156,1,0,0:0:0:0:
64,192,79156,1,0,0:0:0:0:
320,192,79261,1,0,0:0:0:0:
192,192,79367,1,0,0:0:0:0:
64,192,79367,1,0,0:0:0:0:
320,192,79473,1,0,0:0:0:0:
320,192,79578,1,0,0:0:0:0:
448,192,79578,1,0,0:0:0:0:
192,192,79684,1,0,0:0:0:0:
192,192,79789,1,0,0:0:0:0:
320,192,79789,1,0,0:0:0:0:
320,192,79895,1,0,0:0:0:0:
192,192,80001,1,0,0:0:0:0:
64,192,80001,1,0,0:0:0:0:
320,192,80106,1,0,0:0:0:0:
192,192,80212,1,0,0:0:0:0:
64,192,80212,1,0,0:0:0:0:
192,192,80317,1,0,0:0:0:0:
320,192,80423,1,0,0:0:0:0:
448,192,80423,1,0,0:0:0:0:
192,192,80529,1,0,0:0:0:0:
64,192,80634,1,0,0:0:0:0:
192,192,80634,1,0,0:0:0:0:
320,192,80740,1,0,0:0:0:0:
320,192,80845,1,0,0:0:0:0:
448,192,80845,1,0,0:0:0:0:
192,192,80951,1,0,0:0:0:0:
448,192,81057,1,0,0:0:0:0:
320,192,81057,1,0,0:0:0:0:
192,192,81162,1,0,0:0:0:0:
192,192,81268,1,0,0:0:0:0:
64,192,81268,1,0,0:0:0:0:
320,192,81373,1,0,0:0:0:0:
448,192,81479,1,0,0:0:0:0:
192,192,81479,1,0,0:0:0:0:
192,192,81585,1,0,0:0:0:0:
320,192,81690,1,0,0:0:0:0:
448,192,81690,1,0,0:0:0:0:
192,192,81796,1,0,0:0:0:0:
192,192,81902,1,0,0:0:0:0:
64,192,81902,1,0,0:0:0:0:
192,192,82007,1,0,0:0:0:0:
64,192,82113,1,0,0:0:0:0:
320,192,82113,1,0,0:0:0:0:
192,192,82218,1,0,0:0:0:0:
320,192,82324,1,0,0:0:0:0:
448,192,82324,1,0,0:0:0:0:
192,192,82430,1,0,0:0:0:0:
320,192,82535,1,0,0:0:0:0:
448,192,82535,1,0,0:0:0:0:
192,192,82641,1,0,0:0:0:0:
64,192,82746,1,0,0:0:0:0:
192,192,82746,1,0,0:0:0:0:
320,192,82852,1,0,0:0:0:0:
192,192,82958,1,0,0:0:0:0:
64,192,82958,1,0,0:0:0:0:
320,192,83063,1,0,0:0:0:0:
448,192,83169,1,0,0:0:0:0:
192,192,83169,1,0,0:0:0:0:
320,192,83274,1,0,0:0:0:0:
192,192,83380,1,0,0:0:0:0:
64,192,83380,1,0,0:0:0:0:
320,192,83486,1,0,0:0:0:0:
192,192,83591,1,0,0:0:0:0:
64,192,83591,1,0,0:0:0:0:
320,192,83697,1,0,0:0:0:0:
192,192,83802,1,0,0:0:0:0:
64,192,83802,1,0,0:0:0:0:
448,192,83908,1,0,0:0:0:0:
320,192,84014,1,0,0:0:0:0:
448,192,84014,1,0,0:0:0:0:
192,192,84119,1,0,0:0:0:0:
64,192,84225,1,0,0:0:0:0:
192,192,84225,1,0,0:0:0:0:
320,192,84331,1,0,0:0:0:0:
192,192,84436,1,0,0:0:0:0:
64,192,84436,1,0,0:0:0:0:
448,192,84542,1,0,0:0:0:0:
320,192,84647,1,0,0:0:0:0:
192,192,84647,1,0,0:0:0:0:
64,192,84753,1,0,0:0:0:0:
320,192,84859,1,0,0:0:0:0:
448,192,84859,1,0,0:0:0:0:
192,192,84964,1,0,0:0:0:0:
320,192,85070,1,0,0:0:0:0:
192,192,85070,1,0,0:0:0:0:
192,192,85175,1,0,0:0:0:0:
64,192,85281,1,0,0:0:0:0:
192,192,85387,1,0,0:0:0:0:
320,192,85492,1,0,0:0:0:0:
448,192,85492,1,0,0:0:0:0:
448,192,85598,1,0,0:0:0:0:
448,192,85703,1,0,0:0:0:0:
192,192,85703,1,0,0:0:0:0:
64,192,85703,1,0,0:0:0:0:
448,192,85809,1,0,0:0:0:0:
448,192,85915,1,0,0:0:0:0:
192,192,85915,1,0,0:0:0:0:
64,192,85915,1,0,0:0:0:0:
448,192,86020,1,0,0:0:0:0:
448,192,86126,1,0,0:0:0:0:
192,192,86126,1,0,0:0:0:0:
64,192,86126,1,0,0:0:0:0:
448,192,86231,1,0,0:0:0:0:
448,192,86337,1,0,0:0:0:0:
192,192,86337,1,0,0:0:0:0:
64,192,86337,1,0,0:0:0:0:
448,192,86443,1,0,0:0:0:0:
448,192,86548,1,0,0:0:0:0:
192,192,86548,1,0,0:0:0:0:
64,192,86548,1,0,0:0:0:0:
448,192,86654,1,0,0:0:0:0:
448,192,86760,1,0,0:0:0:0:
192,192,86760,1,0,0:0:0:0:
64,192,86760,1,0,0:0:0:0:
448,192,86865,1,0,0:0:0:0:
448,192,86971,1,0,0:0:0:0:
192,192,86971,1,0,0:0:0:0:
64,192,86971,1,0,0:0:0:0:
448,192,87076,1,0,0:0:0:0:
448,192,87182,1,0,0:0:0:0:
192,192,87182,1,0,0:0:0:0:
64,192,87182,1,0,0:0:0:0:
320,192,87284,1,0,0:0:0:0:
192,192,87284,1,0,0:0:0:0:
64,192,87387,1,0,0:0:0:0:
192,192,87490,1,0,0:0:0:0:
64,192,87490,1,0,0:0:0:0:
320,192,87593,1,0,0:0:0:0:
448,192,87696,1,0,0:0:0:0:
192,192,87696,1,0,0:0:0:0:
320,192,87799,1,0,0:0:0:0:
448,192,87901,1,0,0:0:0:0:
192,192,87901,1,0,0:0:0:0:
320,192,88004,1,0,0:0:0:0:
192,192,88107,1,0,0:0:0:0:
64,192,88107,1,0,0:0:0:0:
320,192,88210,1,0,0:0:0:0:
448,192,88313,1,0,0:0:0:0:
192,192,88313,1,0,0:0:0:0:
320,192,88416,1,0,0:0:0:0:
448,192,88519,1,0,0:0:0:0:
64,192,88519,1,0,0:0:0:0:
192,192,88621,1,0,0:0:0:0:
64,192,88724,1,0,0:0:0:0:
192,192,88724,1,0,0:0:0:0:
448,192,88827,1,0,0:0:0:0:
320,192,88930,1,0,0:0:0:0:
192,192,88930,1,0,0:0:0:0:
448,192,89033,1,0,0:0:0:0:
192,192,89136,1,0,0:0:0:0:
64,192,89136,1,0,0:0:0:0:
320,192,89238,1,0,0:0:0:0:
192,192,89341,1,0,0:0:0:0:
320,192,89341,1,0,0:0:0:0:
448,192,89444,1,0,0:0:0:0:
192,192,89547,1,0,0:0:0:0:
320,192,89547,1,0,0:0:0:0:
448,192,89650,1,0,0:0:0:0:
64,192,89753,1,0,0:0:0:0:
192,192,89753,1,0,0:0:0:0:
320,192,89856,1,0,0:0:0:0:
448,192,89958,1,0,0:0:0:0:
320,192,89958,1,0,0:0:0:0:
192,192,90061,1,0,0:0:0:0:
64,192,90164,1,0,0:0:0:0:
448,192,90164,1,0,0:0:0:0:
320,192,90267,1,0,0:0:0:0:
192,192,90370,1,0,0:0:0:0:
64,192,90370,1,0,0:0:0:0:
448,192,90451,128,0,92199:0:0:0:0:
320,192,90451,128,0,90888:0:0:0:0:
192,192,90888,128,0,91325:0:0:0:0:
64,192,91325,128,0,91762:0:0:0:0:
192,192,91762,128,0,92199:0:0:0:0:
320,192,92199,128,0,92636:0:0:0:0:
64,192,92199,128,0,93948:0:0:0:0:
192,192,92636,128,0,93073:0:0:0:0:
320,192,93073,128,0,93510:0:0:0:0:
448,192,93510,128,0,93948:0:0:0:0:
192,192,93948,128,0,95696:0:0:0:0:
320,192,93948,128,0,94385:0:0:0:0:
64,192,94385,128,0,94822:0:0:0:0:
320,192,94822,128,0,95259:0:0:0:0:
448,192,95259,128,0,95696:0:0:0:0:
320,192,95696,128,0,97445:0:0:0:0:
192,192,96133,128,0,97445:0:0:0:0:
64,192,97663,1,0,0:0:0:0:
448,192,97881,1,0,0:0:0:0:
320,192,97881,1,0,0:0:0:0:
192,192,97881,1,0,0:0:0:0:
64,192,97881,1,0,0:0:0:0:
320,192,98100,1,0,0:0:0:0:
64,192,98318,1,0,0:0:0:0:
320,192,98318,1,0,0:0:0:0:
448,192,98318,1,0,0:0:0:0:
192,192,98537,1,0,0:0:0:0:
64,192,98755,1,0,0:0:0:0:
320,192,98755,1,0,0:0:0:0:
448,192,98755,1,0,0:0:0:0:
192,192,98755,1,0,0:0:0:0:
192,192,98973,1,0,0:0:0:0:
320,192,99192,1,0,0:0:0:0:
448,192,99192,1,0,0:0:0:0:
64,192,99192,1,0,0:0:0:0:
64,192,99438,1,0,0:0:0:0:
192,192,99656,1,0,0:0:0:0:
320,192,99656,1,0,0:0:0:0:
448,192,99656,1,0,0:0:0:0:
64,192,99656,1,0,0:0:0:0:
192,192,99847,1,0,0:0:0:0:
192,192,100066,1,0,0:0:0:0:
320,192,100066,1,0,0:0:0:0:
448,192,100066,1,0,0:0:0:0:
192,192,100284,1,0,0:0:0:0:
64,192,100502,1,0,0:0:0:0:
192,192,100502,1,0,0:0:0:0:
320,192,100502,1,0,0:0:0:0:
448,192,100502,1,0,0:0:0:0:
320,192,100721,1,0,0:0:0:0:
64,192,100939,1,0,0:0:0:0:
192,192,100939,1,0,0:0:0:0:
448,192,100939,1,0,0:0:0:0:
320,192,101158,1,0,0:0:0:0:
448,192,101376,1,0,0:0:0:0:
320,192,101376,1,0,0:0:0:0:
192,192,101376,1,0,0:0:0:0:
64,192,101376,1,0,0:0:0:0:
320,192,101594,1,0,0:0:0:0:
448,192,101813,1,0,0:0:0:0:
320,192,101813,1,0,0:0:0:0:
192,192,101813,1,0,0:0:0:0:
64,192,101813,1,0,0:0:0:0:
64,192,102031,1,0,0:0:0:0:
64,192,102250,1,0,0:0:0:0:
448,192,102250,1,0,0:0:0:0:
320,192,102250,1,0,0:0:0:0:
192,192,102250,1,0,0:0:0:0:
192,192,102468,1,0,0:0:0:0:
448,192,102687,1,0,0:0:0:0:
192,192,102687,1,0,0:0:0:0:
64,192,102687,1,0,0:0:0:0:
192,192,102905,1,0,0:0:0:0:
448,192,103123,1,0,0:0:0:0:
320,192,103123,1,0,0:0:0:0:
192,192,103123,1,0,0:0:0:0:
64,192,103123,1,0,0:0:0:0:
192,192,103342,1,0,0:0:0:0:
320,192,103560,1,0,0:0:0:0:
448,192,103560,1,0,0:0:0:0:
64,192,103560,1,0,0:0:0:0:
192,192,103779,1,0,0:0:0:0:
64,192,103997,1,0,0:0:0:0:
192,192,103997,1,0,0:0:0:0:
320,192,103997,1,0,0:0:0:0:
448,192,103997,1,0,0:0:0:0:
448,192,104215,1,0,0:0:0:0:
448,192,104434,1,0,0:0:0:0:
320,192,104434,1,0,0:0:0:0:
192,192,104434,1,0,0:0:0:0:
64,192,104652,1,0,0:0:0:0:
192,192,104871,1,0,0:0:0:0:
320,192,104871,1,0,0:0:0:0:
64,192,104871,1,0,0:0:0:0:
448,192,104871,1,0,0:0:0:0:
192,192,105089,1,0,0:0:0:0:
320,192,105308,1,0,0:0:0:0:
192,192,105308,1,0,0:0:0:0:
448,192,105308,1,0,0:0:0:0:
64,192,105526,1,0,0:0:0:0:
64,192,105744,1,0,0:0:0:0:
192,192,105744,1,0,0:0:0:0:
320,192,105744,1,0,0:0:0:0:
448,192,105744,1,0,0:0:0:0:
448,192,105963,1,0,0:0:0:0:
192,192,106181,1,0,0:0:0:0:
320,192,106181,1,0,0:0:0:0:
448,192,106181,1,0,0:0:0:0:
64,192,106400,1,0,0:0:0:0:
64,192,106618,1,0,0:0:0:0:
192,192,106618,1,0,0:0:0:0:
320,192,106618,1,0,0:0:0:0:
448,192,106618,1,0,0:0:0:0:
64,192,106836,1,0,0:0:0:0:
64,192,107055,1,0,0:0:0:0:
192,192,107055,1,0,0:0:0:0:
320,192,107055,1,0,0:0:0:0:
320,192,107273,1,0,0:0:0:0:
64,192,107492,1,0,0:0:0:0:
192,192,107492,1,0,0:0:0:0:
320,192,107492,1,0,0:0:0:0:
448,192,107492,1,0,0:0:0:0:
192,192,107710,1,0,0:0:0:0:
448,192,107929,1,0,0:0:0:0:
320,192,107929,1,0,0:0:0:0:
192,192,107929,1,0,0:0:0:0:
448,192,108147,1,0,0:0:0:0:
64,192,108362,1,0,0:0:0:0:
192,192,108365,1,0,0:0:0:0:
320,192,108365,1,0,0:0:0:0:
448,192,108365,1,0,0:0:0:0:
320,192,108584,1,0,0:0:0:0:
320,192,108805,1,0,0:0:0:0:
448,192,108805,1,0,0:0:0:0:
64,192,108805,1,0,0:0:0:0:
192,192,109021,1,0,0:0:0:0:
448,192,109239,1,0,0:0:0:0:
320,192,109239,1,0,0:0:0:0:
192,192,109239,1,0,0:0:0:0:
64,192,109239,1,0,0:0:0:0:
320,192,109457,1,0,0:0:0:0:
320,192,109689,1,0,0:0:0:0:
448,192,109689,1,0,0:0:0:0:
192,192,109689,1,0,0:0:0:0:
64,192,109689,1,0,0:0:0:0:
64,192,109894,1,0,0:0:0:0:
192,192,109894,1,0,0:0:0:0:
320,192,109894,1,0,0:0:0:0:
448,192,109894,1,0,0:0:0:0:
64,192,110113,1,0,0:0:0:0:
192,192,110113,1,0,0:0:0:0:
320,192,110113,1,0,0:0:0:0:
448,192,110113,1,0,0:0:0:0:
64,192,110331,1,0,0:0:0:0:
192,192,110331,1,0,0:0:0:0:
320,192,110331,1,0,0:0:0:0:
448,192,110331,1,0,0:0:0:0:
64,192,110550,1,0,0:0:0:0:
192,192,110550,1,0,0:0:0:0:
320,192,110550,1,0,0:0:0:0:
448,192,110550,1,0,0:0:0:0:
64,192,110659,1,0,0:0:0:0:
192,192,110659,1,0,0:0:0:0:
320,192,110659,1,0,0:0:0:0:
448,192,110659,1,0,0:0:0:0:
64,192,110768,1,0,0:0:0:0:
192,192,110768,1,0,0:0:0:0:
320,192,110768,1,0,0:0:0:0:
448,192,110768,1,0,0:0:0:0:
64,192,110877,1,0,0:0:0:0:
192,192,110877,1,0,0:0:0:0:
320,192,110877,1,0,0:0:0:0:
448,192,110877,1,0,0:0:0:0:
64,192,110986,1,0,0:0:0:0:
192,192,110986,1,0,0:0:0:0:
320,192,110986,1,0,0:0:0:0:
448,192,110986,1,0,0:0:0:0:
64,192,111096,1,0,0:0:0:0:
192,192,111096,1,0,0:0:0:0:
320,192,111096,1,0,0:0:0:0:
448,192,111096,1,0,0:0:0:0:
64,192,111205,1,0,0:0:0:0:
192,192,111205,1,0,0:0:0:0:
320,192,111205,1,0,0:0:0:0:
448,192,111205,1,0,0:0:0:0:
64,192,111314,1,0,0:0:0:0:
192,192,111314,1,0,0:0:0:0:
320,192,111314,1,0,0:0:0:0:
448,192,111314,1,0,0:0:0:0:
64,192,111414,128,0,113119:0:0:0:0:
192,192,111627,1,0,0:0:0:0:
320,192,111627,1,0,0:0:0:0:
448,192,111840,1,0,0:0:0:0:
320,192,112053,1,0,0:0:0:0:
192,192,112053,1,0,0:0:0:0:
192,192,112266,1,0,0:0:0:0:
320,192,112479,1,0,0:0:0:0:
448,192,112479,1,0,0:0:0:0:
192,192,112693,1,0,0:0:0:0:
320,192,112906,1,0,0:0:0:0:
448,192,112906,1,0,0:0:0:0:
192,192,113119,128,0,114824:0:0:0:0:
448,192,114824,128,0,116530:0:0:0:0:
64,192,115038,1,0,0:0:0:0:
192,192,115038,1,0,0:0:0:0:
320,192,115251,1,0,0:0:0:0:
192,192,115464,1,0,0:0:0:0:
64,192,115464,1,0,0:0:0:0:
320,192,115677,1,0,0:0:0:0:
192,192,115890,5,0,0:0:0:0:
64,192,115890,1,0,0:0:0:0:
192,192,116104,1,0,0:0:0:0:
192,192,116317,1,0,0:0:0:0:
320,192,116317,1,0,0:0:0:0:
320,192,116530,128,0,118235:0:0:0:0:
64,192,116530,1,0,0:0:0:0:
192,192,116743,1,0,0:0:0:0:
448,192,116743,1,0,0:0:0:0:
64,192,116956,1,0,0:0:0:0:
192,192,117170,1,0,0:0:0:0:
64,192,117170,1,0,0:0:0:0:
192,192,117383,1,0,0:0:0:0:
448,192,117596,1,0,0:0:0:0:
192,192,117596,1,0,0:0:0:0:
448,192,117809,1,0,0:0:0:0:
192,192,118022,1,0,0:0:0:0:
64,192,118022,1,0,0:0:0:0:
64,192,118235,128,0,119941:0:0:0:0:
320,192,118449,1,0,0:0:0:0:
448,192,118449,1,0,0:0:0:0:
192,192,118662,1,0,0:0:0:0:
320,192,118875,1,0,0:0:0:0:
192,192,118875,1,0,0:0:0:0:
192,192,119088,1,0,0:0:0:0:
448,192,119301,1,0,0:0:0:0:
320,192,119301,1,0,0:0:0:0:
192,192,119515,1,0,0:0:0:0:
320,192,119728,1,0,0:0:0:0:
192,192,119728,1,0,0:0:0:0:
448,192,119941,128,0,121646:0:0:0:0:
192,192,120154,1,0,0:0:0:0:
64,192,120154,1,0,0:0:0:0:
192,192,120367,1,0,0:0:0:0:
320,192,120580,1,0,0:0:0:0:
64,192,120580,1,0,0:0:0:0:
192,192,120794,1,0,0:0:0:0:
320,192,121007,1,0,0:0:0:0:
192,192,121007,1,0,0:0:0:0:
64,192,121220,1,0,0:0:0:0:
192,192,121433,1,0,0:0:0:0:
320,192,121433,1,0,0:0:0:0:
192,192,121661,128,0,123429:0:0:0:0:
64,192,121661,128,0,122103:0:0:0:0:
320,192,122103,128,0,122545:0:0:0:0:
448,192,122545,128,0,122987:0:0:0:0:
64,192,122987,128,0,123429:0:0:0:0:
320,192,123429,128,0,125197:0:0:0:0:
448,192,123429,128,0,123871:0:0:0:0:
192,192,123871,128,0,124313:0:0:0:0:
64,192,124313,128,0,124755:0:0:0:0:
448,192,124755,128,0,125197:0:0:0:0:
192,192,125197,128,0,126965:0:0:0:0:
64,192,125197,128,0,125639:0:0:0:0:
320,192,125639,128,0,126081:0:0:0:0:
64,192,126081,128,0,126523:0:0:0:0:
320,192,126523,128,0,126965:0:0:0:0:
448,192,126965,128,0,128733:0:0:0:0:
64,192,126965,128,0,127407:0:0:0:0:
320,192,127407,128,0,127849:0:0:0:0:
192,192,127849,128,0,128291:0:0:0:0:
320,192,128291,128,0,128733:0:0:0:0:
64,192,128733,128,0,130502:0:0:0:0:
192,192,128733,128,0,129175:0:0:0:0:
320,192,129175,128,0,129618:0:0:0:0:
448,192,129618,128,0,130060:0:0:0:0:
192,192,130060,128,0,130502:0:0:0:0:
320,192,130502,128,0,132270:0:0:0:0:
448,192,130502,128,0,130944:0:0:0:0:
192,192,130944,128,0,131386:0:0:0:0:
64,192,131386,128,0,131828:0:0:0:0:
448,192,131828,128,0,132270:0:0:0:0:
64,192,132270,5,0,0:0:0:0:
192,192,132270,1,0,0:0:0:0:
64,192,133603,1,0,0:0:0:0:
192,192,133603,1,0,0:0:0:0:
320,192,133603,1,0,0:0:0:0:
448,192,133603,1,0,0:0:0:0:
64,192,135244,128,0,147025:0:0:0:0:
192,192,135244,128,0,147025:0:0:0:0:
320,192,135244,128,0,147025:0:0:0:0:
448,192,135244,128,0,147025:0:0:0:0:
