osu file format v14

[General]
AudioFilename: Pendulum - The Island (MaxNRG drum'n'bass remix).mp3
AudioLeadIn: 0
PreviewTime: 89740
Countdown: 0
SampleSet: Soft
StackLeniency: 0.7
Mode: 0
LetterboxInBreaks: 1
WidescreenStoryboard: 1

[Editor]
Bookmarks: 22068
DistanceSpacing: 0.6
BeatDivisor: 4
GridSize: 8
TimelineZoom: 1

[Metadata]
Title:The Island (MaxNRG Remix)
TitleUnicode:The Island (MaxNRG Remix)
Artist:Pendulum
ArtistUnicode:Pendulum
Creator:Spencers
Version:Normal
Source:
Tags:dnb drum'n'bass Immersion
BeatmapID:298144
BeatmapSetID:115348

[Difficulty]
HPDrainRate:3
CircleSize:3
OverallDifficulty:3
ApproachRate:4
SliderMultiplier:1.1
SliderTickRate:2

[Events]
//Background and Video events
0,0,"The+standard+island.jpg",0,0
//Break Periods
//Storyboard Layer 0 (Background)
//Storyboard Layer 1 (Fail)
//Storyboard Layer 2 (Pass)
//Storyboard Layer 3 (Foreground)
//Storyboard Sound Samples

[TimingPoints]
2844,344.827586206897,4,2,1,60,1,0
46981,-83.3333333333333,4,1,1,63,0,1
69050,-100,4,1,1,50,0,0
91119,-100,4,1,1,80,0,0
91464,-100,4,1,1,57,0,0
113188,-83.3333333333333,4,1,1,65,0,1
135257,-100,4,1,1,65,0,0

[Colours]
Combo1 : 253,184,138
Combo2 : 0,87,0
Combo3 : 117,0,117
Combo4 : 96,77,26
Combo5 : 0,65,130
Combo6 : 116,153,252
Combo7 : 255,70,70
Combo8 : 162,255,125

[HitObjects]
256,192,22154,12,4,24912,0:3:0:0:
176,136,25602,5,2,0:0:0:0:
104,196,25947,1,2,0:0:0:0:
68,280,26292,2,0,P|108:316|176:312,1,110,2|0,0:0|0:0,0:0:0:0:
192,236,26981,2,0,P|264:164|240:52,1,220,2|0,0:0|0:0,0:0:0:0:
176,136,28016,1,2,0:0:0:0:
108,72,28361,1,2,0:0:0:0:
80,264,29050,6,0,P|128:288|188:268,1,110,2|0,0:0|0:0,0:0:0:0:
244,208,29740,2,0,B|292:208|320:240|324:288|324:288|364:316,1,165,2|0,0:0|0:0,0:0:0:0:
388,320,30430,6,0,L|448:224,1,110,6|0,0:0|0:0,0:0:0:0:
408,136,31119,2,0,P|376:96|304:88,1,110,2|0,0:0|0:0,0:0:0:0:
224,104,31809,2,0,P|152:120|80:48,2,165,2|0|2,0:0|0:0|0:0,0:0:0:0:
272,192,33188,5,6,0:0:0:0:
224,272,33533,1,0,0:0:0:0:
136,312,33878,2,0,L|76:280,1,55,2|0,0:0|0:0,0:0:0:0:
224,272,34395,2,0,P|304:276|364:160,1,220,2|2,0:0|0:0,0:0:0:0:
344,128,35257,2,0,P|312:88|320:24,1,110,2|2,0:0|0:0,0:0:0:0:
216,48,35947,70,0,P|184:120|104:152,1,165,6|0,0:0|0:0,0:0:0:0:
64,160,36637,2,0,L|48:280,1,110,2|2,0:0|0:0,0:0:0:0:
144,248,37326,2,0,P|232:304|320:240,1,220,2|0,0:0|0:0,0:0:0:0:
232,208,38361,1,2,0:0:0:0:
232,208,38706,6,0,L|280:96,1,110,6|0,0:0|0:0,0:0:0:0:
360,56,39395,2,0,L|472:104,1,110,2|0,0:0|0:0,0:0:0:0:
456,200,40085,2,0,P|424:248|368:280,1,110,2|0,0:0|0:0,0:0:0:0:
296,320,40775,2,0,P|248:288|192:280,1,110,2|0,0:0|0:0,0:0:0:0:
136,352,41464,6,0,P|104:280|152:200,1,165,6|0,0:0|0:0,0:0:0:0:
176,192,42154,2,0,P|216:120|184:48,1,165,2|0,0:0|0:0,0:0:0:0:
152,24,42844,1,2,0:0:0:0:
336,64,43533,6,0,P|376:104|432:104,1,110,2|2,0:0|0:0,0:0:0:0:
472,184,44223,2,0,P|408:232|328:224,1,165,6|0,0:0|0:0,0:0:0:0:
296,200,44912,1,2,0:0:0:0:
208,232,45257,1,2,0:0:0:0:
120,256,45602,1,2,0:0:0:0:
32,280,45947,1,2,0:0:0:0:
56,184,46292,2,0,L|80:120,2,55,0|0|2,0:0|0:0|1:1,0:0:0:0:
152,160,46981,6,0,L|280:112,1,131.99999597168,6|0,0:0|0:0,0:0:0:0:
376,152,47671,2,0,P|392:216|456:248,1,131.99999597168,8|0,0:0|0:0,0:0:0:0:
368,320,48361,1,2,0:0:0:0:
272,280,48706,1,0,0:0:0:0:
176,320,49050,2,0,P|120:288|104:224,1,131.99999597168,8|0,0:0|0:0,0:0:0:0:
200,216,49740,6,0,P|256:184|328:200,1,131.99999597168,2|0,0:0|0:0,0:0:0:0:
416,136,50430,2,0,L|360:88,2,65.9999979858399,8|0|0,0:0|0:0|0:0,0:0:0:0:
440,240,51119,2,0,L|424:312,2,65.9999979858399,2|0|0,0:0|0:0|0:0,0:0:0:0:
336,208,51809,2,0,P|280:248|208:238,1,131.99999597168,8|0,0:0|0:0,0:0:0:0:
256,152,52499,6,0,P|192:120|176:56,1,131.99999597168,2|0,0:0|0:0,0:0:0:0:
272,56,53188,1,8,0:0:0:0:
344,120,53533,1,0,0:0:0:0:
440,112,53878,2,0,P|424:176|348:218,1,131.99999597168,2|0,0:0|0:0,0:0:0:0:
320,296,54568,2,0,B|280:264|224:264|184:296|184:296|120:272,1,197.99999395752,8|0,0:0|0:0,0:0:0:0:
104,256,55257,6,0,P|88:192|128:128,1,131.99999597168,6|0,0:0|0:0,0:0:0:0:
200,80,55947,2,0,P|248:112|320:104,1,131.99999597168,8|0,0:0|0:0,0:0:0:0:
424,64,56637,2,0,P|424:128|456:200,1,131.99999597168,2|0,0:0|0:0,0:0:0:0:
472,280,57326,1,8,0:0:0:0:
384,336,57671,1,0,0:0:0:0:
296,280,58016,70,0,P|232:304|167:274,1,131.99999597168,6|0,0:0|0:0,0:0:0:0:
232,200,58706,2,0,P|176:176|96:224,1,131.99999597168,8|0,0:0|0:0,0:0:0:0:
64,104,59395,2,0,L|40:40,2,65.9999979858399,2|0|0,0:0|0:0|0:0,0:0:0:0:
168,80,60085,2,0,B|224:88|224:88|240:96|240:96|296:104,1,131.99999597168,8|0,0:0|0:0,0:0:0:0:
400,112,60775,2,0,B|424:128|424:128|400:184|416:240|480:280,2,197.99999395752,2|0|2,0:0|0:0|0:0,0:0:0:0:
320,184,62154,2,0,B|296:168|296:168|320:112|304:56|240:16,2,197.99999395752,2|0|2,0:0|0:0|0:0,0:0:0:0:
380,256,63533,6,0,P|320:280|260:256,1,131.99999597168,6|0,0:0|0:0,0:0:0:0:
200,184,64223,2,0,P|140:159|80:183,1,131.99999597168,8|0,0:0|0:0,0:0:0:0:
144,256,64912,2,0,L|167:317,2,65.9999979858399,2|0|0,0:0|0:0|0:0,0:0:0:0:
240,264,65602,2,0,B|296:272|296:272|312:280|312:280|368:288,1,131.99999597168,8|0,0:0|0:0,0:0:0:0:
440,232,66292,2,0,B|384:198|368:141|392:85|392:85|368:69,2,197.99999395752,2|0|2,0:0|0:0|0:0,0:0:0:0:
440,336,67671,2,0,P|344:344|272:280,2,197.99999395752,2|0|2,0:0|0:0|0:0,0:0:0:0:
376,256,69050,5,4,0:0:0:0:
376,256,69740,22,0,L|344:144,1,110,0|0,0:0|0:0,0:0:0:0:
296,64,70430,2,0,P|256:96|192:96,1,110
112,64,71119,2,0,L|64:176,1,110,2|0,0:0|0:0,0:0:0:0:
144,240,71809,6,0,L|144:304|144:304,2,55,0|0|0,0:0|0:0|0:0,0:0:0:0:
240,192,72499,2,0,P|272:240|328:256,1,110,2|0,0:0|0:0,0:0:0:0:
336,168,73188,2,0,P|408:184|480:128,1,165
472,96,73878,2,0,P|392:80|320:136,1,165,2|0,0:0|0:0,0:0:0:0:
336,168,74568,2,0,P|232:152|176:40,1,220,0|2,0:0|0:0,0:0:0:0:
88,104,75602,1,0,0:0:0:0:
64,200,75947,6,0,P|100:272|188:304,1,165
208,272,76637,2,0,P|272:208|396:232,1,220,2|0,0:0|0:0,0:0:0:0:
488,224,77671,1,0,0:0:0:0:
464,128,78016,1,2,0:0:0:0:
376,80,78361,1,0,0:0:0:0:
280,104,78706,6,0,P|240:144|176:152,1,110,0|0,0:0|0:0,0:0:0:0:
88,136,79395,2,0,L|109:85,2,55,2|0|0,0:0|0:0|0:0,0:0:0:0:
40,224,80085,2,0,B|56:280|56:280|104:264|176:272|216:312,1,220,4|2,0:0|0:0,0:0:0:0:
272,224,81119,1,0,0:0:0:0:
352,296,81464,2,0,P|408:296|457:269,1,110
384,208,82154,70,0,P|336:144|240:112,2,165,2|0|2,0:0|0:0|0:0,0:0:0:0:
272,224,83533,2,0,P|192:192|104:200,1,165,2|0,0:0|0:0,0:0:0:0:
80,224,84223,2,0,P|80:280|48:336,1,110,0|0,0:0|0:0,0:0:0:0:
168,304,84912,6,0,P|248:328|328:288,1,165,2|0,0:0|0:0,0:0:0:0:
344,264,85602,1,0,0:0:0:0:
432,208,85947,1,0,0:0:0:0:
368,128,86292,1,2,0:0:0:0:
280,184,86637,1,0,0:0:0:0:
200,120,86981,6,0,P|176:176|192:240,1,110,0|0,0:0|0:0,0:0:0:0:
280,184,87671,2,0,P|304:136|288:64,1,110,2|0,0:0|0:0,0:0:0:0:
216,16,88361,2,0,P|160:24|104:88,1,110,0|2,0:0|0:0,0:0:0:0:
64,144,89050,2,0,P|48:200|80:280,1,110,0|0,0:0|0:0,0:0:0:0:
152,200,89740,1,2,0:0:0:0:
288,136,90430,1,2,0:0:0:0:
400,272,91119,6,0,P|368:208|400:112,1,165,6|0,0:0|0:0,0:0:0:0:
416,88,91809,2,0,P|368:56|296:56,1,110,2|0,0:0|0:0,0:0:0:0:
224,120,92499,2,0,P|168:120|120:88,1,110,2|0,0:0|0:0,0:0:0:0:
40,152,93188,2,0,B|64:208|64:208|112:208|168:256|176:328,1,220,2|2,0:0|0:0,0:0:0:0:
64,312,94223,2,0,L|72:368,2,55,2|0|0,0:0|0:0|0:0,0:0:0:0:
296,192,95257,5,2,0:0:0:0:
296,192,95602,1,2,0:0:0:0:
296,192,95947,2,0,P|352:248|440:232,1,165,2|0,0:0|0:0,0:0:0:0:
464,216,96637,1,6,0:0:0:0:
388,144,96981,1,0,0:0:0:0:
312,72,97326,1,2,0:0:0:0:
212,104,97671,1,0,0:0:0:0:
119,152,98016,6,0,P|75:217|98:309,2,165,2|0|2,0:0|0:0|0:0,0:0:0:0:
176,240,99395,2,0,L|288:280,1,110,6|0,0:0|0:0,0:0:0:0:
376,312,100085,1,2,0:0:0:0:
376,312,100430,1,0,0:0:0:0:
456,240,100775,6,0,L|464:184,2,55,2|0|0,0:0|0:0|0:0,0:0:0:0:
360,208,101464,2,0,L|352:152,2,55,2|0|0,0:0|0:0|0:0,0:0:0:0:
264,240,102154,6,0,B|216:256|216:256|184:320|112:336|56:296,1,220,6|2,0:0|0:0,0:0:0:0:
120,216,103188,1,0,0:0:0:0:
200,144,103533,2,0,P|160:104|144:40,1,110,2|0,0:0|0:0,0:0:0:0:
248,56,104223,1,2,0:0:0:0:
336,112,104568,1,0,0:0:0:0:
440,88,104912,6,0,L|464:208,1,110,6|0,0:0|0:0,0:0:0:0:
472,296,105602,1,2,0:0:0:0:
472,296,105947,2,0,P|360:304|312:216,1,220,2|0,0:0|0:0,0:0:0:0:
408,224,106981,2,0,P|392:168|336:128,1,110,2|0,0:0|0:0,0:0:0:0:
264,72,107671,2,0,B|232:96|232:96|240:144|216:192|168:200,2,165,2|0|2,0:0|0:0|0:0,0:0:0:0:
264,72,109050,1,6,0:0:0:0:
64,136,109740,6,0,L|56:248,1,110,2|0,0:0|0:0,0:0:0:0:
160,232,110430,2,0,P|184:304|272:320,1,165,6|0,0:0|0:0,0:0:0:0:
296,304,111119,2,0,P|344:280|408:288,1,110,2|0,0:0|0:0,0:0:0:0:
464,208,111809,2,0,P|432:168|376:136,1,110,2|0,0:0|0:0,0:0:0:0:
272,144,112499,2,0,L|280:88,2,55,2|0|0,0:0|0:0|0:0,0:0:0:0:
160,168,113188,38,0,L|104:296,1,131.99999597168,6|8,0:0|0:0,0:0:0:0:
224,272,113878,2,0,P|288:304|352:288,1,131.99999597168,0|8,0:0|0:0,0:0:0:0:
296,192,114568,2,0,L|224:72,1,131.99999597168,2|8,0:0|0:0,0:0:0:0:
352,88,115257,2,0,P|400:56|472:64,1,131.99999597168,0|8,0:0|0:0,0:0:0:0:
432,168,115947,6,0,P|400:224|416:304,1,131.99999597168,2|8,0:0|0:0,0:0:0:0:
304,328,116637,1,0,0:0:0:0:
200,280,116981,1,8,0:0:0:0:
88,296,117326,2,0,L|40:352,2,65.9999979858399,2|0|8,0:0|0:0|0:0,0:0:0:0:
132,192,118016,2,0,L|80:152,2,65.9999979858399,2|0|8,0:0|0:0|0:0,0:0:0:0:
240,144,118706,6,0,P|296:176|360:160,1,131.99999597168,6|8,0:0|0:0,0:0:0:0:
312,64,119395,2,0,P|256:32|184:48,1,131.99999597168,0|8,0:0|0:0,0:0:0:0:
96,96,120085,2,0,P|80:152|16:200,1,131.99999597168,2|8,0:0|0:0,0:0:0:0:
72,296,120775,1,0,0:0:0:0:
176,256,121119,1,8,0:0:0:0:
280,296,121464,6,0,B|320:248|320:248|392:228|392:228|464:248,1,197.99999395752,6|0,0:0|0:0,0:0:0:0:
472,272,122154,2,0,P|432:328|368:344,2,131.99999597168,2|0|2,0:0|0:0|0:0,0:0:0:0:
368,96,123533,2,0,B|320:112|272:80|272:80|224:112|176:104,1,197.99999395752,2|0,0:0|2:0,0:0:0:0:
136,112,124223,70,0,P|128:184|80:224,1,131.99999597168,6|8,0:0|0:0,0:0:0:0:
192,280,124912,2,0,L|224:344,2,65.9999979858399,0|0|8,0:0|0:0|0:0,0:0:0:0:
272,200,125602,2,0,L|336:240,2,65.9999979858399,2|0|8,0:0|0:0|0:0,0:0:0:0:
256,96,126292,1,0,0:0:0:0:
360,64,126637,1,8,0:0:0:0:
448,128,126981,5,6,0:0:0:0:
432,232,127326,1,8,0:0:0:0:
344,168,127671,1,0,0:0:0:0:
328,272,128016,1,8,0:0:0:0:
240,200,128361,1,2,0:0:0:0:
216,304,128706,6,0,L|144:336,2,65.9999979858399,8|0|0,0:0|0:0|0:0,0:0:0:0:
320,328,129395,1,8,0:0:0:0:
384,240,129740,70,0,P|392:168|440:128,1,131.99999597168,6|8,0:0|0:0,0:0:0:0:
320,104,130430,2,0,L|288:40,2,65.9999979858399,0|0|8,0:0|0:0|0:0,0:0:0:0:
240,184,131119,2,0,L|176:144,2,65.9999979858399,2|0|8,0:0|0:0|0:0,0:0:0:0:
256,288,131809,1,0,0:0:0:0:
152,320,132154,1,8,0:0:0:0:
64,256,132498,5,6,0:0:0:0:
80,152,132843,1,8,0:0:0:0:
168,216,133188,1,2,0:0:0:0:
184,112,133533,1,8,0:0:0:0:
272,184,133878,1,2,0:0:0:0:
376,144,134223,2,0,L|448:112,2,65.9999979858399,2|0|0,0:0|0:0|0:0,0:0:0:0:
272,184,134912,1,2,0:0:0:0:
272,184,135257,5,4,0:0:0:0:
