osu file format v14

[General]
AudioFilename: Pendulum - The Island (MaxNRG drum'n'bass remix).mp3
AudioLeadIn: 0
PreviewTime: 89740
Countdown: 0
SampleSet: Soft
StackLeniency: 0.4
Mode: 0
LetterboxInBreaks: 1
WidescreenStoryboard: 0

[Editor]
Bookmarks: 22068
DistanceSpacing: 0.8
BeatDivisor: 4
GridSize: 4
TimelineZoom: 1

[Metadata]
Title:The Island (MaxNRG Remix)
TitleUnicode:The Island (MaxNRG Remix)
Artist:Pendulum
ArtistUnicode:Pendulum
Creator:Spencers
Version:Insane
Source:
Tags:dnb drum'n'bass Immersion
BeatmapID:298143
BeatmapSetID:115348

[Difficulty]
HPDrainRate:7
CircleSize:4
OverallDifficulty:7
ApproachRate:9
SliderMultiplier:2.2
SliderTickRate:2

[Events]
//Background and Video events
0,0,"The+standard+island.jpg",0,0
//Break Periods
//Storyboard Layer 0 (Background)
//Storyboard Layer 1 (Fail)
//Storyboard Layer 2 (Pass)
//Storyboard Layer 3 (Foreground)
//Storyboard Sound Samples

[TimingPoints]
2844,344.827586206897,4,2,1,60,1,0
46981,-100,4,1,2,63,0,1
69050,-100,4,1,1,50,0,0
91119,-100,4,1,1,80,0,0
91464,-100,4,1,1,57,0,0
113188,-100,4,1,2,65,0,1
129740,-100,4,1,2,80,0,1
129912,-100,4,1,2,65,0,1
135257,-100,4,1,2,65,0,0

[Colours]
Combo1 : 253,184,138
Combo2 : 0,87,0
Combo3 : 117,0,117
Combo4 : 96,77,26
Combo5 : 0,65,130
Combo6 : 116,153,252
Combo7 : 255,70,70
Combo8 : 162,255,125

[HitObjects]
256,192,22153,12,2,24567,0:0:0:0:
256,188,24912,5,4,1:3:0:0:
160,76,25257,2,0,P|136:120|64:152,1,110,2|0,0:0|0:0,0:0:0:0:
64,56,25602,1,2,0:0:0:0:
160,76,25774,1,0,0:0:0:0:
256,56,25947,1,0,0:0:0:0:
352,72,26119,1,0,0:0:0:0:
416,136,26291,6,0,P|420:188|436:248,1,110,2|0,0:0|0:0,0:0:0:0:
456,356,26636,1,2,0:0:0:0:
352,308,26809,2,0,B|312:280|312:280|300:224|216:184|152:240,1,220,2|0,0:0|0:0,0:0:0:0:
224,296,27326,1,2,0:0:0:0:
256,48,27498,2,0,P|224:88|148:112,1,110,0|2,0:0|0:0,0:0:0:0:
168,28,27843,1,2,0:0:0:0:
296,116,28016,2,0,P|260:152|196:176,1,110,2|0,0:0|0:0,0:0:0:0:
376,140,28361,2,0,P|292:220|188:256,1,220,2|0,0:0|0:0,0:0:0:0:
195,254,28878,1,2,0:0:0:0:
136,66,29223,6,0,B|152:120|152:120|120:164|136:236|195:254,1,220,0|2,0:0|0:0,0:0:0:0:
236,168,29740,1,2,0:0:0:0:
308,224,29912,1,0,0:0:0:0:
272,308,30085,1,2,0:0:0:0:
460,244,30257,2,0,P|440:192|448:128,2,110,2|4|0,0:0|1:2|0:0,0:0:0:0:
444,138,30774,1,2,0:0:0:0:
444,138,31119,5,2,0:0:0:0:
368,72,31291,1,0,0:0:0:0:
272,112,31464,1,2,0:0:0:0:
276,212,31636,2,0,P|248:256|176:276,1,110,2|0,0:0|0:0,0:0:0:0:
180,180,31981,1,0,0:0:0:0:
324,116,32154,1,2,0:0:0:0:
356,272,32326,1,2,0:0:0:0:
176,184,32499,1,2,0:0:0:0:
320,120,32671,1,0,0:0:0:0:
132,48,32843,1,2,0:0:0:0:
52,144,33016,70,0,P|44:200|72:260,1,110,2|0,0:0|0:0,0:0:0:0:
125,308,33360,1,0,0:0:0:0:
264,256,33533,1,2,0:0:0:0:
200,200,33705,1,0,0:0:0:0:
160,76,33878,1,2,0:0:0:0:
216,128,34050,1,0,0:0:0:0:
216,128,34395,1,2,0:0:0:0:
200,200,34567,6,0,P|176:252|116:276,1,110,2|0,0:2|0:0,0:0:0:0:
160,76,34912,2,0,P|212:52|268:72,1,110,2|0,0:0|0:0,0:0:0:0:
292,148,35257,2,0,P|284:208|328:264,1,110,2|0,0:0|0:0,0:0:0:0:
360,192,35602,1,2,0:0:0:0:
216,128,35774,1,0,0:0:0:0:
324,56,35947,6,0,P|388:96|484:92,1,165,4|0,1:2|0:0,0:0:0:0:
416,64,36291,2,0,P|408:124|424:184,1,110,2|0,0:0|0:0,0:0:0:0:
288,224,36636,2,0,B|312:268|368:280|408:252|408:252|444:264,2,165,2|0|2,0:0|0:0|0:0,0:0:0:0:
360,192,37326,1,2,0:0:0:0:
288,224,37498,1,0,0:0:0:0:
236,284,37671,1,2,0:0:0:0:
216,360,37843,1,0,0:0:0:0:
296,144,38016,6,0,P|236:136|204:80,1,110,2|0,0:0|0:0,0:0:0:0:
288,224,38360,1,2,0:0:0:0:
296,144,38533,1,0,0:0:0:0:
280,64,38705,1,2,0:0:0:0:
280,64,39222,1,0,0:0:0:0:
175,62,39395,70,0,P|228:48|280:64,1,110,2|0,0:0|0:0,0:0:0:0:
224,132,39740,1,2,0:0:0:0:
144,140,39912,2,0,P|116:184|60:208,1,110
64,128,40257,1,2,0:0:0:0:
175,62,40430,1,2,0:0:0:0:
184,212,40602,1,0,0:0:0:0:
184,212,40775,2,0,P|160:288|216:352,1,165,2|0,0:0|0:0,0:0:0:0:
240,276,41119,2,0,P|264:200|220:128,1,165,2|0,0:0|0:0,0:0:0:0:
184,212,41464,5,6,1:2:0:0:
240,276,41637,1,0,0:0:0:0:
320,304,41809,1,2,0:0:0:0:
404,296,41981,1,0,0:0:0:0:
472,248,42153,2,0,B|428:272|376:260|352:224|352:224|304:220,1,165,2|0,0:0|0:0,0:0:0:0:
321,221,42498,1,2,0:0:0:0:
424,176,42671,1,0,0:0:0:0:
336,120,42843,5,2,0:0:0:0:
336,120,43360,1,0,0:0:0:0:
336,120,43447,1,0,0:0:0:0:
336,120,43533,2,0,P|284:100|256:48,1,110,2|0,0:0|0:0,0:0:0:0:
244,168,43878,1,2,0:0:0:0:
336,40,44050,1,0,0:0:0:0:
321,221,44222,6,0,P|248:256|168:224,1,165,6|0,1:2|0:0,0:0:0:0:
173,228,44567,1,2,0:0:0:0:
244,168,44740,1,0,0:0:0:0:
48,108,44912,1,2,0:0:0:0:
104,172,45085,1,0,0:0:0:0:
132,88,45257,1,2,0:0:0:0:
264,256,45429,2,0,P|308:308|400:316,1,165,2|0,0:0|0:0,0:0:0:0:
400,315,45774,1,2,0:0:0:0:
400,315,46119,69,2,0:0:0:0:
336,224,46291,2,0,B|355:248|355:248|392:228|440:232|475:276,1,165,2|0,0:0|0:0,0:0:0:0:
400,315,46636,2,0,P|344:324|288:288,1,110,2|0,1:0|0:0,0:0:0:0:
316,264,46895,1,2,0:0:0:0:
336,224,46981,54,0,P|312:172|320:112,1,110,4|0,0:2|0:0,0:0:0:0:
376,52,47326,2,0,P|392:104|384:164,1,110,2|0,0:0|0:0,0:0:0:0:
240,56,47671,2,0,P|200:88|136:88,1,110,8|0,0:0|0:0,0:0:0:0:
220,168,48016,1,2,0:0:0:0:
168,16,48188,1,0,0:0:0:0:
212,248,48360,2,0,B|256:252|296:216|296:176|296:176|316:128,1,165,0|0,0:0|0:0,0:0:0:0:
220,168,48705,6,0,P|168:144|116:156,1,110,2|0,0:0|0:0,0:0:0:0:
48,208,49050,1,8,0:0:0:0:
184,64,49223,1,0,0:0:0:0:
364,208,49395,2,0,B|324:208|324:208|300:216|300:216|255:216,1,110,2|0,0:0|0:0,0:0:0:0:
136,304,49740,6,0,B|168:272|224:272|260:300|260:300|285:284,1,165,4|0,0:2|0:0,0:0:0:0:
256,216,50085,1,2,0:0:0:0:
200,360,50257,1,0,0:0:0:0:
360,336,50429,1,8,0:0:0:0:
360,336,50516,1,0,0:0:0:0:
360,336,50602,1,0,0:0:0:0:
340,128,50775,1,2,0:0:0:0:
352,232,50947,6,0,P|392:188|456:184,1,110
440,280,51291,1,0,0:0:0:0:
352,232,51464,1,2,0:0:0:0:
252,248,51636,1,0,0:0:0:0:
252,248,51722,1,0,0:0:0:0:
252,248,51809,1,8,0:0:0:0:
244,148,51981,1,0,0:0:0:0:
156,188,52153,2,0,P|152:104|216:52,1,165,10|0,0:0|0:0,0:0:0:0:
280,56,52498,69,4,0:2:0:0:
156,188,52671,1,0,0:0:0:0:
76,96,52843,1,2,0:0:0:0:
12,200,53016,1,0,0:0:0:0:
12,200,53102,1,0,0:0:0:0:
12,200,53188,2,0,P|24:256|72:296,1,110,8|0,0:0|0:0,0:0:0:0:
204,324,53533,1,2,0:0:0:0:
224,204,53705,1,0,0:0:0:0:
352,220,53878,5,0,0:2:0:0:
336,344,54050,1,0,0:0:0:0:
480,200,54222,2,0,B|488:156|464:112|412:100|412:100|396:56,1,165,2|0,0:0|0:0,0:0:0:0:
472,40,54567,1,8,0:0:0:0:
404,180,54740,1,0,0:0:0:0:
401,71,54912,1,2,0:0:0:0:
480,200,55085,1,0,0:0:0:0:
336,124,55257,6,0,P|288:144|228:128,1,110,4|0,0:2|0:0,0:0:0:0:
288,220,55602,1,2,0:0:0:0:
280,56,55774,1,0,0:0:0:0:
344,284,55947,1,8,0:0:0:0:
336,124,56119,1,0,0:0:0:0:
216,256,56291,2,0,P|216:188|248:152,1,110,2|0,0:0|0:0,0:0:0:0:
344,284,56636,6,0,P|340:352|312:388,1,110,0|0,0:0|0:0,0:0:0:0:
216,256,56981,1,2,0:0:0:0:
272,316,57153,1,0,0:0:0:0:
144,288,57326,1,8,0:0:0:0:
344,284,57499,1,0,0:0:0:0:
408,228,57671,2,0,B|440:200|440:136|404:108|404:108|400:64,1,165,10|0,0:0|0:0,0:0:0:0:
480,72,58016,69,4,0:2:0:0:
352,172,58188,1,0,0:0:0:0:
252,68,58360,2,0,P|224:112|173:137,1,110,2|0,0:0|0:0,0:0:0:0:
68,51,58705,2,0,P|120:68|172:52,1,110,8|0,0:0|0:0,0:0:0:0:
100,144,59050,2,0,B|52:144|20:124|20:124|32:168|12:216,1,165,2|0,0:0|0:0,0:0:0:0:
88,220,59395,6,0,P|104:272|84:336,1,110,0|0,0:0|0:0,0:0:0:0:
180,264,59740,1,2,0:0:0:0:
28,272,59912,1,0,0:0:0:0:
160,184,60085,1,8,0:0:0:0:
204,344,60257,1,0,0:0:0:0:
100,144,60429,2,0,P|111:91|87:43,1,110,2|0,0:0|0:0,0:0:0:0:
160,184,60774,6,0,P|192:140|244:128,1,110,6|0,0:0|0:0,0:0:0:0:
272,136,61033,1,0,0:0:0:0:
300,148,61119,2,0,P|324:196|304:260,1,110,2|2,0:0|0:0,0:0:0:0:
288,272,61378,1,0,0:0:0:0:
263,290,61464,2,0,P|209:290|168:256,1,110,2|0,0:0|0:0,0:0:0:0:
160,220,61723,1,0,0:0:0:0:
160,184,61809,2,0,P|192:140|244:128,1,110,2|2,0:0|0:0,0:0:0:0:
404,188,62153,5,0,0:0:0:0:
448,292,62326,1,0,0:0:0:0:
300,148,62498,1,2,0:0:0:0:
264,44,62671,1,0,0:0:0:0:
180,112,62843,2,0,P|144:148|76:152,1,110,8|0,0:0|0:0,0:0:0:0:
164,224,63188,1,2,0:0:0:0:
104,76,63361,1,0,0:0:0:0:
338,136,63533,69,4,0:2:0:0:
184,32,63705,1,0,0:0:0:0:
260,68,63878,2,0,P|288:112|339:137,1,110,2|0,0:0|0:0,0:0:0:0:
443,51,64223,2,0,P|391:68|340:52,1,110,8|0,0:0|0:0,0:0:0:0:
412,144,64568,2,0,B|460:144|492:124|492:124|480:168|500:216,1,165,2|0,0:0|0:0,0:0:0:0:
424,220,64913,6,0,P|408:272|428:336,1,110,0|0,0:0|0:0,0:0:0:0:
332,264,65258,1,2,0:0:0:0:
488,276,65430,1,0,0:0:0:0:
352,184,65603,1,8,0:0:0:0:
312,344,65775,1,0,0:0:0:0:
412,144,65947,2,0,P|387:95|399:43,1,110,2|0,0:0|0:0,0:0:0:0:
352,184,66292,6,0,P|320:140|268:128,1,110,6|0,0:0|0:0,0:0:0:0:
240,136,66551,1,0,0:0:0:0:
212,148,66637,2,0,P|188:196|208:260,1,110,2|2,0:0|0:0,0:0:0:0:
224,272,66896,1,0,0:0:0:0:
249,290,66982,2,0,P|303:290|344:256,1,110,2|0,0:0|0:0,0:0:0:0:
352,220,67241,1,0,0:0:0:0:
352,184,67327,2,0,P|320:140|268:128,1,110,2|2,0:0|0:0,0:0:0:0:
108,192,67671,5,0,0:0:0:0:
64,292,67844,1,0,0:0:0:0:
212,148,68016,1,2,0:0:0:0:
248,44,68189,1,0,0:0:0:0:
332,112,68361,2,0,P|364:148|432:156,1,110,8|0,0:0|0:0,0:0:0:0:
348,224,68706,1,2,0:0:0:0:
408,76,68878,1,0,0:0:0:0:
108,192,69050,1,4,0:0:0:0:
276,268,69395,6,0,P|232:296|176:292,1,110,0|0,0:0|0:0,0:0:0:0:
344,312,69740,1,2,0:0:0:0:
212,220,69912,1,0,0:0:0:0:
348,224,70085,2,0,P|400:228|452:192,1,110
344,312,70429,5,2,0:0:0:0:
380,148,70602,1,0,0:0:0:0:
296,152,70775,2,0,P|312:92|368:68,1,110
350,69,71119,1,2,0:0:0:0:
204,132,71291,1,0,0:0:0:0:
204,132,71378,1,0,0:0:0:0:
204,132,71464,1,0,0:0:0:0:
348,224,71636,1,0,0:0:0:0:
204,132,71809,6,0,B|176:96|120:96|84:124|84:124|52:112,1,165,2|0,0:0|0:0,0:0:0:0:
72,40,72153,1,0,0:0:0:0:
140,184,72326,1,0,0:0:0:0:
48,304,72498,1,0,0:0:0:0:
292,92,72671,1,0,0:0:0:0:
140,184,72843,2,0,P|204:216|276:160,1,165,2|0,0:0|0:0,0:0:0:0:
293,90,73188,6,0,P|239:92|204:132,1,110,2|0,0:0|0:0,0:0:0:0:
292,92,73533,1,0,0:0:0:0:
212,296,73705,1,0,0:0:0:0:
320,288,73878,2,0,B|275:288|275:288|247:296|247:296|211:296,1,110,2|0,0:0|0:0,0:0:0:0:
212,296,74137,1,0,0:0:0:0:
212,296,74222,1,0,0:0:0:0:
304,372,74395,1,0,0:0:0:0:
104,312,74567,70,0,B|80:272|88:224|124:192|124:192|104:156,1,165,2|0,0:0|0:0,0:0:0:0:
108,163,74912,1,0,0:0:0:0:
168,256,75085,1,0,0:0:0:0:
24,184,75257,2,0,P|28:128|68:84,1,110,0|0,0:0|0:0,0:0:0:0:
192,140,75602,1,2,0:0:0:0:
108,163,75774,1,0,0:0:0:0:
192,140,75947,6,0,P|240:104|252:52,1,110,2|0,0:0|0:0,0:0:0:0:
252,57,76205,1,0,0:0:0:0:
252,57,76291,1,0,0:0:0:0:
304,160,76464,1,0,0:0:0:0:
132,36,76636,2,0,P|84:64|24:56,1,110,2|0,0:0|0:0,0:0:0:0:
304,160,76981,2,0,P|348:136|416:144,1,110
336,56,77326,5,2,0:0:0:0:
368,224,77498,1,0,0:0:0:0:
232,200,77671,2,0,B|228:232|228:232|272:224|324:268|324:312,1,165
248,312,78016,1,2,0:0:0:0:
304,160,78188,1,0,0:0:0:0:
464,156,78360,1,0,0:0:0:0:
464,156,78447,1,0,0:0:0:0:
464,156,78533,1,0,0:0:0:0:
424,80,78705,5,2,0:0:0:0:
368,224,78878,1,0,0:0:0:0:
448,332,79050,1,0,0:0:0:0:
448,332,79136,1,0,0:0:0:0:
448,332,79222,1,0,0:0:0:0:
480,256,79395,69,2,0:0:0:0:
248,312,79567,1,0,0:0:0:0:
56,196,79740,1,0,0:0:0:0:
56,196,79826,1,0,0:0:0:0:
56,196,79912,1,0,0:0:0:0:
120,136,80085,6,0,P|136:212|68:284,1,165,2|0,0:0|0:0,0:0:0:0:
85,277,80429,1,0,0:0:0:0:
224,232,80602,1,0,0:0:0:0:
248,312,80775,2,0,P|292:280|304:216,1,110,0|0,0:0|0:0,0:0:0:0:
360,316,81119,1,2,0:0:0:0:
224,232,81291,1,0,0:0:0:0:
386,209,81464,6,0,L|360:316,1,110,2|0,0:0|0:0,0:0:0:0:
464,248,81809,2,0,L|492:136,1,110
408,120,82153,1,2,0:0:0:0:
296,180,82325,1,0,0:0:0:0:
296,180,82412,1,0,0:0:0:0:
296,180,82498,1,0,0:0:0:0:
300,72,82671,1,0,0:0:0:0:
152,140,82843,6,0,B|184:135|184:135|200:175|244:195|296:179,1,165,2|0,0:0|0:0,0:0:0:0:
256,108,83188,1,0,0:0:0:0:
144,220,83361,1,0,0:0:0:0:
208,272,83533,2,0,P|160:300|96:284,1,110,0|0,0:0|0:0,0:0:0:0:
176,384,83878,1,2,0:0:0:0:
208,272,84050,1,0,0:0:0:0:
240,160,84222,70,0,B|260:184|260:184|260:240|292:276|348:280,1,165,2|0,0:0|0:0,0:0:0:0:
344,196,84567,1,0,0:0:0:0:
160,112,84740,1,0,0:0:0:0:
80,160,84912,2,0,P|64:104|84:56,1,110,2|0,0:0|0:0,0:0:0:0:
240,160,85257,2,0,P|260:212|240:276,1,110
164,216,85602,5,6,0:0:0:0:
372,72,85947,1,0,0:0:0:0:
316,144,86119,1,0,0:0:0:0:
448,120,86291,2,0,P|440:200|368:248,1,165,0|0,0:0|0:0,0:0:0:0:
368,164,86636,2,0,P|320:188|292:244,1,110,2|0,0:0|0:0,0:0:0:0:
212,116,86981,5,2,0:0:0:0:
368,164,87153,1,0,0:0:0:0:
312,40,87326,2,0,B|288:52|288:52|232:16|144:24|108:108,1,220,0|2,0:0|0:0,0:0:0:0:
48,36,87843,1,0,0:0:0:0:
212,116,88016,1,0,0:0:0:0:
24,200,88188,1,0,0:0:0:0:
152,320,88360,6,0,P|204:336|260:312,1,110,2|0,0:0|0:0,0:0:0:0:
470,158,88705,2,0,P|418:143|368:164,1,110
424,244,89050,1,2,0:0:0:0:
204,236,89222,1,0,0:0:0:0:
312,56,89395,1,0,0:0:0:0:
308,168,89567,1,0,0:0:0:0:
308,168,89653,1,0,0:0:0:0:
308,168,89740,1,2,0:0:0:0:
124,128,89912,69,0,0:0:0:0:
308,168,90085,1,2,0:0:0:0:
120,216,90257,1,0,0:0:0:0:
120,216,90344,1,0,0:0:0:0:
120,216,90429,2,0,B|124:248|124:248|172:244|212:276|216:336,2,165,2|0|0,0:0|0:0|0:0,0:0:0:0:
136,324,91119,53,4,0:0:0:0:
136,324,91464,5,2,0:0:0:0:
248,208,91636,1,0,0:0:0:0:
384,272,91809,2,0,P|420:224|420:172,1,110
328,196,92153,1,2,0:0:0:0:
184,72,92326,1,0,0:0:0:0:
80,36,92498,6,0,B|68:52|68:52|104:96|72:160,1,110,0|0,0:0|0:0,0:0:0:0:
48,215,92843,1,2,0:0:0:0:
344,200,93016,2,0,B|317:159|317:159|345:127|349:71|328:52,1,165
328,52,93361,1,0,0:0:0:0:
248,104,93533,2,0,P|176:68|92:112,1,165,2|0,0:0|0:0,0:0:0:0:
102,98,93878,5,0,0:0:0:0:
172,232,94050,1,0,0:0:0:0:
172,232,94136,1,0,0:0:0:0:
172,232,94222,1,2,0:0:0:0:
344,200,94395,1,0,0:0:0:0:
372,232,94481,1,0,0:0:0:0:
376,276,94567,1,0,0:0:0:0:
356,316,94653,1,0,0:0:0:0:
316,336,94740,1,0,0:0:0:0:
344,200,94912,2,0,P|328:144|356:100,1,110,2|0,0:0|0:0,0:0:0:0:
432,164,95257,5,0,0:0:0:0:
248,144,95429,1,0,0:0:0:0:
432,164,95602,1,2,0:0:0:0:
160,140,95774,1,0,0:0:0:0:
160,140,95860,1,0,0:0:0:0:
160,140,95947,2,0,P|96:176|72:268,2,165
160,236,96636,5,4,0:0:0:0:
156,48,96809,1,0,0:0:0:0:
328,128,96981,2,0,P|380:156|432:144,1,110,2|0,0:0|0:0,0:0:0:0:
348,232,97326,1,0,0:0:0:0:
392,72,97498,1,0,0:0:0:0:
424,272,97671,2,0,P|384:308|320:312,1,110,2|0,0:0|0:0,0:0:0:0:
329,314,97929,1,0,0:0:0:0:
329,314,98016,5,0,0:0:0:0:
264,240,98188,1,0,0:0:0:0:
416,176,98360,2,0,P|412:120|444:76,1,110,2|0,0:0|0:0,0:0:0:0:
312,144,98705,1,0,0:0:0:0:
264,240,98878,1,0,0:0:0:0:
348,232,99050,1,2,0:0:0:0:
228,148,99222,1,0,0:0:0:0:
156,40,99395,6,0,B|136:76|136:76|88:84|56:128|72:184,1,165
148,156,99740,2,0,P|172:208|228:228,1,110,2|0,0:0|0:0,0:0:0:0:
244,136,100085,1,0,0:0:0:0:
96,244,100257,1,0,0:0:0:0:
240,316,100429,2,0,P|280:280|344:284,1,110,2|0,0:0|0:0,0:0:0:0:
476,316,100774,69,0,0:0:0:0:
428,184,100947,1,0,0:0:0:0:
308,352,101119,1,2,0:0:0:0:
248,208,101291,1,0,0:0:0:0:
136,312,101464,5,0,0:0:0:0:
120,272,101550,1,0,0:0:0:0:
124,228,101636,1,0,0:0:0:0:
148,192,101722,1,0,0:0:0:0:
184,164,101809,1,2,0:0:0:0:
196,124,101895,1,0,0:0:0:0:
188,80,101981,1,0,0:0:0:0:
152,56,102067,1,0,0:0:0:0:
108,68,102153,6,0,P|84:120|32:136,1,110,4|0,0:2|0:0,0:0:0:0:
44,244,102498,1,2,0:0:0:0:
248,208,102671,1,0,0:0:0:0:
352,140,102843,2,0,B|308:156|308:156|336:200|328:252|288:276,2,165
248,208,103533,5,4,0:0:0:0:
396,216,103705,1,0,0:0:0:0:
304,336,103878,1,2,0:0:0:0:
452,340,104050,1,0,0:0:0:0:
456,92,104222,2,0,B|420:108|420:108|400:64|336:48|296:80,1,165,0|0,0:0|0:0,0:0:0:0:
352,140,104567,2,0,P|276:136|236:64,1,165,2|0,0:0|0:0,0:0:0:0:
160,40,104912,6,0,P|148:96|104:132,1,110,4|0,0:0|0:0,0:0:0:0:
109,129,105171,1,0,0:0:0:0:
109,129,105257,1,2,0:0:0:0:
132,228,105429,1,0,0:0:0:0:
76,316,105602,2,0,P|128:332|188:312,2,110,0|0|2,0:0|0:0|0:0,0:0:0:0:
277,207,106119,2,0,B|256:224|256:224|220:192|164:192|132:228,1,165
132,228,106464,1,0,0:0:0:0:
264,120,106636,1,2,0:0:0:0:
288,296,106809,1,0,0:0:0:0:
380,248,106981,6,0,P|388:296|360:360,1,110,0|0,0:0|0:0,0:0:0:0:
188,60,107326,2,0,P|236:40|296:52,1,110,2|0,0:0|0:0,0:0:0:0:
148,224,107671,2,0,B|189:177|189:177|233:169|233:169|265:121,1,165,4|0,0:0|0:0,0:0:0:0:
264,120,108016,1,2,0:0:0:0:
232,256,108188,1,0,0:0:0:0:
188,60,108360,2,0,P|136:80|76:56,1,110
86,64,108619,1,0,0:0:0:0:
86,64,108705,1,2,0:0:0:0:
32,156,108878,1,0,0:0:0:0:
232,256,109050,6,0,P|276:292|340:284,1,110
472,216,109395,2,0,P|420:188|360:196,1,110,2|0,0:0|0:0,0:0:0:0:
300,44,109740,2,0,P|292:100|240:148,1,110
257,138,109998,1,0,0:0:0:0:
257,138,110085,1,2,0:0:0:0:
300,344,110257,1,0,0:0:0:0:
472,216,110429,6,0,P|432:156|456:64,1,165,4|0,0:0|0:0,0:0:0:0:
451,69,110774,1,2,0:0:0:0:
300,44,110947,1,0,0:0:0:0:
257,138,111119,2,0,L|168:224,1,110
84,212,111464,1,2,0:0:0:0:
140,52,111636,2,0,P|192:68|248:40,1,110
40,84,111981,1,0,0:0:0:0:
24,264,112153,5,2,0:0:0:0:
64,288,112240,1,0,0:0:0:0:
108,284,112326,1,0,0:0:0:0:
144,256,112412,1,0,0:0:0:0:
168,220,112498,5,2,0:0:0:0:
176,176,112585,1,0,0:0:0:0:
188,132,112671,1,0,0:0:0:0:
208,92,112757,1,0,0:0:0:0:
240,64,112843,5,2,0:0:0:0:
284,56,112929,1,0,0:0:0:0:
324,76,113016,1,0,0:0:0:0:
348,112,113102,1,0,0:0:0:0:
364,152,113188,22,0,P|364:232|440:288,1,165,4|0,0:2|0:0,0:0:0:0:
424,284,113533,1,8,0:0:0:0:
452,192,113705,1,0,0:0:0:0:
276,256,113878,2,0,P|240:308|184:320,1,110,2|0,0:0|0:0,0:0:0:0:
320,364,114222,1,8,0:0:0:0:
288,136,114395,1,0,0:0:0:0:
192,240,114567,6,0,P|136:252|80:236,1,110,2|0,0:0|0:0,0:0:0:0:
372,108,114912,2,0,P|424:96|484:112,1,110,8|0,0:0|0:0,0:0:0:0:
208,100,115257,2,0,P|152:80|120:36,1,110,2|0,0:0|0:0,0:0:0:0:
360,248,115602,2,0,P|416:268|448:312,1,110,8|0,0:0|0:0,0:0:0:0:
360,248,115947,5,2,0:0:0:0:
280,180,116119,1,0,0:0:0:0:
208,100,116291,1,8,0:0:0:0:
312,72,116464,1,0,0:0:0:0:
172,212,116636,1,2,0:0:0:0:
152,256,116722,1,0,0:0:0:0:
136,296,116809,1,0,0:0:0:0:
120,336,116895,1,0,0:0:0:0:
104,376,116981,1,8,0:0:0:0:
328,328,117153,6,0,P|388:324|440:284,1,110,0|2,0:0|0:0,0:0:0:0:
392,168,117498,1,0,0:0:0:0:
360,248,117671,1,8,0:0:0:0:
208,100,117843,1,0,0:0:0:0:
176,20,118016,1,2,0:0:0:0:
52,184,118188,1,0,0:0:0:0:
84,264,118360,1,8,0:0:0:0:
100,96,118533,1,0,0:0:0:0:
180,308,118705,70,0,P|208:264|264:256,1,110,4|0,0:2|0:0,0:0:0:0:
260,352,119050,1,8,0:0:0:0:
272,168,119222,1,0,0:0:0:0:
311,82,119395,2,0,P|257:76|208:100,1,110,2|0,0:0|0:0,0:0:0:0:
52,180,119740,2,0,P|104:192|160:168,1,110,8|0,0:0|0:0,0:0:0:0:
155,171,119999,1,0,0:0:0:0:
155,171,120085,5,6,0:0:0:0:
100,96,120257,1,0,0:0:0:0:
116,276,120429,2,0,L|228:316,1,110,8|0,0:0|0:0,0:0:0:0:
356,268,120774,2,0,L|252:228,1,110,2|0,0:0|0:0,0:0:0:0:
368,176,121119,2,0,L|480:216,1,110,8|0,0:0|0:0,0:0:0:0:
460,120,121464,6,0,B|376:88|376:88|324:88|324:88|244:48,1,220,6|8,0:0|0:0,0:0:0:0:
254,53,121981,1,0,0:0:0:0:
136,144,122153,1,2,0:0:0:0:
192,288,122326,1,0,0:0:0:0:
320,288,122498,1,8,0:0:0:0:
376,144,122671,1,0,0:0:0:0:
256,184,122843,5,2,0:0:0:0:
256,184,122929,1,0,0:0:0:0:
256,184,123016,1,0,0:0:0:0:
192,288,123188,1,8,0:0:0:0:
320,288,123360,1,0,0:0:0:0:
360,176,123533,2,0,P|388:224|440:240,1,110,2|0,0:0|0:0,0:0:0:0:
452,144,123878,1,8,0:0:0:0:
320,288,124050,1,0,0:0:0:0:
360,76,124223,70,0,P|312:96|252:76,1,110,4|0,0:2|0:0,0:0:0:0:
116,48,124567,2,0,L|80:100,2,55,8|0|0,0:0|0:0|0:0,0:0:0:0:
144,252,124912,2,0,L|180:204,2,55,2|0|0,0:0|0:0|0:0,0:0:0:0:
224,136,125257,1,8,0:0:0:0:
24,164,125429,1,0,0:0:0:0:
144,252,125602,5,6,0:0:0:0:
60,244,125774,2,0,P|80:304|132:336,1,110,0|10,0:0|0:0,0:0:0:0:
112,172,126119,1,0,0:0:0:0:
248,57,126291,2,0,P|194:58|152:92,1,110,2|0,0:0|0:0,0:0:0:0:
224,136,126636,1,10,0:0:0:0:
244,176,126722,1,0,0:0:0:0:
264,216,126809,1,0,0:0:0:0:
284,256,126895,1,0,0:0:0:0:
304,296,126981,6,0,P|360:320|412:300,1,110,6|0,0:0|0:0,0:0:0:0:
360,232,127326,1,8,0:0:0:0:
176,220,127498,1,0,0:0:0:0:
208,304,127671,2,0,P|152:304|100:264,1,110,2|0,0:0|0:0,0:0:0:0:
320,136,128016,1,8,0:0:0:0:
208,304,128188,1,0,0:0:0:0:
200,128,128361,6,0,P|240:100|256:40,1,110,6|0,0:0|0:0,0:0:0:0:
156,44,128706,1,10,0:0:0:0:
320,136,128878,1,0,0:0:0:0:
84,108,129051,2,0,P|76:168|28:208,1,110,2|0,0:0|0:0,0:0:0:0:
84,108,129396,1,10,0:0:0:0:
256,44,129568,1,0,0:0:0:0:
304,304,129740,85,4,0:2:0:0:
404,228,129912,1,0,0:0:0:0:
396,48,130085,2,0,L|432:96,2,55,8|0|0,0:0|0:0|0:0,0:0:0:0:
368,252,130430,2,0,L|332:204,2,55,2|0|0,0:0|0:0|0:0,0:0:0:0:
288,136,130775,1,8,0:0:0:0:
488,164,130947,1,0,0:0:0:0:
368,252,131120,5,6,0:0:0:0:
452,244,131292,2,0,P|432:304|380:336,1,110,0|10,0:0|0:0,0:0:0:0:
400,172,131637,1,0,0:0:0:0:
263,57,131809,2,0,P|317:58|360:92,1,110,2|0,0:0|0:0,0:0:0:0:
288,136,132154,1,10,0:0:0:0:
268,176,132240,1,0,0:0:0:0:
248,216,132327,1,0,0:0:0:0:
228,256,132413,1,0,0:0:0:0:
208,296,132499,6,0,P|152:320|100:300,1,110,6|0,0:0|0:0,0:0:0:0:
152,232,132844,1,8,0:0:0:0:
336,220,133016,1,0,0:0:0:0:
304,304,133189,2,0,P|360:304|412:264,1,110,2|0,0:0|0:0,0:0:0:0:
192,136,133534,1,8,0:0:0:0:
304,304,133706,1,0,0:0:0:0:
312,128,133878,6,0,P|272:100|256:40,1,110,6|0,0:0|0:0,0:0:0:0:
356,40,134223,1,10,0:0:0:0:
192,136,134395,1,0,0:0:0:0:
428,108,134568,2,0,P|436:168|484:208,1,110,2|0,0:0|0:0,0:0:0:0:
428,108,134913,1,10,0:0:0:0:
256,44,135085,1,0,0:0:0:0:
304,304,135257,69,4,0:2:0:0:
