osu file format v14

[General]
AudioFilename: Pendulum - The Island (MaxNRG drum'n'bass remix).mp3
AudioLeadIn: 0
PreviewTime: 89740
Countdown: 0
SampleSet: Soft
StackLeniency: 0.7
Mode: 0
LetterboxInBreaks: 1
WidescreenStoryboard: 1

[Editor]
Bookmarks: 22068
DistanceSpacing: 0.6
BeatDivisor: 4
GridSize: 8
TimelineZoom: 1

[Metadata]
Title:The Island (MaxNRG Remix)
TitleUnicode:The Island (MaxNRG Remix)
Artist:Pendulum
ArtistUnicode:Pendulum
Creator:Spencers
Version:Hard
Source:
Tags:dnb drum'n'bass Immersion
BeatmapID:298142
BeatmapSetID:115348

[Difficulty]
HPDrainRate:6
CircleSize:4
OverallDifficulty:6
ApproachRate:8
SliderMultiplier:1.6
SliderTickRate:2

[Events]
//Background and Video events
0,0,"The+standard+island.jpg",0,0
//Break Periods
//Storyboard Layer 0 (Background)
//Storyboard Layer 1 (Fail)
//Storyboard Layer 2 (Pass)
//Storyboard Layer 3 (Foreground)
//Storyboard Sound Samples

[TimingPoints]
2844,344.827586206897,4,2,1,60,1,0
46981,-83.3333333333333,4,1,1,63,0,1
69050,-100,4,1,1,50,0,0
91119,-100,4,1,1,80,0,0
91464,-100,4,1,1,57,0,0
113188,-83.3333333333333,4,1,1,65,0,1
135257,-100,4,1,1,65,0,0

[Colours]
Combo1 : 253,184,138
Combo2 : 0,87,0
Combo3 : 117,0,117
Combo4 : 96,77,26
Combo5 : 0,65,130
Combo6 : 116,153,252
Combo7 : 255,70,70
Combo8 : 162,255,125

[HitObjects]
256,192,22154,12,4,24912,0:3:0:0:
136,76,25257,5,2,0:0:0:0:
136,76,25602,1,2,0:0:0:0:
120,156,25775,1,0,0:0:0:0:
120,156,26119,1,2,0:0:0:0:
104,236,26292,1,2,0:0:0:0:
84,316,26464,2,0,P|120:328|172:320,1,80,0|2,0:0|0:0,0:0:0:0:
184,252,26809,2,0,P|224:248|276:264,1,80,0|2,0:0|0:0,0:0:0:0:
264,332,27154,2,0,P|328:296|316:204,1,160,2|2,0:0|0:0,0:0:0:0:
448,104,27844,6,0,L|468:196,1,80,0|2,0:0|0:0,0:0:0:0:
384,52,28188,2,0,L|364:132,1,80,0|2,0:0|0:0,0:0:0:0:
344,208,28533,1,0,0:0:0:0:
344,208,28706,2,0,P|304:192|248:196,1,80,2|0,0:0|0:0,0:0:0:0:
188,196,29050,1,2,0:0:0:0:
188,196,29223,2,0,B|136:220|84:196|72:152|72:152|40:160,1,160,2|0,0:0|0:0,0:0:0:0:
144,128,29740,2,0,P|212:120|264:160,2,120,2|0|2,0:0|0:0|0:0,0:0:0:0:
144,128,30430,5,6,0:0:0:0:
324,60,30775,1,2,0:0:0:0:
292,240,31119,1,2,0:0:0:0:
292,240,31292,1,0,0:0:0:0:
244,312,31464,6,0,P|216:280|212:228,1,80,2|0,0:0|0:0,0:0:0:0:
292,240,31809,1,2,0:0:0:0:
344,172,31981,1,0,0:0:0:0:
384,96,32154,2,0,P|412:120|424:176,1,80,2|0,0:0|0:0,0:0:0:0:
344,172,32499,1,2,0:0:0:0:
292,240,32671,2,0,P|264:208|260:172,1,80,0|2,0:0|0:0,0:0:0:0:
296,104,33016,70,0,B|248:84|192:104|176:152|176:152|152:160,1,160,2|0,0:0|0:0,0:0:0:0:
260,172,33533,2,0,B|248:175|248:175|232:223|176:251|128:223,1,160,2|0,0:0|0:0,0:0:0:0:
64,168,34050,2,0,P|48:204|56:264,2,80,0|2|0,0:0|0:0|0:0,0:0:0:0:
168,156,34568,6,0,P|160:116|176:76,1,80,2|0,0:0|0:0,0:0:0:0:
276,148,34912,2,0,P|284:196|272:232,1,80,2|0,0:0|0:0,0:0:0:0:
224,288,35257,1,2,0:0:0:0:
296,328,35430,1,0,0:0:0:0:
368,288,35602,1,2,0:0:0:0:
388,208,35775,1,0,0:0:0:0:
353,129,35947,6,0,L|276:148,1,80,6|0,0:0|0:0,0:0:0:0:
408,60,36292,2,0,L|496:40,1,80,2|0,0:0|0:0,0:0:0:0:
444,136,36637,2,0,P|440:200|392:240,2,120,2|2|0,0:0|0:0|0:0,0:0:0:0:
320,48,37326,2,0,P|244:52|192:112,1,160,2|0,0:0|0:0,0:0:0:0:
276,128,37844,5,0,0:0:0:0:
328,192,38016,2,0,P|352:160|352:100,1,80,2|0,0:0|0:0,0:0:0:0:
224,200,38361,2,0,P|176:264|216:352,1,160,2|6,0:0|0:0,0:0:0:0:
224,200,39223,69,2,0:0:0:0:
308,208,39395,1,0,0:0:0:0:
260,276,39568,1,2,0:0:0:0:
344,284,39740,1,0,0:0:0:0:
392,216,39912,2,0,P|360:144|268:132,1,160,2|2,0:0|0:0,0:0:0:0:
286,126,40602,5,2,0:0:0:0:
236,56,40775,2,0,P|200:108|208:172,1,120,2|0,0:0|0:0,0:0:0:0:
212,184,41119,2,0,P|208:252|160:300,1,120,2|0,0:0|0:0,0:0:0:0:
152,296,41464,2,0,P|92:276|60:220,2,120,6|0|0,1:2|0:0|0:0,0:0:0:0:
140,216,42154,2,0,P|100:160|48:152,2,120,2|0|0,0:0|0:0|0:0,0:0:0:0:
216,172,42844,2,0,P|292:192|352:124,1,160,2|2,0:0|0:0,0:0:0:0:
272,108,43361,1,0,0:0:0:0:
272,108,43533,6,0,P|292:76|344:56,1,80,2|0,0:0|0:0,0:0:0:0:
448,200,43878,2,0,P|428:232|376:252,1,80,2|0,0:0|0:0,0:0:0:0:
368,176,44223,2,0,P|328:204|316:288,1,120,6|0,1:2|0:0,0:0:0:0:
311,270,44568,1,2,0:0:0:0:
128,296,44912,6,0,P|160:316|204:308,2,80,2|0|2,0:0|0:0|0:0,0:0:0:0:
176,232,45430,2,0,P|104:220|48:288,1,160,0|2,0:0|0:0,0:0:0:0:
48,72,46119,1,0,0:0:0:0:
48,72,46292,2,0,P|96:104|164:88,1,120,2|0,0:0|0:0,0:0:0:0:
188,96,46637,2,0,P|245:105|294:73,1,120,2|0,2:1|0:0,0:0:0:0:
320,40,46981,6,0,P|360:92|444:108,1,143.999995605469,6|0,0:0|0:0,0:0:0:0:
472,104,47326,2,0,P|464:152|488:212,1,95.9999970703126,8|0,0:0|0:0,0:0:0:0:
376,216,47671,2,0,P|384:264|368:320,1,95.9999970703126
288,264,48016,2,0,P|280:212|296:164,1,95.9999970703126,8|0,0:0|0:0,0:0:0:0:
376,216,48361,5,0,0:0:0:0:
292,172,48533,1,0,0:0:0:0:
224,104,48706,2,0,P|196:148|144:160,1,95.9999970703126,8|0,0:0|0:0,0:0:0:0:
140,64,49050,2,0,P|172:24|216:12,1,95.9999970703126
224,104,49395,1,8,0:0:0:0:
316,80,49568,1,0,0:0:0:0:
408,96,49740,6,0,B|400:136|400:136|456:152|484:228|432:284,1,191.999994140625,4|8,0:0|0:0,0:0:0:0:
376,216,50257,1,0,0:0:0:0:
328,288,50430,2,0,P|296:252|292:188,1,95.9999970703126
341,131,50775,2,0,P|370:168|376:216,1,95.9999970703126,8|0,0:0|0:0,0:0:0:0:
268,72,51119,6,0,P|192:120|108:64,1,191.999994140625,4|8,0:0|0:0,0:0:0:0:
192,36,51637,1,0,0:0:0:0:
68,160,51809,2,0,L|40:272,1,95.9999970703126
144,224,52154,2,0,L|148:332,1,95.9999970703126,8|0,0:0|0:0,0:0:0:0:
232,264,52499,70,0,B|256:284|256:284|296:248|368:256|400:316,1,191.999994140625,4|8,0:0|0:0,0:0:0:0:
316,344,53016,1,0,0:0:0:0:
396,200,53188,2,0,P|424:148|472:132,1,95.9999970703126
376,52,53533,2,0,P|348:100|304:112,1,95.9999970703126,8|0,0:0|0:0,0:0:0:0:
311,112,53878,5,4,0:0:0:0:
256,48,54050,1,0,0:0:0:0:
224,128,54223,2,0,P|180:100|168:48,1,95.9999970703126,8|0,0:0|0:0,0:0:0:0:
167,60,54568,1,0,0:0:0:0:
84,100,54740,1,0,0:0:0:0:
52,188,54912,1,8,0:0:0:0:
52,188,54999,1,0,0:0:0:0:
52,188,55085,1,0,0:0:0:0:
56,280,55257,6,0,B|100:264|100:264|152:264|152:264|208:240,1,143.999995605469,4|0,0:0|0:0,0:0:0:0:
193,246,55602,1,8,0:0:0:0:
132,180,55775,1,0,0:0:0:0:
84,100,55947,1,0,0:0:0:0:
167,60,56119,1,0,0:0:0:0:
212,136,56292,1,8,0:0:0:0:
288,88,56464,2,0,P|292:164|240:216,1,143.999995605469
249,211,56809,1,0,0:0:0:0:
328,264,56981,5,8,0:0:0:0:
416,324,57154,1,0,0:0:0:0:
416,324,57326,2,0,P|406:278|415:231,2,95.9999970703126,0|0|8,0:0|0:0|0:0,0:0:0:0:
480,136,58016,70,0,B|444:148|408:128|408:128|380:144|336:140,1,143.999995605469,4|0,0:0|0:0,0:0:0:0:
356,60,58361,2,0,P|312:32|260:36,1,95.9999970703126,8|0,0:0|0:0,0:0:0:0:
264,112,58706,2,0,P|216:116|176:160,1,95.9999970703126,8|0,0:0|0:0,0:0:0:0:
244,204,59050,2,0,P|200:252|216:336,1,143.999995605469,8|0,0:0|0:0,0:0:0:0:
208,325,59395,5,0,0:0:0:0:
296,280,59568,1,0,0:0:0:0:
244,204,59740,1,0,0:0:0:0:
336,164,59912,1,0,0:0:0:0:
420,108,60085,2,0,P|456:72|472:28,2,95.9999970703126,8|0|8,0:0|0:0|0:0,0:0:0:0:
420,108,60775,6,0,P|336:80|232:132,1,191.999994140625,4|8,0:0|0:0,0:0:0:0:
180,52,61292,1,0,0:0:0:0:
100,104,61464,2,0,P|88:160|48:192,1,95.9999970703126
152,224,61809,2,0,P|128:276|132:328,1,95.9999970703126,8|0,0:0|0:0,0:0:0:0:
216,288,62154,6,0,P|244:236|248:188,1,95.9999970703126,0|0,0:0|0:0,0:0:0:0:
184,140,62499,1,8,0:0:0:0:
100,104,62671,1,0,0:0:0:0:
64,188,62844,2,0,P|60:240|84:292,1,95.9999970703126
152,224,63188,1,8,0:0:0:0:
156,60,63533,69,4,0:0:0:0:
156,60,63878,2,0,P|200:32|252:36,1,95.9999970703126,8|0,0:0|0:0,0:0:0:0:
248,112,64223,2,0,P|296:116|336:160,1,95.9999970703126,8|0,0:0|0:0,0:0:0:0:
268,204,64567,2,0,P|312:252|296:336,1,143.999995605469,8|0,0:0|0:0,0:0:0:0:
303,325,64912,5,0,0:0:0:0:
216,280,65085,1,0,0:0:0:0:
268,204,65257,1,0,0:0:0:0:
176,164,65429,1,0,0:0:0:0:
92,108,65602,2,0,P|56:72|40:28,2,95.9999970703126,8|0|8,0:0|0:0|0:0,0:0:0:0:
92,108,66292,6,0,P|176:80|280:132,1,191.999994140625,4|8,0:0|0:0,0:0:0:0:
332,52,66809,1,0,0:0:0:0:
412,104,66981,2,0,P|424:160|464:192,1,95.9999970703126
360,224,67326,2,0,P|384:276|380:328,1,95.9999970703126,8|0,0:0|0:0,0:0:0:0:
296,288,67671,6,0,P|268:236|264:188,1,95.9999970703126,0|0,0:0|0:0,0:0:0:0:
328,140,68016,1,8,0:0:0:0:
412,104,68188,1,0,0:0:0:0:
448,188,68361,2,0,P|452:240|428:292,1,95.9999970703126
360,224,68705,1,8,0:0:0:0:
360,224,69050,5,4,0:0:0:0:
328,140,69223,1,0,0:0:0:0:
248,104,69395,2,0,P|220:136|160:144,1,80,2|0,0:0|0:0,0:0:0:0:
168,64,69740,2,0,P|108:116|124:208,1,160,0|2,0:0|0:0,0:0:0:0:
132,276,70257,1,0,0:0:0:0:
132,276,70430,2,0,P|176:284|224:268,1,80
296,348,70775,2,0,P|257:339|218:348,1,80,2|0,0:0|0:0,0:0:0:0:
360,288,71119,2,0,P|408:264|432:200,2,120
344,204,71809,5,4,0:0:0:0:
344,204,72154,1,2,0:0:0:0:
324,120,72326,1,0,0:0:0:0:
296,40,72499,2,0,P|256:68|240:100,1,80
324,120,72844,2,0,P|360:96|380:52,1,80,2|0,0:0|0:0,0:0:0:0:
460,52,73188,6,0,B|448:92|448:92|484:120|484:184|440:212,1,160,0|2,0:0|0:0,0:0:0:0:
396,152,73706,1,0,0:0:0:0:
336,200,73878,2,0,B|288:208|280:264|280:264|240:296,2,120
360,272,74568,1,0,0:0:0:0:
68,72,74912,70,0,P|64:112|36:152,1,80,2|0,0:0|0:0,0:0:0:0:
124,172,75257,2,0,P|108:212|112:256,1,80
204,124,75602,2,0,P|224:84|220:48,1,80,2|0,0:0|0:0,0:0:0:0:
208,216,75947,5,0,0:0:0:0:
288,168,76119,1,0,0:0:0:0:
296,260,76292,1,2,0:0:0:0:
212,312,76464,1,0,0:0:0:0:
128,264,76637,1,0,0:0:0:0:
208,216,76809,1,0,0:0:0:0:
208,216,76895,1,0,0:0:0:0:
208,216,76981,1,2,0:0:0:0:
288,168,77154,1,0,0:0:0:0:
368,124,77326,6,0,P|390:194|488:216,1,160,0|2,0:0|0:0,0:0:0:0:
456,136,77844,1,0,0:0:0:0:
456,136,78016,2,0,P|432:64|352:40,1,160,0|2,0:0|0:0,0:0:0:0:
368,124,78533,1,0,0:0:0:0:
368,124,78619,1,0,0:0:0:0:
368,124,78706,1,0,0:0:0:0:
368,124,79050,6,0,P|328:140|284:128,1,80,2|0,0:0|0:0,0:0:0:0:
232,64,79395,2,0,P|192:52|144:60,2,80,0|0|2,0:0|0:0|0:0,0:0:0:0:
72,204,80085,69,4,0:0:0:0:
72,204,80430,2,0,P|96:244|136:260,1,80,2|0,0:0|0:0,0:0:0:0:
152,176,80775,1,0,0:0:0:0:
228,212,80947,1,0,0:0:0:0:
240,292,81119,2,0,P|288:312|320:328,1,80,2|0,0:0|0:0,0:0:0:0:
304,240,81464,6,0,P|256:224|228:212,1,80,0|0,0:0|0:0,0:0:0:0:
364,184,81809,2,0,P|399:201|437:216,1,80,2|0,0:0|0:0,0:0:0:0:
324,112,82154,2,0,P|268:92|208:60,2,120
396,68,82844,1,0,0:0:0:0:
304,240,83188,6,0,P|268:256|220:248,1,80,2|0,0:0|0:0,0:0:0:0:
168,188,83533,1,0,0:0:0:0:
84,164,83706,1,0,0:0:0:0:
104,248,83878,2,0,P|100:292|128:328,1,80,2|0,0:0|0:0,0:0:0:0:
168,188,84223,6,0,P|152:112|76:72,1,160,0|2,0:0|0:0,0:0:0:0:
84,164,84740,1,0,0:0:0:0:
168,188,84912,2,0,P|224:176|280:128,2,120
204,268,85602,70,0,L|284:316,1,80,0|0,0:0|0:0,0:0:0:0:
272,309,85947,1,2,0:0:0:0:
360,280,86119,1,0,0:0:0:0:
424,212,86292,2,0,P|440:176|488:148,1,80
376,56,86637,2,0,P|416:64|453:48,1,80,2|0,0:0|0:0,0:0:0:0:
312,120,86981,2,0,P|252:172|176:148,1,160,2|2,0:0|0:0,0:0:0:0:
96,184,87499,1,0,0:0:0:0:
96,184,87671,2,0,P|88:128|96:96,1,80
180,152,88016,2,0,P|184:204|176:240,1,80,2|0,0:0|0:0,0:0:0:0:
100,276,88361,6,0,P|168:320|256:280,1,160,0|2,0:0|0:0,0:0:0:0:
320,244,88878,2,0,P|392:212|476:240,1,160
396,300,89395,1,2,0:0:0:0:
396,100,89740,6,0,L|312:76,1,80
272,156,90085,2,0,L|184:184,1,80,2|0,0:0|0:0,0:0:0:0:
156,88,90430,2,0,L|36:56,2,120
156,88,91033,1,0,0:0:0:0:
156,88,91119,1,4,0:0:0:0:
48,248,91464,6,0,P|76:220|124:212,1,80,0|0,0:0|0:0,0:0:0:0:
120,300,91809,2,0,P|88:328|36:332,1,80,2|0,0:0|0:0,0:0:0:0:
208,272,92154,2,0,P|244:296|296:296,1,80
272,208,92499,5,2,0:0:0:0:
272,208,92671,2,0,P|296:160|272:92,1,120
252,72,93016,2,0,P|212:84|176:64,1,80,0|2,0:0|0:0,0:0:0:0:
92,92,93361,1,0,0:0:0:0:
92,92,93533,1,0,0:0:0:0:
68,180,93706,1,0,0:0:0:0:
68,180,93878,6,0,P|120:232|208:200,1,160,2|0,0:0|0:0,0:0:0:0:
272,160,94395,1,0,0:0:0:0:
272,160,94568,2,0,P|344:128|428:168,1,160,2|0,0:0|0:0,0:0:0:0:
348,224,95085,1,0,0:0:0:0:
348,224,95257,6,0,L|296:288,1,80,2|0,0:0|0:0,0:0:0:0:
208,316,95602,2,0,L|168:316,2,40
183,228,95947,2,0,P|238:208|272:160,2,120,2|0|0,0:0|0:0|0:0,0:0:0:0:
183,228,96550,1,0,0:0:0:0:
183,228,96637,1,6,0:0:0:0:
183,228,96981,5,0,0:0:0:0:
124,148,97154,2,0,P|100:180|40:196,1,80,0|2,0:0|0:0,0:0:0:0:
220,144,97499,1,0,0:0:0:0:
300,84,97671,1,0,0:0:0:0:
392,52,97844,6,0,B|408:80|408:80|376:120|392:176|432:200,1,160
472,128,98361,1,2,0:0:0:0:
464,276,98533,2,0,B|432:300|432:300|408:264|348:248|308:276,1,160
356,348,99050,1,2,0:0:0:0:
156,224,99223,2,0,B|172:208|172:208|208:240|276:228|292:172,1,160
220,144,99740,1,2,0:0:0:0:
156,224,99912,1,0,0:0:0:0:
160,320,100085,6,0,P|116:316|84:284,1,80,2|0,0:0|0:0,0:0:0:0:
64,208,100430,2,0,P|76:168|104:144,1,80,2|0,0:0|0:0,0:0:0:0:
160,60,100775,2,0,B|212:64|212:64|216:68|216:68|292:72,1,120,2|0,0:0|0:0,0:0:0:0:
308,76,101119,2,0,B|360:80|360:80|364:84|364:84|440:88,1,120,2|0,0:0|0:0,0:0:0:0:
460,100,101464,2,0,L|444:160,3,40,2|0|0|0,0:0|0:0|0:0|0:0,0:0:0:0:
448,184,101809,2,0,L|460:244,3,40,2|0|0|0,0:0|0:0|0:0|0:0,0:0:0:0:
448,268,102154,6,0,P|380:312|300:272,1,160,6|0,0:0|0:0,0:0:0:0:
372,220,102671,1,0,0:0:0:0:
372,220,102844,2,0,P|364:168|408:108,2,120,2|0|0,0:0|0:0|0:0,0:0:0:0:
288,144,103533,2,0,P|264:180|216:192,1,80
264,276,103878,6,0,P|224:288|184:276,1,80,2|0,0:0|0:0,0:0:0:0:
104,332,104223,2,0,P|88:268|116:208,1,120,2|0,0:0|0:0,0:0:0:0:
132,184,104568,2,0,P|160:128|148:68,1,120,2|0,0:0|0:0,0:0:0:0:
128,40,104912,5,6,0:0:0:0:
128,40,105257,1,0,0:0:0:0:
128,40,105430,2,0,L|68:104,1,80,0|2,0:0|0:0,0:0:0:0:
220,60,105775,1,0,0:0:0:0:
220,60,105947,2,0,L|260:148,2,80,0|0|2,0:0|0:0|0:0,0:0:0:0:
312,36,106464,2,0,P|372:88|460:64,1,160
468,176,106981,2,0,P|436:200|380:200,1,80,2|0,0:0|0:0,0:0:0:0:
360,288,107326,1,0,0:0:0:0:
360,288,107499,1,0,0:0:0:0:
360,288,107671,6,0,P|304:304|248:280,1,120,2|0,0:0|0:0,0:0:0:0:
224,256,108016,2,0,P|164:228|108:236,1,120
76,252,108361,2,0,P|48:196|60:132,2,120,2|0|0,0:0|0:0|0:0,0:0:0:0:
136,184,109050,6,0,B|152:148|200:144|200:144|228:104|276:104,1,160,6|0,0:0|0:0,0:0:0:0:
276,192,109568,1,0,0:0:0:0:
276,192,109740,2,0,B|314:192|342:152|342:152|390:148|406:112,1,160,2|0,0:0|0:0,0:0:0:0:
416,284,110430,6,0,P|368:312|296:304,1,120,6|0,0:0|0:0,0:0:0:0:
305,308,110775,1,0,0:0:0:0:
216,268,110947,1,0,0:0:0:0:
276,192,111119,2,0,P|244:168|224:128,2,80,2|0|0,0:0|0:0|0:0,0:0:0:0:
308,108,111637,2,0,P|252:56|168:76,1,160
96,104,112154,1,0,0:0:0:0:
84,188,112326,2,0,L|84:272,1,80,0|2,0:0|0:0,0:0:0:0:
256,344,112844,1,2,0:0:0:0:
256,344,113188,22,0,P|280:304|336:280,1,95.9999970703126,6|0,0:0|0:0,0:0:0:0:
396,336,113533,2,0,P|408:264|364:204,1,143.999995605469,8|0,0:0|0:0,0:0:0:0:
340,188,113878,2,0,P|332:136|356:100,1,95.9999970703126
264,48,114223,2,0,P|264:92|232:136,1,95.9999970703126,8|0,0:0|0:0,0:0:0:0:
168,68,114568,6,0,B|152:112|152:112|100:128|84:204|132:248,1,191.999994140625,2|8,0:0|0:0,0:0:0:0:
184,184,115085,1,0,0:0:0:0:
84,56,115257,1,0,0:0:0:0:
276,312,115602,1,8,0:0:0:0:
276,312,115947,6,0,B|296:256|360:256|360:256|392:216,1,143.999995605469
408,196,116292,2,0,L|464:112,1,95.9999970703126,8|0,0:0|0:0,0:0:0:0:
344,112,116637,2,0,L|288:192,1,95.9999970703126
344,112,116981,1,8,0:0:0:0:
260,60,117154,1,0,0:0:0:0:
168,88,117326,6,0,P|136:120|84:128,1,95.9999970703126,2|0,0:0|0:0,0:0:0:0:
48,216,117671,1,8,0:0:0:0:
48,216,117844,1,0,0:0:0:0:
128,280,118016,2,0,L|108:328,2,47.9999985351563
228,256,118361,2,0,P|276:300|356:280,1,143.999995605469,8|0,0:0|0:0,0:0:0:0:
376,256,118706,70,0,P|412:220|460:212,1,95.9999970703126,6|0,0:0|0:0,0:0:0:0:
448,120,119050,2,0,B|412:124|412:124|392:136|392:136|344:140,1,95.9999970703126,8|0,0:0|0:0,0:0:0:0:
352,48,119395,1,0,0:0:0:0:
260,80,119568,1,0,0:0:0:0:
192,156,119740,2,0,P|164:116|160:64,1,95.9999970703126,8|0,0:0|0:0,0:0:0:0:
260,80,120085,6,0,P|268:176|192:260,1,191.999994140625,6|8,0:0|0:0,0:0:0:0:
192,156,120602,1,0,0:0:0:0:
112,208,120775,2,0,L|80:172,2,47.9999985351563
72,292,121119,2,0,L|20:288,2,47.9999985351563,8|0|0,0:0|0:0|0:0,0:0:0:0:
172,280,121464,6,0,P|212:308|264:308,1,95.9999970703126,6|0,0:0|0:0,0:0:0:0:
257,309,121723,1,0,0:0:0:0:
257,309,121809,1,8,0:0:0:0:
344,264,121981,1,0,0:0:0:0:
428,288,122154,2,0,P|436:244|404:188,1,95.9999970703126
368,116,122499,2,0,P|392:72|444:48,1,95.9999970703126,8|0,0:0|0:0,0:0:0:0:
452,132,122844,5,2,0:0:0:0:
300,180,123016,1,0,0:0:0:0:
300,180,123188,1,8,0:0:0:0:
224,116,123361,2,0,P|184:96|152:48,3,95.9999970703126,0|0|0|8,0:0|0:0|0:0|0:0,0:0:0:0:
64,208,124223,70,0,B|84:256|84:256|124:248|180:276|192:332,1,191.999994140625,6|8,0:0|0:0,0:0:0:0:
104,340,124740,1,0,0:0:0:0:
144,180,124912,2,0,P|116:136|56:116,1,95.9999970703126,8|0,0:0|0:0,0:0:0:0:
156,48,125257,2,0,P|208:88|284:68,1,143.999995605469,8|0,0:0|0:0,0:0:0:0:
312,44,125602,6,0,L|392:116,1,95.9999970703126,2|0,0:0|0:0,0:0:0:0:
440,192,125947,2,0,L|368:276,1,95.9999970703126,8|0,0:0|0:0,0:0:0:0:
264,276,126292,2,0,P|300:240|296:184,1,95.9999970703126
377,264,126637,1,8,0:0:0:0:
160,296,126981,6,0,P|176:228|232:184,1,143.999995605469,6|0,0:0|0:0,0:0:0:0:
272,168,127326,2,0,P|308:132|316:88,1,95.9999970703126,8|0,0:0|0:0,0:0:0:0:
216,92,127671,1,0,0:0:0:0:
216,92,127844,1,0,0:0:0:0:
124,60,128016,1,8,0:0:0:0:
124,60,128188,1,0,0:0:0:0:
40,104,128361,6,0,L|24:200,1,95.9999970703126,2|0,0:0|0:0,0:0:0:0:
120,152,128706,2,0,L|132:256,1,95.9999970703126,8|0,0:0|0:0,0:0:0:0:
52,304,129050,1,0,0:0:0:0:
52,304,129137,1,0,0:0:0:0:
52,304,129223,1,0,0:0:0:0:
144,340,129395,1,8,0:0:0:0:
448,176,129740,70,0,B|428:128|428:128|388:136|332:108|316:56,1,191.999994140625,6|8,0:0|0:0,0:0:0:0:
408,44,130257,1,0,0:0:0:0:
368,204,130429,2,0,P|396:248|456:268,1,95.9999970703126,8|0,0:0|0:0,0:0:0:0:
356,336,130774,2,0,P|304:296|228:316,1,143.999995605469,8|0,0:0|0:0,0:0:0:0:
200,340,131119,6,0,L|120:268,1,95.9999970703126,2|0,0:0|0:0,0:0:0:0:
72,192,131464,2,0,L|144:108,1,95.9999970703126,8|0,0:0|0:0,0:0:0:0:
248,108,131809,2,0,P|212:144|216:200,1,95.9999970703126
134,119,132154,1,8,0:0:0:0:
352,88,132499,6,0,P|336:156|280:200,1,143.999995605469,6|0,0:0|0:0,0:0:0:0:
240,216,132844,2,0,P|204:252|196:296,1,95.9999970703126,8|0,0:0|0:0,0:0:0:0:
296,292,133188,1,0,0:0:0:0:
296,292,133361,1,0,0:0:0:0:
388,324,133533,1,8,0:0:0:0:
388,324,133705,1,0,0:0:0:0:
472,280,133878,6,0,L|488:184,1,95.9999970703126,2|0,0:0|0:0,0:0:0:0:
392,232,134223,2,0,L|380:128,1,95.9999970703126,8|0,0:0|0:0,0:0:0:0:
460,80,134567,1,0,0:0:0:0:
460,80,134654,1,0,0:0:0:0:
460,80,134740,1,0,0:0:0:0:
368,44,134912,1,8,0:0:0:0:
368,44,135085,1,0,0:0:0:0:
152,96,135257,85,6,0:0:0:0:
