osu file format v14

[General]
AudioFilename: audio.mp3
AudioLeadIn: 0
PreviewTime: 65607
Countdown: 0
SampleSet: None
StackLeniency: 0.7
Mode: 0
LetterboxInBreaks: 0
WidescreenStoryboard: 0

[Editor]
Bookmarks: 11124,22158,33193,44227,55262,66296,77331,88365,99400,110434,121469,132503,143538,154572
DistanceSpacing: 1.4
BeatDivisor: 4
GridSize: 4
TimelineZoom: 1.2

[Metadata]
Title:Slam
TitleUnicode:Slam
Artist:Pendulum
ArtistUnicode:Pendulum
Creator:Hullahopp
Version:Annihilation
Source:
Tags:
BeatmapID:1229431
BeatmapSetID:580717

[Difficulty]
HPDrainRate:6.4
CircleSize:4.4
OverallDifficulty:7
ApproachRate:9.3
SliderMultiplier:1.3
SliderTickRate:1

[Events]
//Background and Video events
0,0,"RBG.jpg",0,0
//Break Periods
//Storyboard Layer 0 (Background)
//Storyboard Layer 1 (Fail)
//Storyboard Layer 2 (Pass)
//Storyboard Layer 3 (Foreground)
//Storyboard Sound Samples

[TimingPoints]
52,344.827586206897,4,1,0,60,1,0

[Colours]
Combo1 : 227,64,105
Combo2 : 192,192,192
Combo3 : 0,176,88
Combo4 : 224,101,101

[HitObjects]
396,312,52,6,0,P|420:248|396:192,1,130
308,176,569,1,0,0:0:0:0:
272,316,741,2,0,L|264:252,1,65
192,128,1086,2,0,L|184:192,1,65
146,60,1431,6,0,P|178:48|210:48,1,65
292,144,1776,2,0,P|272:80|300:28,1,130
392,12,2293,1,0,0:0:0:0:
352,92,2465,2,0,P|368:121|371:154,1,65
320,228,2810,6,0,P|376:196|440:208,1,130,0|0,0:1|0:1,0:1:0:0:
340,320,3327,1,0,0:0:0:0:
260,280,3500,2,0,L|196:276,1,65
88,196,3845,2,0,L|152:192,1,65
228,28,4189,5,0,0:0:0:0:
264,128,4362,1,0,0:0:0:0:
344,12,4534,2,0,L|412:16,1,65
384,200,4879,2,0,P|352:140|372:84,1,130
448,134,5396,1,0,0:0:0:0:
421,276,5569,6,0,P|356:280|308:240,1,130
448,134,6086,1,0,0:0:0:0:
436,288,6258,2,0,L|444:352,1,65
280,320,6603,2,0,P|316:308|344:312,1,65
222,375,6948,6,0,P|202:311|230:259,1,130
320,232,7465,1,0,0:0:0:0:
184,176,7638,2,0,L|116:176,1,65
248,88,7983,2,0,L|313:88,1,65
176,152,8327,6,0,P|156:88|176:28,1,130
276,164,8845,1,0,0:0:0:0:
384,220,9017,2,0,P|416:216|448:200,1,65
276,164,9362,2,0,P|244:168|212:184,1,65
248,352,9707,5,0,0:0:0:0:
300,258,9879,1,0,0:0:0:0:
328,376,10052,1,0,0:0:0:0:
276,164,10224,1,0,0:0:0:0:
436,240,10396,1,0,0:0:0:0:
436,240,11086,6,0,B|408:220|408:220|393:161|393:161|407:129,1,130
488,164,11603,1,0,0:0:0:0:
384,300,11776,2,0,P|349:316|296:316,1,65
176,204,12120,2,0,P|207:209|237:223,1,65
80,232,12465,5,0,0:0:0:0:
160,192,12638,1,0,0:0:0:0:
200,112,12810,2,0,P|207:83|208:28,1,65
252,212,13155,2,0,P|254:244|261:276,1,65
432,308,13500,1,0,0:0:0:0:
324,352,13672,1,0,0:0:0:0:
332,181,13845,6,0,P|334:118|279:61,1,130
247,147,14362,1,0,0:0:0:0:
328,287,14534,2,0,P|327:322|320:363,1,65
252,212,14879,2,0,P|246:179|247:147,1,65
368,4,15224,5,0,0:0:0:0:
352,92,15397,1,0,0:0:0:0:
332,181,15569,1,0,0:0:0:0:
344,196,15741,1,0,0:0:0:0:
232,132,15914,2,0,P|202:120|152:120,1,65
336,280,16258,2,0,P|368:277|398:265,1,65
176,212,16603,6,0,P|128:204|52:264,1,130
138,294,17120,1,0,0:0:0:0:
232,132,17293,2,0,P|238:100|240:52,1,65
168,200,17638,1,0,0:0:0:0:
320,132,17810,1,0,0:0:0:0:
100,40,17983,6,0,P|63:41|16:60,1,65
232,56,18327,1,0,0:0:0:0:
168,200,18500,1,0,0:0:0:0:
112,28,18672,2,0,L|116:120,1,65
165,264,19017,2,0,L|167:199,1,65
232,56,19362,5,0,0:0:0:0:
248,144,19535,1,0,0:0:0:0:
268,233,19707,1,0,0:0:0:0:
256,248,19879,1,0,0:0:0:0:
336,172,20052,2,0,P|364:164|420:160,1,65
504,72,20396,2,0,P|471:68|440:59,1,65
244,44,20741,2,0,L|384:32,1,130
216,32,21258,1,0,0:0:0:0:
360,104,21431,1,0,0:0:0:0:
180,348,22120,6,0,B|184:284|184:284|168:252|168:252|172:204,1,130
304,176,22638,1,0,0:0:0:0:
112,304,22810,2,0,B|88:256|88:256|88:240,1,65
160,88,23155,2,0,L|160:156,1,65
90,43,23500,6,0,P|146:7|206:19,1,130
252,96,24017,1,0,0:0:0:0:
396,44,24189,2,0,B|360:40|360:40|328:48,1,65
444,172,24534,2,0,B|480:176|480:176|512:168,1,65
376,284,24879,6,0,P|316:312|256:296,1,130
216,216,25396,1,0,0:0:0:0:
420,140,25569,2,0,P|428:172|420:204,1,65
276,68,25914,2,0,P|308:60|340:68,1,65
204,204,26258,6,0,B|160:200|160:200|120:208|120:208|76:196,1,130
52,108,26776,1,0,0:0:0:0:
172,284,26948,2,0,B|176:316|176:316|172:348,1,65
288,224,27293,2,0,B|284:192|284:192|288:160,1,65
376,256,27638,6,0,B|360:192|360:192|376:128,1,130
460,96,28155,1,0,0:0:0:0:
316,24,28327,2,0,L|248:28,1,65
152,160,28672,1,0,0:0:0:0:
144,144,28845,1,0,0:0:0:0:
72,308,29017,6,0,L|136:311,1,65
316,212,29362,1,0,0:0:0:0:
324,196,29535,1,0,0:0:0:0:
328,364,29707,2,0,P|316:336|320:300,1,65
204,136,30052,2,0,P|216:164|212:200,1,65
138,86,30396,6,0,P|198:54|254:70,1,130
304,148,30914,1,0,0:0:0:0:
220,332,31086,2,0,L|216:268,1,65
316,140,31431,2,0,L|312:204,1,65
200,160,31776,5,0,0:0:0:0:
308,120,31948,1,0,0:0:0:0:
112,136,32120,1,0,0:0:0:0:
212,8,32293,1,0,0:0:0:0:
72,32,32465,1,0,0:0:0:0:
