osu file format v14

[General]
AudioFilename: audio.mp3
AudioLeadIn: 0
PreviewTime: 116589
Countdown: 0
SampleSet: Soft
StackLeniency: 0.4
Mode: 0
LetterboxInBreaks: 0
WidescreenStoryboard: 1

[Editor]
DistanceSpacing: 0.9
BeatDivisor: 4
GridSize: 4
TimelineZoom: 1.8

[Metadata]
Title:Self vs Self (feat. In Flames)
TitleUnicode:Self vs Self (feat. In Flames)
Artist:Pendulum
ArtistUnicode:Pendulum
Creator:FCL
Version:Insane
Source:
Tags:rock Immersion electronic english metal versus vs. melodic death
BeatmapID:4190347
BeatmapSetID:2010229

[Difficulty]
HPDrainRate:5
CircleSize:4
OverallDifficulty:8
ApproachRate:9
SliderMultiplier:2
SliderTickRate:1

[Events]
//Background and Video events
0,0,"sci_fi-astronaut-757416.jpg",0,0
//Break Periods
//Storyboard Layer 0 (Background)
//Storyboard Layer 1 (Fail)
//Storyboard Layer 2 (Pass)
//Storyboard Layer 3 (Foreground)
//Storyboard Layer 4 (Overlay)
//Storyboard Sound Samples

[TimingPoints]
99,344.827586206897,4,2,1,70,1,0
1479,-133.333333333333,4,2,1,70,0,0
2943,-133.333333333333,4,2,1,5,0,0
3030,-133.333333333333,4,2,1,70,0,0
4323,-133.333333333333,4,2,1,5,0,0
4409,-133.333333333333,4,2,1,70,0,0
7254,-133.333333333333,4,2,1,5,0,0
7340,-133.333333333333,4,2,1,70,0,0
8461,-133.333333333333,4,2,1,5,0,0
8547,-133.333333333333,4,2,1,70,0,0
11219,-133.333333333333,4,2,1,5,0,0
11305,-133.333333333333,4,2,1,70,0,0
12771,-133.333333333333,4,2,1,5,0,0
12857,-133.333333333333,4,2,1,70,0,0
13978,-133.333333333333,4,2,1,5,0,0
14064,-133.333333333333,4,2,1,70,0,0
16736,-133.333333333333,4,2,1,5,0,0
16823,-133.333333333333,4,2,1,70,0,0
18288,-133.333333333333,4,2,1,5,0,0
18374,-133.333333333333,4,2,1,70,0,0
21047,-133.333333333333,4,2,1,5,0,0
21133,-133.333333333333,4,2,1,70,0,0
23547,-133.333333333333,4,2,1,50,0,0
29064,-117.647058823529,4,2,1,60,0,0
34581,-117.647058823529,4,2,1,70,0,0
40099,-107.52688172043,4,2,1,75,0,0
42857,-200,4,2,1,60,0,0
43710,-107.52688172043,4,2,1,70,0,0
44236,-133.333333333333,4,2,1,70,0,0
44926,-200,4,2,1,70,0,0
45271,-107.52688172043,4,2,1,70,0,0
45616,-100,4,1,1,80,0,0
45874,-100,4,1,1,5,0,0
45961,-100,4,1,1,80,0,0
56909,-100,4,1,1,5,0,0
56995,-100,4,1,1,80,0,0
66650,-200,4,1,1,80,0,0
67675,-117.647058823529,4,1,1,70,0,0
67943,-117.647058823529,4,1,1,5,0,0
68030,-117.647058823529,4,1,1,70,0,0
73288,-117.647058823529,4,1,1,5,0,0
73374,-117.647058823529,4,1,1,70,0,0
79064,-117.647058823529,4,1,1,70,0,0
84323,-117.647058823529,4,1,1,5,0,0
84409,-117.647058823529,4,1,1,70,0,0
89754,-133.333333333333,4,1,1,70,0,0
98288,-133.333333333333,4,1,1,5,0,0
98374,-133.333333333333,4,1,1,70,0,0
117340,-100,4,1,1,80,0,1
120185,-100,4,1,1,5,0,1
120271,-100,4,1,1,80,0,1
127685,-200,4,1,1,80,0,1
127857,-200,4,1,1,80,0,1
128202,-100,4,1,1,80,0,1
136909,-100,4,1,1,5,0,1
136995,-100,4,1,1,80,0,1
138030,-200,4,1,1,80,0,1
138719,-133.333333333333,4,1,1,80,0,1
139064,-250,4,1,1,80,0,1
139409,-100,4,1,1,80,0,0
145185,-100,4,1,1,5,0,0
145271,-100,4,1,1,80,0,0
149581,-200,4,1,1,80,0,0
150443,-100,4,1,1,80,0,0
150702,-100,4,1,1,5,0,0
150788,-100,4,1,1,80,0,0
156219,-100,4,1,1,5,0,0
156305,-100,4,1,1,80,0,0
160788,-200,4,1,1,80,0,0
161478,-117.647058823529,4,1,1,80,0,0
161736,-117.647058823529,4,1,1,5,0,0
161823,-117.647058823529,4,1,1,80,0,0
183547,-133.333333333333,4,1,1,70,0,0
192081,-133.333333333333,4,1,1,5,0,0
192167,-133.333333333333,4,1,1,70,0,0
211133,-133.333333333333,4,1,1,50,0,0
211478,-181.818181818181,4,2,1,50,0,0
222167,-181.818181818181,4,2,1,50,0,0
224926,-181.818181818181,4,2,1,60,0,0
227685,-181.818181818181,4,2,1,80,0,0
230185,-181.818181818181,4,2,1,5,0,0
230271,-100,4,1,1,70,0,0
233202,-100,4,1,1,80,0,1
236047,-100,4,1,1,5,0,1
236133,-100,4,1,1,80,0,1
243547,-133.333333333333,4,1,1,80,0,1
244236,-100,4,1,1,80,0,1
247081,-100,4,1,1,5,0,1
247167,-100,4,1,1,80,0,1
252771,-100,4,1,1,5,0,1
252857,-100,4,1,1,80,0,1
253892,-200,4,1,1,80,0,1
254581,-133.333333333333,4,1,1,80,0,1
254926,-250,4,1,1,80,0,1
255271,-100,4,1,1,80,0,0
275961,-142.857142857143,4,1,1,80,0,0
276305,-166.666666666667,4,1,1,80,0,0
276650,-200,4,1,1,80,0,0
280271,-142.857142857143,4,1,1,5,0,0

[Colours]
Combo1 : 164,99,235
Combo2 : 241,136,58
Combo3 : 244,53,72
Combo4 : 215,97,218

[HitObjects]
256,192,99,12,0,1305,1:0:0:0:
79,42,1478,5,4,1:0:0:0:
79,42,1823,2,0,L|168:36,1,75.0000028610231,0|0,1:0|0:0,0:0:0:0:
248,71,2167,2,0,P|228:117|220:157,2,75.0000028610231,10|2|2,1:1|0:0|0:0,0:0:0:0:
288,209,2685,6,0,L|377:203,1,75.0000028610231,0|0,1:0|0:0,0:0:0:0:
475,144,3030,1,8,1:0:0:0:
461,217,3202,1,0,1:0:0:0:
461,217,3374,1,0,1:0:0:0:
501,328,3547,2,0,P|453:303|405:292,2,75.0000028610231,10|2|2,1:0|0:0|1:0,0:0:0:0:
324,360,4064,5,0,1:0:0:0:
324,360,4236,2,0,P|299:312|288:264,1,75.0000028610231,0|0,1:0|0:0,0:0:0:0:
210,228,4581,1,0,1:0:0:0:
210,228,4754,1,0,0:0:0:0:
105,309,4926,2,0,L|204:296,2,75.0000028610231,10|2|2,1:0|0:0|0:0,0:0:0:0:
20,363,5443,6,0,P|6:303|12:266,1,75.0000028610231,0|0,1:0|0:0,0:0:0:0:
87,196,5788,1,8,1:0:0:0:
60,125,5961,1,0,1:0:0:0:
11,182,6133,1,0,1:0:0:0:
164,211,6305,2,0,L|254:195,2,75.0000028610231,10|2|2,1:0|1:0|0:0,0:0:0:0:
314,106,6823,5,0,1:1:0:0:
395,69,6995,2,0,L|384:208,1,112.500004291535,4|0,1:0|2:0,0:0:0:0:
406,212,7340,2,0,P|452:233|462:282,1,75.0000028610231,0|0,1:0|0:0,0:0:0:0:
383,336,7685,2,0,P|325:322|276:319,2,75.0000028610231,10|2|2,1:0|0:0|0:0,0:0:0:0:
221,368,8202,6,0,P|211:310|177:250,1,112.500004291535,0|0,1:0|2:0,0:0:0:0:
149,253,8547,2,0,L|158:159,1,75.0000028610231,8|0,1:0|1:0,0:0:0:0:
171,72,8892,1,0,1:0:0:0:
110,116,9064,2,0,P|59:132|22:151,2,75.0000028610231,10|2|2,1:0|0:0|1:0,0:0:0:0:
257,22,9581,5,0,1:0:0:0:
257,22,9754,2,0,L|244:127,1,75.0000028610231,0|0,1:0|0:0,0:0:0:0:
321,188,10099,1,0,1:0:0:0:
321,188,10271,1,0,0:0:0:0:
416,63,10443,2,0,P|374:74|315:99,2,75.0000028610231,10|2|2,1:0|0:0|0:0,0:0:0:0:
494,186,10961,6,0,P|451:207|363:229,1,112.500004291535,0|0,1:0|2:0,0:0:0:0:
366,254,11305,1,8,1:0:0:0:
311,342,11478,1,0,0:0:0:0:
311,342,11650,1,0,1:0:0:0:
211,308,11823,5,10,1:0:0:0:
205,282,11909,1,8,1:0:0:0:
200,256,11995,1,2,1:0:0:0:
195,230,12081,1,0,1:0:0:0:
189,205,12167,5,8,3:0:0:0:
203,210,12253,1,8,3:0:0:0:
214,225,12339,1,12,3:0:0:0:
213,243,12425,1,12,3:0:0:0:
200,256,12512,6,0,P|130:249|58:257,1,112.500004291535,4|0,1:0|0:0,0:0:0:0:
63,280,12857,1,0,1:0:0:0:
24,211,13030,1,0,0:0:0:0:
205,338,13202,2,0,L|311:323,2,75.0000028610231,8|0|0,1:0|0:0|0:0,0:0:0:0:
378,364,13719,6,0,P|386:309|425:231,1,112.500004291535,0|0,1:0|0:0,0:0:0:0:
447,244,14064,2,0,L|432:145,1,75.0000028610231,8|0,1:0|1:0,0:0:0:0:
414,31,14409,1,0,1:0:0:0:
364,127,14581,2,0,P|313:108|281:70,2,75.0000028610231,10|2|2,1:0|0:0|1:2,0:0:0:0:
237,193,15099,5,0,1:0:0:0:
237,193,15271,2,0,P|214:143|218:94,1,75.0000028610231
104,30,15616,1,0,1:0:0:0:
47,83,15788,1,0,0:0:0:0:
91,197,15961,2,0,L|81:290,2,75.0000028610231,10|2|2,1:0|0:0|0:0,0:0:0:0:
153,346,16478,6,0,B|171:313|171:313|265:330,1,112.500004291535,0|0,1:0|0:0,0:0:0:0:
281,345,16823,2,0,L|361:332,1,75.0000028610231,8|0,1:0|1:0,0:0:0:0:
482,210,17167,1,0,1:0:0:0:
458,344,17340,2,0,P|430:303|411:262,2,75.0000028610231,10|2|2,1:0|1:2|0:0,0:0:0:0:
482,210,17857,5,0,1:0:0:0:
482,210,18030,2,0,P|416:188|356:214,1,112.500004291535,0|0,1:0|0:0,0:0:0:0:
350,230,18374,2,0,L|246:214,1,75.0000028610231,0|0,1:0|0:0,0:0:0:0:
198,99,18719,2,0,L|214:-5,2,75.0000028610231,10|2|2,1:0|0:0|0:0,0:0:0:0:
102,217,19236,5,0,1:0:0:0:
102,217,19409,1,0,0:0:0:0:
105,333,19581,1,8,1:0:0:0:
169,290,19754,2,0,L|253:279,1,75.0000028610231,0|0,1:0|1:0,0:0:0:0:
105,333,20099,2,0,P|67:305|59:256,2,75.0000028610231,10|2|2,1:0|0:0|1:2,0:0:0:0:
6,222,20616,5,0,1:0:0:0:
6,222,20788,2,0,L|16:119,1,75.0000028610231,0|0,1:0|0:0,0:0:0:0:
158,44,21133,1,0,1:0:0:0:
158,44,21305,1,0,0:0:0:0:
35,5,21478,2,0,L|42:79,2,75.0000028610231,10|2|2,1:0|0:0|0:0,0:0:0:0:
178,141,21995,5,0,1:0:0:0:
278,201,22167,1,8,1:0:0:0:
314,199,22253,1,8,1:0:0:0:
340,173,22339,1,8,1:0:0:0:
342,136,22425,1,8,1:0:0:0:
319,108,22512,5,0,1:0:0:0:
321,127,22598,1,0,1:0:0:0:
323,145,22684,1,8,3:0:0:0:
325,164,22770,1,8,3:0:0:0:
314,199,22857,6,0,L|306:255,3,37.5000014305115,12|12|12|0,3:3|3:3|3:3|3:0,0:0:0:0:
261,320,23202,2,0,L|351:312,1,75.0000028610231,8|0,3:1|1:0,0:0:0:0:
407,349,23547,6,0,L|426:164,1,150.000005722046,4|0,1:0|0:0,0:0:0:0:
422,199,24236,1,0,0:0:0:0:
410,122,24409,1,0,0:0:0:0:
399,43,24581,1,0,0:0:0:0:
272,23,24754,1,0,0:0:0:0:
272,23,24926,6,0,L|287:172,1,150.000005722046
287,172,25616,1,0,0:0:0:0:
253,310,25788,1,8,3:3:0:0:
214,194,25961,1,0,0:0:0:0:
253,310,26133,1,8,3:0:0:0:
140,354,26305,6,0,B|46:318|46:318|-3:361,1,150.000005722046,12|0,3:0|0:0,0:0:0:0:
8,350,26995,1,0,0:0:0:0:
14,275,27167,1,0,0:0:0:0:
24,200,27340,1,0,0:0:0:0:
166,168,27512,1,0,0:0:0:0:
166,168,27685,6,0,B|260:132|260:132|297:164,1,150.000005722046
297,164,28116,1,0,0:0:0:0:
297,164,28202,1,0,0:0:0:0:
383,184,28374,1,0,0:0:0:0:
433,128,28547,1,0,0:0:0:0:
416,54,28719,1,0,0:0:0:0:
304,171,28892,1,8,3:3:0:0:
400,286,29064,5,2,0:3:0:0:
331,325,29236,2,0,L|224:315,1,85.0000016212464
18,238,29581,5,2,0:3:0:0:
87,277,29753,2,0,L|194:267,1,85.0000016212464
454,162,30099,5,2,0:3:0:0:
385,201,30271,2,0,L|278:191,1,85.0000016212464
11,135,30616,5,2,0:3:0:0:
80,174,30788,2,0,L|187:164,1,85.0000016212464
353,82,31133,5,2,0:3:0:0:
369,10,31305,1,8,3:0:0:0:
143,1,31478,5,2,0:3:0:0:
159,73,31650,1,8,3:0:0:0:
292,119,31823,5,10,3:3:0:0:
361,157,31995,2,0,P|408:139|426:87,1,85.0000016212464
203,174,32340,5,2,0:3:0:0:
134,212,32512,2,0,P|87:194|69:142,1,85.0000016212464
317,226,32857,5,2,0:3:0:0:
386,264,33029,2,0,P|433:246|451:194,1,85.0000016212464
180,280,33374,5,2,0:3:0:0:
111,318,33546,2,0,P|64:300|46:248,1,85.0000016212464
354,304,33892,5,2,0:3:0:0:
337,379,34064,1,0,0:0:0:0:
260,366,34236,1,2,0:3:0:0:
180,280,34409,5,0,3:3:0:0:
60,355,34581,6,0,L|44:252,1,85.0000016212464,10|0,3:0|0:0,0:0:0:0:
37,186,34926,1,0,0:0:0:0:
302,337,35099,6,0,L|318:234,1,85.0000016212464,2|0,0:3|0:0,0:0:0:0:
325,168,35444,1,0,0:0:0:0:
131,264,35616,6,0,L|115:161,1,85.0000016212464,2|0,0:3|0:0,0:0:0:0:
108,95,35961,1,0,0:0:0:0:
394,263,36133,6,0,L|410:160,1,85.0000016212464,2|0,0:3|0:0,0:0:0:0:
417,94,36478,1,0,0:0:0:0:
183,132,36650,5,2,0:3:0:0:
165,33,36823,1,8,3:0:0:0:
346,6,36995,5,0,0:0:0:0:
328,105,37168,1,8,3:0:0:0:
183,132,37340,6,0,P|113:109|71:89,1,85.0000016212464,10|0,3:0|0:0,0:0:0:0:
47,18,37685,1,0,0:0:0:0:
302,189,37857,6,0,P|372:166|414:146,1,85.0000016212464,2|0,0:3|0:0,0:0:0:0:
438,75,38202,1,0,0:0:0:0:
147,253,38374,6,0,P|77:230|35:210,1,85.0000016212464,2|0,0:3|0:0,0:0:0:0:
11,139,38719,1,0,0:0:0:0:
338,301,38892,6,0,P|408:278|450:258,1,85.0000016212464,2|0,0:3|0:0,0:0:0:0:
474,187,39237,1,0,0:0:0:0:
135,300,39409,5,2,0:3:0:0:
221,298,39581,1,0,0:0:0:0:
269,371,39754,1,0,0:0:0:0:
418,273,39926,1,8,3:3:0:0:
463,343,40099,6,0,L|335:318,1,93.0000029090882,10|0,3:0|0:0,0:0:0:0:
235,297,40443,1,0,0:0:0:0:
41,268,40616,6,0,L|169:243,1,93.0000029090882,2|0,0:3|0:0,0:0:0:0:
269,222,40960,1,0,0:0:0:0:
466,198,41133,6,0,L|338:173,1,93.0000029090882,2|0,0:3|0:0,0:0:0:0:
209,148,41477,1,0,0:0:0:0:
15,112,41650,6,0,L|143:87,1,93.0000029090882,2|0,0:3|0:0,0:0:0:0:
272,62,41994,1,0,0:0:0:0:
441,7,42167,5,2,0:3:0:0:
422,117,42340,1,8,3:3:0:0:
399,226,42512,1,0,0:0:0:0:
494,81,42685,1,8,3:0:0:0:
480,247,42857,6,0,L|483:285,3,25,8|0|0|0,3:0|0:0|0:0|0:0,0:0:0:0:
411,306,43202,2,0,L|408:344,1,25,8|0,3:0|0:0,0:0:0:0:
313,361,43374,2,0,L|337:362,3,25,4|0|4|0,3:0|0:0|3:0|0:0,0:0:0:0:
226,367,43719,5,8,1:0:0:0:
189,363,43805,1,8,1:0:0:0:
158,342,43891,1,8,1:0:0:0:
142,310,43977,1,8,1:0:0:0:
144,273,44063,1,8,1:0:0:0:
163,242,44150,1,8,1:0:0:0:
195,224,44236,6,0,L|186:286,3,37.5000014305115,8|8|8|8,1:0|3:0|3:0|3:0,0:0:0:0:
165,102,44581,2,0,L|174:159,3,37.5000014305115,12|12|12|12,3:0|3:0|3:0|3:0,0:0:0:0:
247,26,44926,6,0,L|241:64,3,25,8|12|8|12,3:0|3:0|3:0|3:0,0:0:0:0:
351,157,45271,5,12,1:3:0:0:
367,123,45357,1,4,1:3:0:0:
401,140,45443,1,8,1:3:0:0:
384,173,45530,1,4,1:3:0:0:
380,150,45616,6,0,B|319:130|319:130|276:162,1,100,4|0,1:0|0:0,0:0:0:0:
431,245,45961,1,8,0:0:0:0:
506,33,46133,2,0,P|482:104|473:158,1,100,2|0,0:0|0:0,0:0:0:0:
502,305,46478,1,0,0:0:0:0:
288,351,46650,2,0,P|361:360|410:381,1,100,10|0,0:0|0:0,0:0:0:0:
405,369,46909,1,0,0:0:0:0:
424,364,46995,6,0,P|423:297|358:171,1,200,0|8,0:0|0:0,0:0:0:0:
188,130,47512,1,2,0:0:0:0:
188,130,47599,1,0,0:0:0:0:
188,130,47685,2,0,L|199:237,1,100,2|2,0:0|0:0,0:0:0:0:
326,34,48030,2,0,B|279:38|279:38|271:44|271:44|200:51,1,100,10|0,0:0|0:0,0:0:0:0:
28,27,48374,5,0,0:0:0:0:
83,85,48547,2,0,L|68:229,1,100,2|8,0:0|0:0,0:0:0:0:
53,363,48892,1,0,0:0:0:0:
132,382,49064,2,0,L|117:238,1,100,2|0,0:0|0:0,0:0:0:0:
250,159,49409,1,10,0:0:0:0:
288,162,49495,1,0,0:0:0:0:
307,195,49581,6,0,P|230:187|208:70,1,200,2|0,0:0|0:0,0:0:0:0:
211,69,50012,1,0,0:0:0:0:
223,61,50099,2,0,P|207:133|180:185,1,100,8|2,0:0|0:0,0:0:0:0:
287,251,50443,1,2,0:0:0:0:
333,130,50616,1,2,0:0:0:0:
373,211,50788,1,10,0:0:0:0:
426,157,50961,1,0,0:0:0:0:
440,160,51047,1,0,0:0:0:0:
454,164,51133,6,0,L|440:301,1,100,4|0,0:0|0:0,0:0:0:0:
299,358,51478,1,8,0:0:0:0:
78,332,51650,2,0,L|212:347,1,100,2|0,0:0|0:0,0:0:0:0:
26,210,51995,1,0,0:0:0:0:
136,61,52167,2,0,P|129:110|109:156,1,100,10|0,0:0|0:0,0:0:0:0:
250,247,52512,6,0,L|386:232,2,100,0|0|8,0:0|0:0|0:0,0:0:0:0:
438,281,53030,1,2,0:0:0:0:
438,281,53202,1,2,0:0:0:0:
375,149,53374,1,2,0:0:0:0:
263,345,53547,2,0,P|249:268|254:210,1,100,10|0,0:0|0:0,0:0:0:0:
375,149,53892,5,8,0:0:0:0:
194,118,54064,1,2,0:0:0:0:
191,108,54150,1,0,0:0:0:0:
188,98,54236,1,0,0:0:0:0:
337,26,54409,5,8,0:0:0:0:
375,149,54581,2,0,L|383:261,1,100,2|0,0:0|0:0,0:0:0:0:
332,35,54926,5,10,0:0:0:0:
370,158,55098,2,0,L|378:270,1,100,2|8,0:0|0:0,0:0:0:0:
378,267,55357,1,0,0:0:0:0:
379,276,55443,1,0,0:0:0:0:
380,286,55530,1,0,0:0:0:0:
381,295,55616,1,8,0:0:0:0:
266,339,55788,6,0,L|258:394,2,50,2|0|10,0:0|0:0|0:0,0:0:0:0:
196,268,56133,1,2,0:0:0:0:
199,258,56219,1,0,0:0:0:0:
202,248,56305,1,2,0:0:0:0:
128,311,56478,1,8,0:0:0:0:
30,366,56650,6,0,P|41:308|45:251,1,100,4|0,0:0|0:0,0:0:0:0:
8,99,56995,1,8,0:0:0:0:
99,189,57167,2,0,L|224:175,1,100,2|0,0:0|0:0,0:0:0:0:
353,157,57512,1,0,0:0:0:0:
258,352,57685,2,0,P|272:268|290:217,1,100,10|0,0:0|0:0,0:0:0:0:
283,241,57943,1,0,0:0:0:0:
294,230,58030,6,0,P|339:196|352:133,1,100
258,38,58374,1,8,0:0:0:0:
427,5,58547,1,2,0:0:0:0:
427,5,58633,1,0,0:0:0:0:
427,5,58719,2,0,L|409:118,1,100,2|2,0:0|0:0,0:0:0:0:
470,280,59064,2,0,B|496:249|496:249|471:171,1,100,10|0,0:0|0:0,0:0:0:0:
355,340,59409,5,0,0:0:0:0:
278,366,59581,2,0,P|218:314|214:270,1,100,2|8,0:0|0:0,0:0:0:0:
101,122,59926,1,0,0:0:0:0:
162,175,60098,2,0,P|146:252|110:278,1,100,2|0,0:0|0:0,0:0:0:0:
39,71,60443,1,10,0:0:0:0:
71,49,60529,1,0,0:0:0:0:
111,44,60616,6,0,P|185:19|226:37,1,100,2|0,0:0|0:0,0:0:0:0:
365,75,60961,1,0,0:0:0:0:
361,65,61047,1,0,0:0:0:0:
356,56,61133,2,0,L|348:180,1,100,8|2,0:0|0:0,0:0:0:0:
435,270,61478,1,2,0:0:0:0:
448,183,61650,1,2,0:0:0:0:
353,287,61823,1,10,0:0:0:0:
295,231,61995,1,0,0:0:0:0:
288,238,62081,1,0,0:0:0:0:
281,245,62167,6,0,P|266:315|266:371,1,100,4|0,0:0|0:0,0:0:0:0:
87,112,62512,1,8,0:0:0:0:
152,160,62685,2,0,L|256:153,1,100,2|0,0:0|0:0,0:0:0:0:
459,63,63030,1,0,0:0:0:0:
353,28,63202,2,0,P|368:98|368:154,1,100,10|0,0:0|0:0,0:0:0:0:
462,242,63547,5,0,0:0:0:0:
462,242,63719,1,0,0:0:0:0:
407,345,63892,2,0,L|277:325,1,100,8|2,0:0|0:0,0:0:0:0:
160,243,64236,1,2,0:0:0:0:
219,328,64409,1,2,0:0:0:0:
263,175,64581,1,10,0:0:0:0:
263,175,64754,1,0,0:0:0:0:
160,243,64926,5,8,0:0:0:0:
337,268,65099,1,2,0:0:0:0:
338,258,65185,1,0,0:0:0:0:
331,265,65271,1,0,0:0:0:0:
160,243,65443,5,8,0:0:0:0:
350,158,65616,2,0,L|335:277,1,100,2|0,0:0|0:0,0:0:0:0:
160,243,65961,5,10,0:0:0:0:
366,79,66133,1,2,0:0:0:0:
244,19,66305,5,8,0:0:0:0:
249,53,66391,1,8,0:0:0:0:
254,88,66477,1,8,0:3:0:0:
259,122,66563,1,8,0:3:0:0:
265,157,66650,6,12,L|259:202,1,25,8|4,3:0|3:0,3:0:0:0:
246,264,66823,1,8,3:0:0:0:
359,285,66995,6,0,L|365:329,2,25,8|8|8,3:0|3:0|3:0,0:0:0:0:
416,232,67340,1,8,3:0:0:0:
484,271,67512,1,8,3:0:0:0:
482,283,67598,1,8,3:0:0:0:
480,295,67684,5,4,0:0:0:0:
410,357,67857,2,0,P|355:347|305:343,1,85.0000016212464,0|8,0:0|0:0,0:0:0:0:
117,357,68202,1,0,0:0:0:0:
192,373,68374,2,0,L|206:267,1,85.0000016212464,2|0,0:0|0:0,0:0:0:0:
208,286,68604,1,0,0:0:0:0:
212,282,68662,1,0,0:0:0:0:
217,280,68719,2,0,L|231:174,1,85.0000016212464,8|0,0:0|0:0,0:0:0:0:
228,195,69236,5,2,0:0:0:0:
303,158,69409,2,0,P|264:119|221:112,1,85.0000016212464,8|2,0:0|0:0,0:0:0:0:
61,42,69754,2,0,P|120:58|165:64,1,85.0000016212464,2|0,0:0|0:0,0:0:0:0:
325,19,70099,1,8,0:0:0:0:
425,80,70271,6,0,L|412:280,1,170.000003242493,2|2,0:0|0:0,0:0:0:0:
499,381,70788,2,0,P|464:343|407:349,1,85.0000016212464,8|0,0:0|0:0,0:0:0:0:
294,377,71133,1,2,0:0:0:0:
195,332,71305,2,0,L|189:293,3,28.3333338737488,0|0|0|8,0:0|0:0|0:0|0:0,0:0:0:0:
132,378,71650,1,0,0:0:0:0:
132,378,71995,5,2,0:0:0:0:
82,308,72167,1,10,0:0:0:0:
128,238,72340,1,2,0:0:0:0:
243,203,72512,5,2,0:0:0:0:
305,115,72684,1,2,0:0:0:0:
248,27,72857,1,10,0:0:0:0:
319,130,73030,6,0,P|384:145|451:172,1,127.50000243187,2|0,0:0|0:0,0:0:0:0:
446,194,73374,1,2,0:0:0:0:
486,36,73547,2,0,P|441:59|391:65,1,85.0000016212464,10|0,0:0|0:0,0:0:0:0:
324,248,73892,2,0,L|336:342,1,85.0000016212464,2|0,0:0|0:0,0:0:0:0:
339,335,74121,1,0,0:0:0:0:
343,338,74179,1,0,0:0:0:0:
347,340,74236,2,0,L|336:255,1,85.0000016212464,8|0,0:0|0:0,0:0:0:0:
336,255,74754,5,2,0:0:0:0:
424,181,74926,2,0,P|434:127|449:73,1,85.0000016212464,8|0,0:0|0:0,0:0:0:0:
287,21,75271,2,0,P|297:62|304:104,1,85.0000016212464,2|0,0:0|0:0,0:0:0:0:
136,208,75616,1,8,0:0:0:0:
185,122,75788,1,2,0:0:0:0:
235,237,75961,5,0,0:0:0:0:
235,237,76133,2,0,L|343:220,1,85.0000016212464,2|8,0:0|0:0,0:0:0:0:
477,289,76478,1,0,0:0:0:0:
477,289,76650,2,0,P|422:310|409:353,1,85.0000016212464,2|0,0:0|0:0,0:0:0:0:
408,335,76880,1,0,0:0:0:0:
406,340,76938,1,0,0:0:0:0:
405,345,76995,2,0,P|391:305|371:250,1,85.0000016212464,8|0,0:0|0:0,0:0:0:0:
376,264,77512,5,2,0:0:0:0:
445,173,77685,1,10,0:0:0:0:
415,170,77771,1,8,0:0:0:0:
385,167,77857,1,8,0:3:0:0:
356,165,77943,1,8,0:3:0:0:
326,162,78030,5,8,0:0:0:0:
329,179,78116,1,8,0:0:0:0:
331,196,78202,1,8,0:3:0:0:
334,213,78288,1,8,0:3:0:0:
345,249,78374,2,0,L|359:137,1,85.0000016212464,8|2,0:0|0:0,0:0:0:0:
457,58,78719,6,0,P|401:38|340:38,1,85.0000016212464,4|0,0:0|0:0,0:0:0:0:
211,123,79064,2,0,P|165:102|150:48,1,85.0000016212464,8|0,0:0|0:0,0:0:0:0:
281,204,79409,1,2,0:0:0:0:
193,315,79581,2,0,L|199:354,3,28.3333338737488,0|0|0|8,0:0|0:0|0:0|0:0,0:0:0:0:
281,204,79926,1,0,0:0:0:0:
281,204,80271,5,2,0:0:0:0:
362,261,80443,2,0,L|456:246,1,85.0000016212464,8|0,0:0|0:0,0:0:0:0:
472,218,80702,1,0,0:0:0:0:
479,221,80788,2,0,P|480:276|457:335,1,85.0000016212464,2|0,0:0|0:0,0:0:0:0:
334,351,81133,1,8,0:0:0:0:
240,237,81305,6,0,P|302:227|368:127,1,170.000003242493,2|2,0:0|0:0,0:0:0:0:
459,31,81823,2,0,P|450:80|461:139,1,85.0000016212464,8|0,0:0|0:0,0:0:0:0:
331,37,82167,1,2,0:0:0:0:
233,86,82340,2,0,L|193:81,3,28.3333338737488,0|0|0|8,0:0|0:0|0:0|0:0,0:0:0:0:
114,75,82685,1,0,0:0:0:0:
114,75,83030,5,2,0:0:0:0:
74,146,83202,1,10,0:0:0:0:
148,181,83374,1,2,0:0:0:0:
104,62,83547,5,2,0:0:0:0:
108,176,83719,1,2,0:0:0:0:
232,167,83892,1,10,0:0:0:0:
372,274,84064,6,0,P|331:316|302:378,1,127.50000243187,2|0,0:0|0:0,0:0:0:0:
271,381,84409,1,2,0:0:0:0:
176,232,84581,2,0,P|221:252|261:260,1,85.0000016212464,8|0,0:0|0:0,0:0:0:0:
72,344,84926,2,0,L|57:244,1,85.0000016212464,2|0,0:0|0:0,0:0:0:0:
58,251,85156,1,0,0:0:0:0:
56,242,85213,1,0,0:0:0:0:
55,233,85271,2,0,L|40:133,1,85.0000016212464,8|0,0:0|0:0,0:0:0:0:
42,148,85788,5,2,0:0:0:0:
95,59,85961,1,8,0:0:0:0:
95,59,86133,1,0,0:0:0:0:
141,185,86305,2,0,L|245:178,1,85.0000016212464,2|0,0:0|0:0,0:0:0:0:
360,122,86650,1,8,0:0:0:0:
338,201,86823,1,0,0:0:0:0:
461,264,86995,5,8,0:0:0:0:
474,289,87081,1,8,0:0:0:0:
468,318,87167,1,4,0:3:0:0:
447,337,87253,1,4,0:3:0:0:
417,339,87340,2,0,P|381:316|359:288,3,42.5000008106232,8|8|4|4,0:0|0:0|0:3|0:3,0:0:0:0:
348,324,87685,5,12,0:3:0:0:
243,359,87857,1,8,3:0:0:0:
240,350,87943,1,8,3:0:0:0:
237,341,88030,2,0,L|242:274,3,42.5000008106232,8|8|8|8,3:0|3:0|3:0|3:0,0:0:0:0:
151,349,88374,5,12,3:0:0:0:
148,340,88460,1,12,3:0:0:0:
145,331,88547,2,0,L|150:264,1,42.5000008106232,12|12,3:0|3:0,0:0:0:0:
57,210,88719,2,12,L|124:215,1,42.5000008106232,12|12,3:0|3:0,3:0:0:0:
184,129,88892,2,12,L|179:196,1,42.5000008106232,12|12,3:0|3:0,3:0:0:0:
277,238,89064,6,0,L|210:233,3,42.5000008106232,12|12|12|12,3:0|3:0|3:0|3:0,0:0:0:0:
297,267,89409,2,0,P|344:280|406:313,1,85.0000016212464,4|0,0:0|0:0,0:0:0:0:
406,330,89667,1,0,0:0:0:0:
411,335,89754,5,4,0:0:0:0:
472,255,89926,2,0,L|459:155,1,75.0000028610231,2|0,0:0|0:0,0:0:0:0:
452,97,90271,2,0,L|439:-3,1,75.0000028610231,2|8,0:0|0:0,0:0:0:0:
452,97,90616,1,0,0:0:0:0:
328,12,90788,2,0,L|318:86,1,75.0000028610231,2|0,0:0|0:0,0:0:0:0:
222,217,91133,5,0,0:0:0:0:
222,194,91305,1,0,0:0:0:0:
241,205,91478,1,0,0:0:0:0:
183,284,91650,1,2,0:0:0:0:
108,119,91823,2,0,P|134:168|144:217,1,75.0000028610231,8|0,0:0|0:0,0:0:0:0:
241,38,92167,2,0,P|224:91|197:132,1,75.0000028610231,8|0,0:0|0:0,0:0:0:0:
45,259,92512,5,0,0:0:0:0:
45,259,92685,2,0,L|150:248,1,75.0000028610231,2|0,0:0|0:0,0:0:0:0:
332,228,93030,1,2,0:0:0:0:
332,228,93203,2,0,L|227:239,1,75.0000028610231,10|0,0:0|0:0,0:0:0:0:
407,347,93547,2,0,L|418:242,1,75.0000028610231,2|0,0:0|0:0,0:0:0:0:
414,272,94064,5,2,0:0:0:0:
421,172,94236,1,2,0:0:0:0:
429,72,94409,1,2,0:0:0:0:
328,33,94581,5,10,0:0:0:0:
343,142,94754,1,0,0:0:0:0:
238,159,94926,5,10,0:0:0:0:
251,81,95099,1,0,0:0:0:0:
136,28,95271,6,0,P|151:80|157:124,1,75.0000028610231,4|2,0:0|0:0,0:0:0:0:
42,200,95616,1,0,0:0:0:0:
115,183,95788,1,2,0:0:0:0:
173,292,95961,2,0,P|206:272|217:213,1,75.0000028610231,8|0,0:0|0:0,0:0:0:0:
341,353,96305,2,0,P|350:315|316:266,1,75.0000028610231,2|0,0:0|0:0,0:0:0:0:
460,151,96650,6,0,P|398:163|358:181,1,75.0000028610231,0|8,0:0|0:0,0:0:0:0:
342,31,96995,1,2,0:0:0:0:
355,51,97167,1,0,0:0:0:0:
340,45,97340,2,0,P|304:97|289:138,1,75.0000028610231,10|0,0:0|0:0,0:0:0:0:
179,251,97685,1,10,0:0:0:0:
229,145,97857,1,0,0:0:0:0:
286,323,98030,6,0,B|316:294|316:294|406:316,1,112.500004291535
403,330,98374,1,2,0:0:0:0:
438,234,98547,1,0,0:0:0:0:
350,129,98719,2,0,L|364:225,1,75.0000028610231,10|0,0:0|0:0,0:0:0:0:
269,126,99064,2,0,L|283:222,1,75.0000028610231,2|0,0:0|0:0,0:0:0:0:
279,200,99581,5,10,0:0:0:0:
245,288,99754,1,2,0:0:0:0:
146,283,99926,1,2,0:0:0:0:
287,206,100099,5,10,0:0:0:0:
311,342,100271,1,0,0:0:0:0:
389,285,100443,5,10,0:0:0:0:
395,208,100616,1,0,0:0:0:0:
484,111,100788,5,4,0:0:0:0:
484,111,100961,2,0,P|440:99|389:93,1,75.0000028610231,2|0,0:0|0:0,0:0:0:0:
214,82,101305,1,2,0:0:0:0:
214,82,101478,2,0,P|258:70|309:64,1,75.0000028610231,8|0,0:0|0:0,0:0:0:0:
153,183,101823,2,0,P|116:167|107:123,1,75.0000028610231,2|0,0:0|0:0,0:0:0:0:
26,287,102167,5,0,0:0:0:0:
34,277,102340,1,8,0:0:0:0:
64,308,102512,1,0,0:0:0:0:
120,255,102685,1,2,0:0:0:0:
193,348,102857,2,0,L|298:331,1,75.0000028610231,8|2,0:0|0:0,0:0:0:0:
463,302,103202,2,0,L|388:313,1,75.0000028610231,8|0,0:0|0:0,0:0:0:0:
255,231,103547,5,0,0:0:0:0:
255,231,103892,1,0,0:0:0:0:
284,157,104064,1,2,0:0:0:0:
200,39,104236,2,0,P|214:102|217:142,1,75.0000028610231,10|0,0:0|0:0,0:0:0:0:
284,157,104581,1,2,0:0:0:0:
357,52,104754,1,0,0:0:0:0:
357,52,105099,5,10,0:0:0:0:
239,30,105271,1,2,0:0:0:0:
128,8,105443,1,2,0:0:0:0:
11,99,105616,5,10,0:0:0:0:
181,87,105788,1,0,0:0:0:0:
255,183,105961,5,10,0:0:0:0:
165,171,106133,1,0,0:0:0:0:
46,261,106305,5,4,0:0:0:0:
46,261,106478,2,0,P|93:250|140:247,2,75.0000028610231,2|0|2,0:0|0:0|0:0,0:0:0:0:
135,370,106995,1,8,0:0:0:0:
135,370,107167,2,0,P|174:350|176:304,1,75.0000028610231
269,174,107512,6,0,P|250:215|237:260,1,75.0000028610231,2|0,0:0|0:0,0:0:0:0:
175,106,107857,2,0,P|220:101|265:90,1,75.0000028610231,10|0,0:0|0:0,0:0:0:0:
408,31,108202,1,2,0:0:0:0:
408,31,108374,1,8,0:0:0:0:
330,16,108547,1,2,0:0:0:0:
369,168,108719,1,8,0:0:0:0:
464,145,108892,6,0,P|447:179|436:232,1,75.0000028610231,2|0,0:0|0:0,0:0:0:0:
461,322,109236,1,2,0:0:0:0:
456,330,109409,1,0,0:0:0:0:
446,334,109581,1,2,0:0:0:0:
411,321,109754,1,8,0:0:0:0:
411,321,110099,1,0,0:0:0:0:
335,337,110271,1,0,0:0:0:0:
257,355,110443,5,0,0:0:0:0:
241,219,110616,1,2,0:0:0:0:
173,261,110788,1,2,0:0:0:0:
162,343,110961,1,2,0:0:0:0:
85,324,111133,1,10,0:0:0:0:
79,285,111305,1,0,0:0:0:0:
41,315,111478,1,10,0:0:0:0:
41,315,111650,1,0,0:0:0:0:
69,189,111823,6,0,B|196:167|196:167|232:192|232:192|368:169,5,300.000011444092,12|4|4|4|4|4,0:0|0:0|0:0|0:0|0:0|0:0,0:0:0:0:
357,170,115961,5,8,0:0:0:0:
352,184,116133,1,8,0:0:0:0:
347,198,116305,1,8,0:0:0:0:
342,212,116478,1,8,0:0:0:0:
384,243,116650,5,12,0:3:0:0:
294,228,116823,1,12,0:3:0:0:
213,267,116995,1,8,0:3:0:0:
188,353,117167,1,8,0:3:0:0:
25,227,117340,6,0,B|152:204|94:294|231:263,1,200,6|8,0:0|0:0,0:0:0:0:
412,108,117857,2,0,P|350:96|291:219,1,200,2|0,0:0|0:0,0:0:0:0:
440,342,118374,1,10,0:0:0:0:
440,342,118547,2,0,P|450:284|482:224,1,100
270,363,118892,5,0,0:0:0:0:
270,363,119064,1,8,0:0:0:0:
167,343,119236,2,0,L|154:226,1,100
38,133,119581,1,0,0:0:0:0:
136,147,119754,1,8,0:0:0:0:
0,341,119926,6,0,P|54:306|105:283,1,100,2|0,0:0|0:0,0:0:0:0:
281,319,120271,1,2,0:0:0:0:
335,229,120443,1,8,0:0:0:0:
218,39,120616,2,0,P|234:104|244:247,1,200,2|0,0:0|0:0,0:0:0:0:
423,57,121133,1,10,0:0:0:0:
423,57,121305,2,0,P|354:71|303:66,1,100,2|0,0:0|0:0,0:0:0:0:
87,183,121650,5,0,0:0:0:0:
126,113,121823,2,0,P|186:132|190:173,1,100,10|0,0:0|0:0,0:0:0:0:
125,307,122167,1,8,0:3:0:0:
51,277,122340,1,12,0:3:0:0:
266,308,122512,1,8,0:0:0:0:
199,356,122685,1,12,0:3:0:0:
252,130,122857,6,0,B|288:151|288:151|262:330,1,200,6|8,0:0|0:0,0:0:0:0:
422,357,123374,1,2,0:0:0:0:
422,357,123547,2,0,L|412:245,1,100
435,21,123892,2,0,L|426:120,1,100,10|0,0:0|0:0,0:0:0:0:
285,231,124236,6,0,P|215:202|174:193,1,100
23,232,124581,1,8,0:0:0:0:
128,360,124754,2,0,P|198:331|239:322,1,100
442,355,125099,1,2,0:0:0:0:
362,376,125271,1,8,0:0:0:0:
416,97,125443,6,0,B|407:181|407:181|397:203|397:203|389:311,1,200,2|0,0:0|0:0,0:0:0:0:
511,30,125961,2,0,L|374:17,1,100,8|0,0:0|0:0,0:0:0:0:
220,130,126305,1,2,0:0:0:0:
416,97,126478,1,2,0:0:0:0:
278,14,126650,2,0,P|295:80|295:127,1,100,8|2,0:0|0:0,0:0:0:0:
214,235,126995,5,8,0:0:0:0:
211,269,127081,1,8,0:0:0:0:
227,299,127167,1,8,0:0:0:0:
257,316,127253,1,8,0:0:0:0:
291,313,127340,5,8,0:3:0:0:
299,301,127426,1,8,0:3:0:0:
293,288,127512,1,8,0:3:0:0:
145,324,127685,6,0,L|138:360,2,25,8|12|8,0:3|0:3|0:3,0:0:0:0:
102,238,128030,2,0,L|95:202,2,25,8|0|8,0:3|0:0|0:3,0:0:0:0:
8,370,128374,6,0,B|58:329|58:329|221:365,1,200,6|8,0:0|0:0,0:0:0:0:
440,300,128892,2,0,P|408:235|403:174,1,100,2|0,0:0|0:0,0:0:0:0:
486,13,129236,1,0,0:0:0:0:
479,20,129323,1,0,0:0:0:0:
472,27,129409,2,0,L|349:35,1,100,10|0,0:0|0:0,0:0:0:0:
214,117,129754,5,0,0:0:0:0:
127,78,129926,1,0,0:0:0:0:
33,39,130099,1,8,0:0:0:0:
96,158,130271,2,0,L|211:142,1,100
377,225,130616,1,0,0:0:0:0:
331,153,130788,1,8,0:0:0:0:
222,271,130961,6,0,P|230:327|239:381,1,100,2|0,0:0|0:0,0:0:0:0:
80,256,131305,2,0,P|88:206|95:157,1,100,2|8,0:0|0:0,0:0:0:0:
365,65,131650,2,0,B|233:64|302:137|143:128,1,200,2|0,0:0|0:0,0:0:0:0:
119,81,132081,1,0,0:0:0:0:
109,84,132167,1,10,0:0:0:0:
169,206,132340,1,2,0:0:0:0:
352,147,132512,6,0,P|382:99|351:56,1,100
261,198,132857,2,0,P|276:259|277:326,1,100,10|0,0:0|0:0,0:0:0:0:
444,338,133202,1,2,0:0:0:0:
497,157,133374,1,0,0:0:0:0:
481,186,133461,1,0,0:0:0:0:
465,214,133547,2,0,L|356:197,1,100,10|0,0:0|0:0,0:0:0:0:
55,259,133892,6,0,P|136:247|280:209,1,200,6|8,0:0|0:0,0:0:0:0:
115,15,134409,2,0,P|99:75|92:138,1,100,2|0,0:0|0:0,0:0:0:0:
240,17,134754,1,0,0:0:0:0:
343,105,134926,2,0,L|212:97,1,100,10|0,0:0|0:0,0:0:0:0:
57,190,135271,6,0,L|79:305,1,100
223,304,135616,2,0,L|204:205,1,100,8|0,0:0|0:0,0:0:0:0:
342,51,135961,2,0,L|323:149,1,100
461,231,136305,2,0,L|479:132,1,100,8|0,0:0|0:0,0:0:0:0:
392,302,136650,6,0,P|316:316|231:378,1,150
211,358,136995,2,0,L|195:245,1,100,8|0,0:0|0:0,0:0:0:0:
35,135,137340,2,0,P|51:187|119:183,1,100,2|0,0:0|0:0,0:0:0:0:
113,187,137599,1,0,0:0:0:0:
126,165,137685,1,8,0:0:0:0:
33,284,137857,1,2,0:0:0:0:
185,315,138030,6,0,L|266:298,1,75,8|0,0:0|0:0,0:0:0:0:
275,314,138374,6,0,L|271:333,5,16.6666666666667,12|12|8|12|12|12,0:3|0:3|0:3|0:3|0:3|0:3,0:0:0:0:
327,259,138719,6,0,L|321:231,5,25.0000009536744,8|12|8|12|8|12,0:3|0:3|0:3|0:3|0:3|0:3,0:0:0:0:
372,324,139064,6,0,L|421:334,1,40,12|0,0:3|0:0,0:0:0:0:
498,192,139409,6,0,L|379:203,1,100,4|0,0:0|0:0,0:0:0:0:
344,144,139754,1,8,0:0:0:0:
175,283,139926,2,0,P|223:265|228:195,1,100,2|0,0:0|0:0,0:0:0:0:
70,104,140271,1,0,0:0:0:0:
166,50,140443,2,0,P|153:119|151:175,1,100,10|0,0:0|0:0,0:0:0:0:
116,184,140702,1,0,0:0:0:0:
113,193,140788,6,0,L|124:310,2,100,0|0|8,0:0|0:0|0:0,0:0:0:0:
50,353,141305,1,2,0:0:0:0:
176,365,141478,1,0,0:0:0:0:
226,305,141650,1,2,0:0:0:0:
330,374,141823,2,0,P|371:353|343:282,1,100,10|0,0:0|0:0,0:0:0:0:
465,74,142167,5,0,0:0:0:0:
465,74,142340,2,0,P|441:152|431:205,1,100,2|8,0:0|0:0,0:0:0:0:
317,57,142685,1,0,0:0:0:0:
319,47,142771,1,0,0:0:0:0:
325,39,142857,2,0,P|269:52|186:49,1,100,2|0,0:0|0:0,0:0:0:0:
150,235,143202,1,10,0:0:0:0:
181,228,143288,1,8,0:0:0:0:
205,221,143374,2,0,P|254:218|303:206,1,100,8|0,0:3|0:0,0:0:0:0:
368,384,143719,5,0,0:0:0:0:
368,384,143805,1,0,0:0:0:0:
368,384,143892,2,0,L|352:262,1,100,8|2,0:0|0:0,0:0:0:0:
407,122,144236,1,2,0:0:0:0:
414,212,144409,1,2,0:0:0:0:
285,132,144581,2,0,L|301:10,1,100,10|0,0:0|0:0,0:0:0:0:
149,16,144926,5,4,0:0:0:0:
149,16,145099,1,0,0:0:0:0:
93,143,145271,2,0,L|106:242,1,100,8|2,0:0|0:0,0:0:0:0:
92,286,145530,1,0,0:0:0:0:
88,295,145616,2,0,P|149:273|212:255,1,100
425,303,145961,2,0,P|377:317|330:335,1,100,10|0,0:0|0:0,0:0:0:0:
370,162,146305,5,0,0:0:0:0:
370,162,146478,1,0,0:0:0:0:
330,335,146650,2,0,P|279:330|256:287,1,100,8|2,0:0|0:0,0:0:0:0:
255,280,146909,1,0,0:0:0:0:
258,270,146995,1,2,0:0:0:0:
381,253,147167,1,2,0:0:0:0:
184,354,147340,2,0,L|46:330,1,100,10|0,0:0|0:0,0:0:0:0:
31,111,147685,5,8,0:0:0:0:
77,258,147857,1,2,0:0:0:0:
77,258,147943,1,0,0:0:0:0:
77,258,148030,1,0,0:0:0:0:
118,81,148202,5,8,0:0:0:0:
62,282,148374,2,0,L|200:258,1,100,2|0,0:0|0:0,0:0:0:0:
214,65,148719,5,10,0:0:0:0:
160,264,148892,1,2,0:0:0:0:
251,314,149064,5,8,3:3:0:0:
275,310,149150,1,8,3:3:0:0:
300,306,149236,1,4,3:0:0:0:
325,303,149322,1,12,3:0:0:0:
349,299,149408,1,12,3:0:0:0:
463,329,149581,6,0,L|456:364,2,25,8|8|8,0:3|0:3|0:3,0:0:0:0:
403,229,149926,2,0,L|398:204,2,25,12|12|12,0:3|0:3|0:3,0:0:0:0:
465,118,150271,1,8,0:0:0:0:
465,118,150443,6,0,P|381:106|284:152,1,150,4|0,0:0|0:0,0:0:0:0:
309,152,150788,1,8,0:0:0:0:
155,88,150961,1,2,0:0:0:0:
153,78,151047,1,0,0:0:0:0:
155,68,151133,2,0,P|209:59|269:90,1,100
128,277,151478,2,0,L|115:166,1,100,10|0,0:0|0:0,0:0:0:0:
115,167,151736,1,0,0:0:0:0:
113,156,151823,5,0,0:0:0:0:
41,243,151995,1,0,0:0:0:0:
255,319,152167,2,0,L|366:306,1,100,8|2,0:0|0:0,0:0:0:0:
376,278,152426,1,0,0:0:0:0:
384,272,152512,1,2,0:0:0:0:
308,190,152685,1,2,0:0:0:0:
374,379,152857,2,0,P|425:341|428:293,1,100,10|0,0:0|0:0,0:0:0:0:
473,106,153202,5,0,0:0:0:0:
473,106,153374,2,0,P|461:176|459:241,1,100,2|8,0:0|0:0,0:0:0:0:
279,139,153719,1,0,0:0:0:0:
343,33,153892,2,0,P|355:103|357:168,1,100,2|0,0:0|0:0,0:0:0:0:
263,284,154236,1,10,0:0:0:0:
229,293,154323,1,8,0:3:0:0:
197,301,154409,6,0,L|206:156,1,100,4|0,0:3|0:0,0:0:0:0:
113,19,154754,1,0,0:0:0:0:
115,28,154840,1,0,0:0:0:0:
121,35,154926,2,0,L|127:134,1,100,8|2,0:0|0:0,0:0:0:0:
214,59,155271,1,2,0:0:0:0:
31,28,155443,1,2,0:0:0:0:
64,208,155616,2,0,P|123:226|134:265,1,100,10|0,0:0|0:0,0:0:0:0:
120,289,155874,1,0,0:0:0:0:
115,298,155961,6,0,L|249:278,2,100,4|0|8,0:0|0:0|0:0,0:0:0:0:
302,349,156478,2,0,P|316:279|334:227,1,100,2|0,0:0|0:0,0:0:0:0:
276,43,156823,1,0,0:0:0:0:
276,43,156995,2,0,P|289:91|298:140,1,100,10|0,0:0|0:0,0:0:0:0:
413,249,157340,6,0,L|520:238,1,100
481,320,157685,1,8,0:0:0:0:
428,151,157857,1,2,0:0:0:0:
434,143,157943,1,0,0:0:0:0:
440,134,158030,1,2,0:0:0:0:
502,54,158202,1,2,0:0:0:0:
347,12,158374,2,0,L|358:119,1,100,10|0,0:0|0:0,0:0:0:0:
377,292,158719,5,8,0:0:0:0:
212,246,158892,1,2,0:0:0:0:
212,246,158978,1,0,0:0:0:0:
212,246,159064,1,0,0:0:0:0:
312,352,159236,5,8,0:0:0:0:
290,143,159409,2,0,L|301:250,1,100,2|0,0:0|0:0,0:0:0:0:
322,357,159754,5,10,0:0:0:0:
300,148,159927,2,0,L|311:255,1,100,2|8,0:0|0:0,0:0:0:0:
322,262,160185,1,8,0:0:0:0:
341,270,160271,1,8,0:3:0:0:
360,267,160357,1,8,0:3:0:0:
376,256,160443,1,8,3:3:0:0:
385,238,160530,1,12,3:3:0:0:
381,219,160616,1,8,3:3:0:0:
256,323,160788,6,0,L|252:358,2,25,8|8|8,3:0|3:0|3:0,0:0:0:0:
199,272,161133,1,12,3:3:0:0:
111,344,161305,1,12,3:0:0:0:
107,334,161392,1,12,3:0:0:0:
104,325,161478,5,4,0:0:0:0:
16,360,161650,2,0,P|13:293|6:249,1,85.0000016212464,0|8,0:0|0:0,0:0:0:0:
49,78,161995,1,0,0:0:0:0:
49,78,162167,2,0,P|116:75|160:68,1,85.0000016212464,2|0,0:0|0:0,0:0:0:0:
139,72,162397,1,0,0:0:0:0:
144,73,162455,1,0,0:0:0:0:
148,75,162512,2,0,L|247:70,1,85.0000016212464,8|0,0:0|0:0,0:0:0:0:
232,70,163030,5,2,0:0:0:0:
380,131,163202,2,0,P|349:160|335:222,1,85.0000016212464,8|2,0:0|0:0,0:0:0:0:
482,306,163547,2,0,P|492:240|513:188,1,85.0000016212464,2|0,0:0|0:0,0:0:0:0:
346,360,163892,1,8,0:0:0:0:
310,286,164064,6,0,L|115:267,1,170.000003242493,2|2,0:0|0:0,0:0:0:0:
15,380,164581,1,8,0:0:0:0:
102,336,164754,1,0,0:0:0:0:
85,105,164926,2,0,L|93:223,1,85.0000016212464,2|0,0:0|0:0,0:0:0:0:
92,195,165156,1,0,0:0:0:0:
92,200,165213,1,0,0:0:0:0:
93,205,165271,2,0,P|155:186|194:181,1,85.0000016212464,8|0,0:0|0:0,0:0:0:0:
174,182,165788,5,2,0:0:0:0:
264,166,165961,1,10,0:0:0:0:
292,77,166133,1,2,0:0:0:0:
182,195,166305,5,2,0:0:0:0:
258,227,166478,1,2,0:0:0:0:
261,309,166650,1,10,0:0:0:0:
382,349,166823,5,2,0:0:0:0:
382,349,166995,2,0,P|394:278|410:248,1,85.0000016212464,0|2,0:0|0:0,0:0:0:0:
508,88,167340,1,10,0:0:0:0:
512,175,167512,2,0,L|395:165,1,85.0000016212464,0|2,0:0|0:0,0:0:0:0:
309,87,167857,2,0,L|304:44,3,28.3333338737488,0|0|0|8,0:0|0:0|0:0|0:0,0:0:0:0:
237,164,168202,6,0,P|196:142|178:87,1,85.0000016212464
150,285,168547,2,0,P|136:240|162:188,1,85.0000016212464,2|8,0:0|0:0,0:0:0:0:
9,384,168892,2,0,P|31:343|86:325,1,85.0000016212464,0|2,0:0|0:0,0:0:0:0:
230,368,169236,1,0,0:0:0:0:
148,205,169409,1,8,0:0:0:0:
148,354,169581,1,2,0:0:0:0:
381,302,169754,5,0,0:0:0:0:
381,302,169926,2,0,P|315:279|261:273,1,85.0000016212464,2|8,0:0|0:0,0:0:0:0:
27,135,170271,2,0,P|66:205|164:191,1,170.000003242493
153,201,170673,1,0,0:0:0:0:
156,196,170731,1,0,0:0:0:0:
159,191,170788,2,0,P|132:232|126:288,1,85.0000016212464,8|0,0:0|0:0,0:0:0:0:
124,266,171305,5,2,0:0:0:0:
235,332,171478,1,10,0:0:0:0:
264,328,171564,1,8,0:0:0:0:
293,324,171650,1,8,0:3:0:0:
323,320,171736,1,8,0:3:0:0:
352,316,171823,5,8,0:0:0:0:
341,311,171909,1,8,0:0:0:0:
329,306,171995,1,8,0:3:0:0:
317,301,172081,1,8,0:3:0:0:
293,324,172167,2,0,L|305:222,1,85.0000016212464,8|2,0:0|0:0,0:0:0:0:
467,109,172512,5,4,0:0:0:0:
467,109,172685,2,0,P|418:147|379:165,1,85.0000016212464,0|8,0:0|0:0,0:0:0:0:
218,97,173030,2,0,P|259:97|281:154,1,85.0000016212464,0|2,0:0|0:0,0:0:0:0:
157,198,173374,2,0,P|148:210|139:229,3,28.3333338737488,0|0|0|8,0:0|0:0|0:0|0:0,0:0:0:0:
188,300,173719,1,0,0:0:0:0:
277,248,173892,5,0,0:0:0:0:
327,312,174064,2,0,L|439:300,1,85.0000016212464,2|8,0:0|0:0,0:0:0:0:
233,382,174409,1,0,0:0:0:0:
227,375,174495,1,0,0:0:0:0:
222,367,174581,2,0,P|201:298|202:261,1,85.0000016212464,2|0,0:0|0:0,0:0:0:0:
92,155,174926,1,8,0:0:0:0:
128,232,175099,1,2,0:0:0:0:
214,48,175271,5,0,0:0:0:0:
214,48,175443,2,0,L|200:171,1,85.0000016212464,2|8,0:0|0:0,0:0:0:0:
404,215,175788,1,0,0:0:0:0:
332,288,175961,2,0,P|324:223|308:180,1,85.0000016212464,2|0,0:0|0:0,0:0:0:0:
316,199,176190,1,0,0:0:0:0:
313,193,176248,1,0,0:0:0:0:
310,188,176305,2,0,P|299:133|304:84,1,85.0000016212464,8|0,0:0|0:0,0:0:0:0:
450,31,176650,5,0,0:0:0:0:
450,31,176823,2,0,L|331:24,1,85.0000016212464,2|10,0:0|0:0,0:0:0:0:
182,75,177167,1,2,0:0:0:0:
300,104,177340,5,2,0:0:0:0:
269,33,177512,1,2,0:0:0:0:
218,148,177685,1,10,0:0:0:0:
127,17,177857,6,0,B|91:42|91:42|116:195,1,170.000003242493,2|2,0:0|0:0,0:0:0:0:
57,316,178374,1,8,0:0:0:0:
33,235,178547,1,0,0:0:0:0:
140,342,178719,2,0,L|255:329,1,85.0000016212464,2|0,0:0|0:0,0:0:0:0:
230,332,178949,1,0,0:0:0:0:
235,332,179007,1,0,0:0:0:0:
240,332,179064,2,0,L|251:223,1,85.0000016212464,8|0,0:0|0:0,0:0:0:0:
248,247,179581,5,2,0:0:0:0:
346,162,179754,1,8,0:0:0:0:
346,162,179926,1,0,0:0:0:0:
240,75,180099,2,0,L|248:159,1,85.0000016212464,2|0,0:0|0:0,0:0:0:0:
346,162,180443,1,8,0:0:0:0:
168,118,180616,1,0,0:0:0:0:
101,201,180788,5,8,0:0:0:0:
105,230,180874,1,8,0:0:0:0:
109,259,180960,1,4,0:3:0:0:
113,289,181046,1,4,0:3:0:0:
117,318,181133,2,0,L|108:369,3,42.5000008106232,8|8|4|4,0:0|0:0|0:3|0:3,0:0:0:0:
134,379,181478,5,12,0:3:0:0:
212,322,181650,1,8,3:0:0:0:
228,320,181736,1,8,3:0:0:0:
245,318,181823,2,0,L|313:325,3,42.5000008106232,8|8|8|8,3:0|3:0|3:0|3:0,0:0:0:0:
369,351,182167,5,12,3:0:0:0:
369,351,182254,1,12,3:0:0:0:
369,351,182340,2,0,P|385:316|383:282,1,42.5000008106232,12|12,3:0|3:0,0:0:0:0:
448,259,182512,2,0,P|434:222|409:200,1,42.5000008106232,12|12,3:0|3:0,0:0:0:0:
433,137,182685,2,12,P|398:121|364:123,1,42.5000008106232,12|12,3:0|3:0,3:0:0:0:
337,61,182857,6,0,P|300:74|278:99,3,42.5000008106232,12|12|12|12,3:0|3:0|3:0|3:0,0:0:0:0:
219,68,183202,1,4,0:0:0:0:
219,68,183547,5,4,0:0:0:0:
57,30,183719,2,0,P|112:37|156:57,1,75.0000028610231,2|0,0:0|0:0,0:0:0:0:
89,137,184064,2,0,P|34:144|-10:164,1,75.0000028610231,2|8,0:0|0:0,0:0:0:0:
140,219,184409,1,0,0:0:0:0:
140,219,184581,2,0,P|195:226|239:246,1,75.0000028610231,2|0,0:0|0:0,0:0:0:0:
59,346,184926,5,0,0:0:0:0:
59,323,185099,1,8,0:0:0:0:
78,334,185271,1,0,0:0:0:0:
146,298,185443,1,2,0:0:0:0:
232,348,185616,2,0,L|331:334,1,75.0000028610231,8|0,0:0|0:0,0:0:0:0:
489,308,185961,1,0,0:0:0:0:
380,327,186133,1,0,0:0:0:0:
380,327,186478,6,0,L|393:228,1,75.0000028610231,2|0,0:0|0:0,0:0:0:0:
324,150,186823,2,0,L|337:51,1,75.0000028610231,2|10,0:0|0:0,0:0:0:0:
492,52,187167,1,0,0:0:0:0:
444,124,187340,2,0,L|453:198,1,75.0000028610231,2|0,0:0|0:0,0:0:0:0:
453,198,187857,5,10,0:0:0:0:
364,192,188030,1,2,0:0:0:0:
289,247,188202,1,2,0:0:0:0:
198,229,188374,5,10,0:0:0:0:
364,192,188547,1,0,0:0:0:0:
463,292,188719,2,0,L|385:289,1,75.0000028610231,2|0,0:0|0:0,0:0:0:0:
189,372,189064,5,4,0:0:0:0:
198,229,189236,2,0,P|211:265|218:310,1,75.0000028610231,2|0,0:0|0:0,0:0:0:0:
133,154,189581,1,2,0:0:0:0:
133,154,189754,2,0,P|120:190|113:235,1,75.0000028610231,8|0,0:0|0:0,0:0:0:0:
242,58,190099,2,0,P|217:94|174:101,1,75.0000028610231,2|0,0:0|0:0,0:0:0:0:
11,62,190443,5,0,0:0:0:0:
17,83,190616,1,8,0:0:0:0:
25,103,190788,1,2,0:0:0:0:
34,123,190961,1,0,0:0:0:0:
7,269,191133,2,0,P|61:237|96:204,1,75.0000028610231,10|0,0:0|0:0,0:0:0:0:
234,117,191478,2,0,P|203:139|170:156,1,75.0000028610231,2|0,0:0|0:0,0:0:0:0:
107,320,191823,6,0,P|156:302|218:342,1,112.500004291535
211,350,192167,1,2,0:0:0:0:
354,368,192340,2,0,P|341:328|336:274,1,75.0000028610231,0|10,0:0|0:0,0:0:0:0:
324,183,192685,2,0,P|337:143|342:89,1,75.0000028610231,0|2,0:0|0:0,0:0:0:0:
391,35,193030,6,0,P|305:28|252:94,1,150.000005722046,0|10,0:0|0:0,0:0:0:0:
179,132,193547,1,2,0:0:0:0:
103,152,193719,1,2,0:0:0:0:
83,75,193892,5,10,0:0:0:0:
101,70,193978,1,8,0:0:0:0:
119,66,194064,1,8,0:3:0:0:
137,62,194150,1,8,0:3:0:0:
156,58,194236,2,0,L|162:16,3,37.5000014305115,2|8|8|12,0:0|0:3|3:0|3:0,0:0:0:0:
246,55,194581,5,4,0:0:0:0:
264,243,194754,2,0,L|254:141,1,75.0000028610231,2|0,0:0|0:0,0:0:0:0:
347,259,195099,1,2,0:0:0:0:
347,259,195271,2,0,L|337:157,1,75.0000028610231,8|0,0:0|0:0,0:0:0:0:
452,301,195616,2,0,P|391:323|377:359,1,75.0000028610231,2|0,0:0|0:0,0:0:0:0:
195,355,195961,5,0,0:0:0:0:
122,342,196133,1,8,0:0:0:0:
77,285,196305,1,0,0:0:0:0:
81,211,196478,1,2,0:0:0:0:
198,366,196650,5,8,0:0:0:0:
223,277,196823,1,2,0:0:0:0:
321,265,196995,1,0,0:0:0:0:
213,89,197167,6,0,L|230:258,1,150.000005722046,0|2,0:0|0:0,0:0:0:0:
427,328,197685,1,0,0:0:0:0:
427,328,197857,2,0,P|392:285|341:272,1,75.0000028610231,2|10,0:0|0:0,0:0:0:0:
416,151,198202,1,0,0:0:0:0:
416,151,198374,2,0,P|447:131|467:99,1,75.0000028610231,2|0,0:0|0:0,0:0:0:0:
467,99,198892,5,10,0:0:0:0:
411,46,199064,1,2,0:0:0:0:
326,117,199236,1,2,0:0:0:0:
204,19,199409,2,0,L|216:113,1,75.0000028610231,10|0,0:0|0:0,0:0:0:0:
63,225,199754,2,0,L|53:150,1,75.0000028610231,2|0,0:0|0:0,0:0:0:0:
24,310,200099,5,4,0:0:0:0:
191,337,200271,2,0,L|293:322,1,75.0000028610231,2|0,0:0|0:0,0:0:0:0:
484,293,200616,1,2,0:0:0:0:
484,293,200788,2,0,L|409:303,1,75.0000028610231,8|0,0:0|0:0,0:0:0:0:
235,238,201133,2,0,P|224:178|220:136,1,75.0000028610231,0|2,0:0|0:0,0:0:0:0:
396,22,201478,5,0,0:0:0:0:
376,113,201650,1,10,0:0:0:0:
348,211,201823,1,0,0:0:0:0:
352,221,201995,1,2,0:0:0:0:
495,89,202167,5,8,0:0:0:0:
376,113,202340,1,2,0:0:0:0:
277,37,202512,1,0,0:0:0:0:
277,37,202685,1,2,0:0:0:0:
277,37,203030,6,0,P|248:81|229:132,1,75.0000028610231,2|0,0:0|0:0,0:0:0:0:
88,261,203374,1,2,0:0:0:0:
88,261,203547,2,0,P|140:264|194:255,1,75.0000028610231,8|2,0:0|0:0,0:0:0:0:
334,306,203892,2,0,P|310:258|275:216,1,75.0000028610231
393,368,204236,5,8,0:0:0:0:
400,346,204322,1,8,0:0:0:0:
413,328,204408,1,8,0:3:0:0:
431,315,204494,1,8,0:3:0:0:
452,308,204581,6,0,L|442:363,3,37.5000014305115,8|4|8|12,3:0|3:0|3:0|3:0,0:0:0:0:
413,197,204926,2,0,L|420:233,3,37.5000014305115,8|8|12|12,3:0|3:0|3:0|3:0,0:0:0:0:
456,127,205271,1,10,0:0:0:0:
401,41,205443,1,0,0:0:0:0:
396,47,205530,1,0,0:0:0:0:
391,53,205616,6,0,B|271:39|271:39|265:46|265:46|207:27|207:27|87:58,5,300.000011444092,12|4|4|4|4|4,0:0|0:0|0:0|0:0|0:0|0:0,0:0:0:0:
101,54,209754,5,8,0:0:0:0:
117,132,209926,1,8,0:0:0:0:
190,166,210099,1,8,0:0:0:0:
188,244,210271,1,8,0:0:0:0:
78,162,210443,5,12,0:3:0:0:
190,174,210615,1,12,0:3:0:0:
302,185,210787,1,8,0:3:0:0:
414,197,210960,1,8,0:3:0:0:
414,197,211133,5,4,0:0:0:0:
414,197,211478,2,0,L|401:315,1,110.000003356934
328,346,211995,1,0,0:0:0:0:
317,342,212167,1,0,0:0:0:0:
306,338,212340,1,0,0:0:0:0:
401,306,212512,2,0,L|414:197,1,110.000003356934
414,197,213374,5,8,3:0:0:0:
414,197,213719,1,8,3:0:0:0:
430,69,213892,5,4,3:0:0:0:
430,69,214236,2,0,B|399:37|399:37|313:50,1,110.000003356934
271,92,214754,2,0,L|205:79,2,55.0000016784668
334,46,215271,2,0,B|399:37|399:37|430:69,1,110.000003356934
430,68,215702,1,0,0:0:0:0:
430,68,215788,1,0,0:0:0:0:
373,135,215961,2,0,L|378:200,2,55.0000016784668
451,246,216478,5,8,3:0:0:0:
323,331,216650,5,4,3:0:0:0:
323,331,216995,2,0,L|198:313,1,110.000003356934
133,350,217512,1,0,0:0:0:0:
123,344,217685,1,0,0:0:0:0:
113,338,217857,1,0,0:0:0:0:
214,315,218030,2,0,L|323:331,1,110.000003356934
323,331,218892,5,8,3:0:0:0:
323,331,219236,1,8,3:0:0:0:
263,245,219409,5,4,3:0:0:0:
263,245,219754,2,0,B|282:210|282:210|269:128,1,110.000003356934
217,78,220271,2,0,L|223:17,2,55.0000016784668
271,140,220788,5,0,0:0:0:0:
287,145,220961,1,0,0:0:0:0:
370,58,221133,1,0,0:0:0:0:
354,63,221306,1,0,0:0:0:0:
404,178,221478,1,0,0:0:0:0:
413,182,221651,1,0,0:0:0:0:
423,186,221823,1,0,0:0:0:0:
470,253,221995,5,8,3:0:0:0:
352,323,222167,5,8,3:0:0:0:
352,323,222512,2,0,L|375:193,1,110.000003356934
331,137,223030,1,0,0:0:0:0:
337,127,223202,1,0,0:0:0:0:
343,117,223374,1,0,0:0:0:0:
371,214,223547,2,0,L|352:323,1,110.000003356934
352,323,224409,5,8,3:0:0:0:
352,323,224754,1,8,3:0:0:0:
207,358,224926,5,4,3:0:0:0:
207,358,225271,2,0,P|153:351|145:286,1,110.000003356934
74,258,225788,1,0,0:0:0:0:
74,258,225961,2,0,P|84:216|96:187,1,55.0000016784668
137,303,226305,2,0,P|155:352|207:358,1,110.000003356934
207,357,226995,1,0,0:0:0:0:
231,255,227167,1,0,0:0:0:0:
207,357,227340,1,0,0:0:0:0:
316,223,227512,5,8,3:0:0:0:
166,145,227685,5,4,3:0:0:0:
166,145,228030,2,0,P|214:126|287:110,1,110.000003356934
341,152,228547,1,0,0:0:0:0:
341,152,228719,2,0,P|373:122|381:88,1,55.0000016784668
270,112,229064,2,0,P|217:124|166:145,1,110.000003356934
120,229,229581,1,0,0:0:0:0:
126,238,229754,1,0,0:0:0:0:
126,238,230271,5,0,0:0:0:0:
132,271,230357,1,8,1:3:0:0:
155,297,230443,1,8,0:0:0:0:
188,308,230529,1,8,0:0:0:0:
222,301,230615,1,8,0:3:0:0:
247,277,230702,1,8,0:3:0:0:
257,244,230788,6,0,L|185:235,3,50,8|8|12|12,3:0|3:0|3:0|3:0,0:0:0:0:
309,174,231133,2,0,L|381:164,3,50,8|8|12|12,0:3|0:3|0:3|0:3,0:0:0:0:
429,55,231478,6,0,L|423:105,1,50,12|12,3:0|3:0,0:0:0:0:
453,183,231650,1,8,0:0:0:0:
455,217,231736,1,8,0:0:0:0:
458,252,231822,1,8,0:0:0:0:
461,287,231908,1,8,0:0:0:0:
463,322,231995,6,0,L|455:381,3,50,4|12|8|8,3:0|3:0|1:3|1:3,0:0:0:0:
347,363,232340,1,12,0:3:0:0:
339,356,232426,1,12,0:3:0:0:
333,347,232512,6,0,P|327:310|337:258,3,50,12|8|12|8,3:0|3:0|3:0|3:0,0:0:0:0:
249,358,232857,1,12,0:0:0:0:
186,291,233030,1,8,0:3:0:0:
179,298,233116,1,4,3:0:0:0:
173,306,233202,6,0,B|133:272|133:272|169:120,1,200,6|8,0:0|0:0,0:0:0:0:
0,35,233719,2,0,B|126:39|47:105|181:96,1,200,2|0,0:0|0:0,0:0:0:0:
414,31,234236,1,10,0:0:0:0:
306,13,234409,2,0,P|329:73|342:142,1,100
455,307,234754,5,0,0:0:0:0:
503,225,234926,2,0,L|387:217,1,100,8|0,0:0|0:0,0:0:0:0:
200,145,235271,1,0,0:0:0:0:
319,178,235443,1,0,0:0:0:0:
146,262,235616,1,8,0:0:0:0:
103,14,235788,6,0,P|125:85|142:191,1,150,2|0,0:0|0:0,0:0:0:0:
82,210,236133,2,0,P|103:258|173:232,1,100,2|8,0:0|0:0,0:0:0:0:
365,118,236478,2,0,P|306:119|265:259,1,200,2|0,0:0|0:0,0:0:0:0:
466,324,236995,1,10,0:0:0:0:
361,363,237167,6,0,L|244:357,1,100,2|0,0:0|0:0,0:0:0:0:
40,348,237512,1,0,0:0:0:0:
165,373,237685,1,10,0:0:0:0:
68,241,237857,1,0,0:0:0:0:
68,241,237943,1,0,0:0:0:0:
68,241,238030,2,0,L|87:133,1,100,8|12,0:3|0:3,0:0:0:0:
222,30,238374,2,0,L|239:128,1,100,8|12,0:0|0:3,0:0:0:0:
493,268,238719,6,0,B|438:222|438:222|298:265,1,200,6|8,0:0|0:0,0:0:0:0:
64,355,239236,1,2,0:0:0:0:
166,380,239409,2,0,P|151:321|138:249,1,100
48,57,239754,2,0,P|61:112|116:108,1,100,10|0,0:0|0:0,0:0:0:0:
304,57,240099,5,0,0:0:0:0:
221,42,240271,1,0,0:0:0:0:
346,142,240443,2,0,L|455:131,1,100,8|0,0:0|0:0,0:0:0:0:
428,325,240788,1,0,0:0:0:0:
428,325,240961,2,0,L|319:336,1,100,2|8,0:0|0:0,0:0:0:0:
88,357,241305,6,0,P|64:305|64:243,1,100,2|0,0:0|0:0,0:0:0:0:
156,88,241650,1,0,0:0:0:0:
23,178,241823,2,0,L|154:165,1,100,8|0,0:0|0:0,0:0:0:0:
341,73,242167,1,2,0:0:0:0:
269,176,242340,1,2,0:0:0:0:
236,24,242512,1,8,0:0:0:0:
332,84,242685,1,2,0:0:0:0:
191,167,242857,5,8,0:0:0:0:
190,201,242943,1,8,0:0:0:0:
206,232,243029,1,8,0:0:0:0:
234,253,243115,1,8,0:0:0:0:
268,258,243202,5,8,0:3:0:0:
260,264,243288,1,8,0:3:0:0:
253,271,243374,1,8,0:3:0:0:
248,280,243460,1,8,0:3:0:0:
244,289,243547,6,0,P|238:335|239:342,2,37.5000014305115,8|12|8,0:3|0:3|0:3,0:0:0:0:
345,263,243892,1,8,0:3:0:0:
428,316,244064,1,8,0:3:0:0:
422,324,244150,1,8,0:3:0:0:
416,332,244236,6,0,B|282:261|282:261|228:302,1,200,6|8,0:0|0:0,0:0:0:0:
73,380,244754,1,2,0:0:0:0:
73,380,244926,2,0,L|88:240,1,100
51,206,245185,1,0,0:0:0:0:
46,215,245271,2,0,P|96:206|155:208,1,100,10|0,0:0|0:0,0:0:0:0:
317,137,245616,6,0,P|305:93|296:16,2,100,0|0|8,0:0|0:0|0:0,0:0:0:0:
468,280,246133,1,0,0:0:0:0:
489,202,246305,2,0,P|426:213|392:259,1,100
164,324,246650,1,8,0:0:0:0:
236,373,246823,6,0,P|251:263|267:198,1,150,2|0,0:0|0:0,0:0:0:0:
337,174,247167,2,0,P|298:115|239:129,1,100,2|8,0:0|0:0,0:0:0:0:
11,28,247512,2,0,B|136:2|79:94|212:55,1,200,2|0,0:0|0:0,0:0:0:0:
243,27,247943,1,0,0:0:0:0:
284,12,248030,2,0,L|272:133,1,100,10|2,0:0|0:0,0:0:0:0:
506,207,248374,6,0,B|456:193|456:193|409:246,1,100
212,328,248719,1,10,0:0:0:0:
308,267,248892,1,0,0:0:0:0:
200,360,249064,2,0,P|174:273|151:238,1,100,2|0,0:0|0:0,0:0:0:0:
132,243,249323,1,0,0:0:0:0:
92,222,249409,2,0,P|118:135|141:100,1,100,10|0,0:0|0:0,0:0:0:0:
0,0,249754,6,0,L|17:118,2,100,6|0|8,0:0|0:0|0:0,0:0:0:0:
7,215,250271,2,0,P|61:218|229:257,1,200,2|0,0:0|0:0,0:0:0:0:
210,254,250702,1,0,0:0:0:0:
216,261,250788,2,0,P|254:210|276:148,1,100,10|0,0:0|0:0,0:0:0:0:
478,21,251133,6,0,L|462:135,1,100
430,351,251478,2,0,L|443:251,1,100,8|0,0:0|0:0,0:0:0:0:
302,72,251823,2,0,L|315:171,1,100
343,364,252167,2,0,L|329:264,1,100,8|0,0:0|0:0,0:0:0:0:
15,327,252512,6,0,P|74:343|146:249,1,150
179,302,252857,2,0,P|188:243|204:180,1,100,8|0,0:0|0:0,0:0:0:0:
58,41,253202,2,0,P|80:99|131:92,1,100,2|0,0:0|0:0,0:0:0:0:
135,95,253461,1,0,0:0:0:0:
153,77,253547,1,8,0:0:0:0:
67,180,253719,1,2,0:0:0:0:
225,194,253892,6,0,L|314:177,1,75,8|0,0:0|0:0,0:0:0:0:
364,214,254236,6,0,L|361:240,5,16.6666666666667,12|12|8|12|12|12,0:3|0:3|0:3|0:3|0:3|0:3,0:0:0:0:
409,150,254581,6,0,L|405:114,5,25.0000009536744,8|12|8|12|8|12,0:3|0:3|0:3|0:3|0:3|0:3,0:0:0:0:
474,194,254926,6,0,L|469:242,1,40,12|0,0:3|0:0,0:0:0:0:
341,322,255271,6,0,P|275:342|229:376,1,100,4|0,0:0|0:0,0:0:0:0:
171,329,255616,1,8,0:0:0:0:
197,153,255788,1,2,0:0:0:0:
205,157,255874,1,0,0:0:0:0:
213,162,255961,2,0,P|228:231|225:291,1,100
124,89,256305,1,10,0:0:0:0:
211,58,256478,1,0,0:0:0:0:
127,176,256650,6,0,L|-3:160,2,100,0|0|8,0:0|0:0|0:0,0:0:0:0:
279,270,257167,1,2,0:0:0:0:
288,266,257254,1,0,0:0:0:0:
293,257,257340,2,0,P|226:277|189:314,1,100,0|2,0:0|0:0,0:0:0:0:
396,360,257685,2,0,P|406:293|423:231,1,100,10|0,0:0|0:0,0:0:0:0:
503,47,258030,5,0,0:0:0:0:
414,18,258202,2,0,P|428:79|436:154,1,100,2|8,0:0|0:0,0:0:0:0:
261,288,258547,1,0,0:0:0:0:
264,297,258633,1,0,0:0:0:0:
267,306,258719,2,0,L|134:303,1,100,2|0,0:0|0:0,0:0:0:0:
16,181,259064,1,10,0:0:0:0:
40,163,259150,1,8,0:0:0:0:
69,169,259236,6,0,B|116:176|116:176|167:135,1,100,8|0,0:3|0:0,0:0:0:0:
290,28,259581,1,0,0:0:0:0:
290,28,259667,1,0,0:0:0:0:
290,28,259754,2,0,L|276:143,1,100,8|2,0:0|0:0,0:0:0:0:
365,252,260099,1,2,0:0:0:0:
360,143,260271,1,2,0:0:0:0:
304,302,260443,1,10,0:0:0:0:
431,344,260616,1,0,0:0:0:0:
433,334,260702,1,0,0:0:0:0:
439,326,260788,6,0,P|447:252|450:189,1,100,4|0,0:0|0:0,0:0:0:0:
491,49,261133,1,8,0:0:0:0:
384,118,261305,2,0,P|322:95|268:39,1,100,2|0,0:0|0:0,0:0:0:0:
146,17,261650,1,0,0:0:0:0:
59,139,261823,2,0,P|121:116|175:60,1,100,10|0,0:0|0:0,0:0:0:0:
20,244,262167,6,0,L|37:367,1,100
126,369,262512,1,8,0:0:0:0:
236,278,262685,1,2,0:0:0:0:
237,268,262771,1,0,0:0:0:0:
233,258,262857,1,2,0:0:0:0:
126,369,263030,1,2,0:0:0:0:
303,383,263202,2,0,L|431:361,1,100,10|0,0:0|0:0,0:0:0:0:
436,339,263461,1,0,0:0:0:0:
444,334,263547,5,8,0:0:0:0:
461,189,263719,1,2,0:0:0:0:
461,189,263805,1,0,0:0:0:0:
461,189,263892,1,0,0:0:0:0:
436,339,264064,5,8,0:0:0:0:
387,145,264236,1,2,0:0:0:0:
387,145,264409,1,0,0:0:0:0:
401,366,264581,5,10,0:0:0:0:
301,186,264754,2,0,P|327:242|337:297,1,100,2|8,0:0|3:3,0:0:0:0:
339,303,265012,1,8,3:3:0:0:
326,324,265098,1,4,3:0:0:0:
302,331,265184,1,12,3:0:0:0:
280,321,265270,1,12,3:0:0:0:
180,277,265443,6,0,P|153:271|104:283,2,50,8|8|8,0:3|0:3|0:3,0:0:0:0:
57,353,265788,1,12,0:3:0:0:
53,343,265874,1,12,0:3:0:0:
49,333,265961,2,0,L|62:205,1,100,12|8,0:3|0:0,0:0:0:0:
0,71,266305,6,0,B|129:61|73:132|199:125,1,200,4|8,0:0|0:0,0:0:0:0:
418,51,266823,1,2,0:0:0:0:
409,46,266909,1,0,0:0:0:0:
399,45,266995,2,0,P|380:73|406:161,1,100
473,307,267340,2,0,L|339:292,1,100,10|0,0:0|0:0,0:0:0:0:
330,320,267599,1,0,0:0:0:0:
320,323,267685,6,0,L|308:204,1,100
251,366,268030,1,8,0:0:0:0:
391,275,268202,1,2,0:0:0:0:
389,265,268288,1,0,0:0:0:0:
389,255,268374,1,2,0:0:0:0:
472,210,268547,1,2,0:0:0:0:
320,323,268719,2,0,P|263:302|212:249,1,100,10|0,0:0|0:0,0:0:0:0:
56,161,269064,5,0,0:0:0:0:
75,255,269236,2,0,P|121:216|193:198,1,100,2|8,0:0|0:0,0:0:0:0:
342,142,269581,1,0,0:0:0:0:
259,94,269754,2,0,L|239:204,1,100,2|0,0:0|0:0,0:0:0:0:
321,340,270099,1,10,0:0:0:0:
348,328,270185,1,8,0:3:0:0:
375,316,270271,1,4,0:3:0:0:
375,316,270616,5,0,0:0:0:0:
380,307,270702,1,0,0:0:0:0:
385,298,270788,1,8,0:0:0:0:
304,219,270961,1,2,0:0:0:0:
385,112,271133,2,0,L|392:223,1,100,2|2,0:0|0:0,0:0:0:0:
256,27,271478,2,0,P|283:92|302:162,1,100,10|0,0:0|0:0,0:0:0:0:
293,130,271736,1,0,0:0:0:0:
292,140,271823,6,0,L|170:129,1,100,4|0,0:0|0:0,0:0:0:0:
50,63,272167,1,8,0:0:0:0:
8,203,272340,2,0,L|130:192,1,100,2|0,0:0|0:0,0:0:0:0:
205,348,272685,1,0,0:0:0:0:
205,348,272857,2,0,P|170:278|166:225,1,100,10|0,0:0|0:0,0:0:0:0:
260,36,273202,6,0,L|241:161,2,100,0|0|8,0:0|0:0|0:0,0:0:0:0:
286,240,273719,1,2,0:0:0:0:
286,240,273805,1,0,0:0:0:0:
286,240,273892,2,0,L|429:222,1,100,2|2,0:0|0:0,0:0:0:0:
479,350,274236,2,0,P|419:340|409:290,1,100,10|0,0:0|0:0,0:0:0:0:
489,88,274581,5,8,0:0:0:0:
385,227,274754,1,2,0:0:0:0:
394,230,274840,1,0,0:0:0:0:
403,233,274926,1,0,0:0:0:0:
430,39,275099,5,8,0:0:0:0:
475,266,275271,1,2,0:0:0:0:
403,233,275443,1,0,0:0:0:0:
289,336,275616,6,0,L|161:321,1,100,10|2,0:0|0:0,0:0:0:0:
56,359,275961,6,8,L|43:319,5,23.3333326212565,8|8|8|8|8|8,0:3|0:3|0:3|0:3|0:3|0:3,0:3:0:0:
93,263,276305,6,8,L|84:232,5,19.9999993896485,8|8|8|8|8|8,0:3|0:3|0:3|0:3|0:3|0:3,0:3:0:0:
139,176,276650,6,0,L|130:155,5,16.6666666666667,8|12|8|12|8|12,0:3|0:3|0:3|0:3|0:3|0:3,0:0:0:0:
192,112,276995,6,8,L|183:91,1,16.6666666666667,8|8,0:3|0:3,0:3:0:0:
197,105,277110,2,8,L|188:84,1,16.6666666666667,8|8,0:3|0:3,0:3:0:0:
202,98,277225,2,8,L|193:77,1,16.6666666666667,8|8,0:3|0:3,0:3:0:0:
195,54,277340,5,4,0:0:0:0:
256,192,277426,12,0,280271,0:0:0:0:
