osu file format v14

[General]
AudioFilename: audio.mp3
AudioLeadIn: 0
PreviewTime: 116589
Countdown: 0
SampleSet: Soft
StackLeniency: 0.4
Mode: 0
LetterboxInBreaks: 0
WidescreenStoryboard: 0

[Editor]
DistanceSpacing: 0.9
BeatDivisor: 4
GridSize: 4
TimelineZoom: 1.8

[Metadata]
Title:Self vs Self (feat. In Flames)
TitleUnicode:Self vs Self (feat. In Flames)
Artist:Pendulum
ArtistUnicode:Pendulum
Creator:FCL
Version:Immersion
Source:
Tags:rock Immersion electronic english metal versus vs. melodic death
BeatmapID:4182784
BeatmapSetID:2010229

[Difficulty]
HPDrainRate:5
CircleSize:4.1
OverallDifficulty:9
ApproachRate:9.3
SliderMultiplier:2.2
SliderTickRate:1

[Events]
//Background and Video events
0,0,"sci_fi-astronaut-757416.jpg",0,0
//Break Periods
2,23747,28338
2,211333,221613
//Storyboard Layer 0 (Background)
//Storyboard Layer 1 (Fail)
//Storyboard Layer 2 (Pass)
//Storyboard Layer 3 (Foreground)
//Storyboard Layer 4 (Overlay)
//Storyboard Sound Samples

[TimingPoints]
99,344.827586206897,4,2,1,70,1,0
1479,-133.333333333333,4,2,1,70,0,0
2943,-133.333333333333,4,2,1,5,0,0
3030,-133.333333333333,4,2,1,70,0,0
7254,-133.333333333333,4,2,1,5,0,0
7340,-133.333333333333,4,2,1,70,0,0
8461,-133.333333333333,4,2,1,5,0,0
8547,-133.333333333333,4,2,1,70,0,0
11219,-133.333333333333,4,2,1,5,0,0
11305,-133.333333333333,4,2,1,70,0,0
13978,-133.333333333333,4,2,1,5,0,0
14064,-133.333333333333,4,2,1,70,0,0
15530,-133.333333333333,4,2,1,5,0,0
15616,-133.333333333333,4,2,1,70,0,0
16736,-133.333333333333,4,2,1,5,0,0
16823,-133.333333333333,4,2,1,70,0,0
18288,-133.333333333333,4,2,1,5,0,0
18374,-133.333333333333,4,2,1,70,0,0
21047,-133.333333333333,4,2,1,5,0,0
21133,-133.333333333333,4,2,1,70,0,0
23547,-133.333333333333,4,2,1,50,0,0
29055,-117.647058823529,4,2,1,60,0,0
34581,-117.647058823529,4,2,1,70,0,0
40099,-107.52688172043,4,2,1,75,0,0
42857,-200,4,2,1,60,0,0
43710,-107.52688172043,4,2,1,70,0,0
45616,-100,4,1,1,80,0,0
45874,-100,4,1,1,5,0,0
45961,-100,4,1,1,80,0,0
56909,-100,4,1,1,5,0,0
56995,-100,4,1,1,80,0,0
66650,-200,4,1,1,80,0,0
66823,-100,4,1,1,80,0,0
67675,-117.647058823529,4,1,1,70,0,0
67943,-117.647058823529,4,1,1,5,0,0
68030,-117.647058823529,4,1,1,70,0,0
73288,-117.647058823529,4,1,1,5,0,0
73374,-117.647058823529,4,1,1,70,0,0
79064,-117.647058823529,4,1,1,70,0,0
84323,-117.647058823529,4,1,1,5,0,0
84409,-117.647058823529,4,1,1,70,0,0
89754,-133.333333333333,4,1,1,70,0,0
98288,-133.333333333333,4,1,1,5,0,0
98374,-133.333333333333,4,1,1,70,0,0
117340,-100,4,1,1,80,0,1
120185,-100,4,1,1,5,0,1
120271,-100,4,1,1,80,0,1
127857,-200,4,1,1,80,0,1
128202,-100,4,1,1,80,0,1
136909,-100,4,1,1,5,0,1
136995,-100,4,1,1,80,0,1
138030,-200,4,1,1,80,0,1
138374,-133.333333333333,4,1,1,80,0,1
139064,-250,4,1,1,80,0,1
139409,-100,4,1,1,80,0,0
145185,-100,4,1,1,5,0,0
145271,-100,4,1,1,80,0,0
150702,-100,4,1,1,5,0,0
150788,-100,4,1,1,80,0,0
156219,-100,4,1,1,5,0,0
156305,-100,4,1,1,80,0,0
161478,-117.647058823529,4,1,1,80,0,0
161736,-117.647058823529,4,1,1,5,0,0
161823,-117.647058823529,4,1,1,80,0,0
183547,-133.333333333333,4,1,1,70,0,0
192081,-133.333333333333,4,1,1,5,0,0
192167,-133.333333333333,4,1,1,70,0,0
211133,-133.333333333333,4,1,1,50,0,0
224926,-133.333333333333,4,1,1,60,0,0
227685,-133.333333333333,4,1,1,80,0,0
230185,-133.333333333333,4,1,1,5,0,0
230271,-100,4,1,1,70,0,0
233202,-100,4,1,1,80,0,1
236047,-100,4,1,1,5,0,1
236133,-100,4,1,1,80,0,1
252771,-100,4,1,1,5,0,1
252857,-100,4,1,1,80,0,1
253892,-200,4,1,1,80,0,1
254236,-133.333333333333,4,1,1,80,0,1
254926,-250,4,1,1,80,0,1
255271,-100,4,1,1,80,0,0
275961,-142.857142857143,4,1,1,80,0,0
280271,-142.857142857143,4,1,1,5,0,0

[Colours]
Combo1 : 164,99,235
Combo2 : 241,136,58
Combo3 : 244,53,72
Combo4 : 215,97,218

[HitObjects]
256,192,99,12,0,1305,1:0:0:0:
341,102,1478,5,4,1:0:0:0:
341,102,1823,5,0,1:0:0:0:
341,102,1995,1,0,0:0:0:0:
231,134,2167,6,0,L|219:34,2,82.5000031471254,10|2|2,1:1|0:0|0:0,0:0:0:0:
99,234,2685,6,0,P|163:244|247:277,1,123.750004720688,0|0,1:0|2:0,0:0:0:0:
272,339,3030,2,0,P|325:325|325:273,1,82.5000031471254,8|0,1:0|1:0,0:0:0:0:
305,235,3375,1,0,1:0:0:0:
408,346,3547,6,0,L|508:334,2,82.5000031471254,10|2|2,1:0|0:0|1:0,0:0:0:0:
473,179,4064,5,0,0:0:0:0:
473,179,4236,2,0,P|402:162|350:79,1,165.000006294251,0|0,1:2|1:0,0:0:0:0:
396,25,4754,1,0,0:0:0:0:
232,134,4926,6,0,L|244:234,2,82.5000031471254,10|2|2,1:0|0:0|0:0,0:0:0:0:
144,73,5443,6,0,L|128:258,1,165.000006294251,0|8,1:0|1:0,0:0:0:0:
29,325,5961,1,0,1:0:0:0:
107,310,6134,1,0,1:0:0:0:
182,289,6305,6,0,P|236:304|285:331,2,82.5000031471254,10|2|2,1:0|1:0|0:0,0:0:0:0:
416,155,6822,5,0,1:1:0:0:
416,155,6995,2,0,L|394:298,1,123.750004720688,4|0,1:0|2:0,0:0:0:0:
411,297,7340,1,0,1:0:0:0:
411,297,7512,1,0,0:0:0:0:
272,311,7685,6,0,L|167:292,2,82.5000031471254,10|2|2,1:0|0:0|0:0,0:0:0:0:
67,305,8202,6,0,P|86:242|147:195,1,123.750004720688,0|0,1:0|2:0,0:0:0:0:
120,45,8547,2,0,L|125:140,1,82.5000031471254,8|0,1:0|1:0,0:0:0:0:
139,364,8891,1,0,1:0:0:0:
240,176,9064,6,0,P|214:237|207:292,2,82.5000031471254,10|2|2,1:0|0:0|1:0,0:0:0:0:
392,47,9581,5,0,1:0:0:0:
392,47,9754,2,0,P|374:112|279:106,1,165.000006294251,0|0,1:0|1:0,0:0:0:0:
442,168,10271,1,0,0:0:0:0:
442,168,10443,6,0,P|460:204|471:244,2,82.5000031471254,10|2|2,1:0|0:0|0:0,0:0:0:0:
398,318,10961,6,0,B|316:285|316:285|274:320,1,123.750004720688,0|0,1:0|2:0,0:0:0:0:
233,384,11305,2,0,P|177:346|162:304,1,82.5000031471254,8|0,1:0|0:0,0:0:0:0:
233,227,11650,1,0,1:0:0:0:
170,334,11822,5,10,1:0:0:0:
145,339,11909,1,8,1:0:0:0:
123,329,11995,1,2,1:0:0:0:
113,306,12081,1,0,1:0:0:0:
122,274,12167,5,8,3:0:0:0:
140,237,12253,1,8,3:0:0:0:
124,188,12340,1,12,3:0:0:0:
66,169,12426,1,12,3:0:0:0:
16,228,12512,6,0,L|216:213,1,165.000006294251,4|0,1:0|1:0,0:0:0:0:
238,275,13029,1,0,0:0:0:0:
263,45,13202,6,0,L|251:149,2,82.5000031471254,8|0|0,1:0|0:0|0:0,0:0:0:0:
415,132,13719,6,0,P|358:152|308:227,1,123.750004720688,0|0,1:0|0:0,0:0:0:0:
328,230,14064,1,8,1:0:0:0:
320,79,14236,1,0,1:0:0:0:
356,258,14409,1,0,1:0:0:0:
236,327,14581,6,0,L|143:315,2,82.5000031471254,10|2|2,1:0|0:0|1:2,0:0:0:0:
36,304,15099,5,0,1:0:0:0:
140,379,15271,2,0,L|293:357,1,123.750004720688,0|0,1:0|2:0,0:0:0:0:
300,374,15615,2,0,B|312:333|312:333|299:274,1,82.5000031471254,0|0,1:0|0:0,0:0:0:0:
198,153,15961,6,0,B|185:112|185:112|199:53,2,82.5000031471254,10|2|2,1:0|0:0|0:0,0:0:0:0:
3,214,16478,6,0,L|150:228,1,123.750004720688,0|0,1:0|0:0,0:0:0:0:
146,251,16822,1,8,1:0:0:0:
231,216,16995,1,0,1:0:0:0:
322,303,17167,1,0,1:0:0:0:
390,136,17340,6,0,P|372:191|362:243,2,82.5000031471254,10|2|2,1:0|1:2|0:0,0:0:0:0:
507,365,17857,1,0,1:0:0:0:
507,365,18029,6,0,P|413:334|359:331,1,123.750004720688,0|0,1:0|0:0,0:0:0:0:
305,377,18374,2,0,L|292:279,1,82.5000031471254,0|0,1:0|0:0,0:0:0:0:
328,36,18719,6,0,L|317:117,2,82.5000031471254,10|2|2,1:0|0:0|0:0,0:0:0:0:
122,140,19236,6,0,P|168:144|218:256,1,165.000006294251,0|8,1:0|1:0,0:0:0:0:
161,280,19753,1,0,1:0:0:0:
52,164,19926,1,0,1:0:0:0:
223,32,20099,6,0,P|205:88|193:136,2,82.5000031471254,10|2|2,1:0|0:0|1:2,0:0:0:0:
360,13,20615,5,0,1:0:0:0:
360,13,20788,2,0,P|381:69|391:147,1,123.750004720688,0|0,1:0|0:0,0:0:0:0:
367,161,21133,1,0,1:0:0:0:
433,204,21305,1,0,0:0:0:0:
335,286,21478,6,0,L|227:274,2,82.5000031471254,10|2|2,1:0|0:0|0:0,0:0:0:0:
397,338,21995,1,0,1:0:0:0:
160,317,22167,5,8,1:0:0:0:
156,268,22253,1,8,1:0:0:0:
176,223,22339,1,8,1:0:0:0:
215,193,22425,1,8,1:0:0:0:
263,185,22511,5,0,1:0:0:0:
239,216,22598,1,0,1:0:0:0:
199,220,22684,1,8,3:0:0:0:
169,194,22770,1,8,3:0:0:0:
179,156,22857,5,12,3:3:0:0:
167,138,22943,1,12,3:3:0:0:
150,128,23029,1,12,3:3:0:0:
130,126,23115,1,0,3:0:0:0:
110,133,23202,1,8,3:1:0:0:
286,88,23374,1,0,1:0:0:0:
283,95,23460,1,0,1:0:0:0:
280,102,23547,5,4,1:0:0:0:
30,38,28892,5,8,3:3:0:0:
107,48,29064,1,2,0:3:0:0:
111,56,29150,1,0,0:0:0:0:
115,63,29236,2,0,P|172:70|243:84,1,93.500001783371
402,102,29581,5,2,0:3:0:0:
398,110,29667,1,0,0:0:0:0:
394,117,29753,2,0,P|337:124|266:138,1,93.500001783371
49,145,30099,5,2,0:3:0:0:
50,153,30184,1,0,0:0:0:0:
52,161,30271,2,0,P|105:182|170:214,1,93.500001783371
470,189,30615,5,2,0:3:0:0:
469,197,30701,1,0,0:0:0:0:
467,205,30787,2,0,P|413:226|348:258,1,93.500001783371
14,275,31133,5,2,0:3:0:0:
15,283,31219,1,0,0:0:0:0:
45,304,31305,1,8,3:0:0:0:
355,315,31478,5,2,0:3:0:0:
354,323,31564,1,0,0:0:0:0:
352,331,31650,1,8,3:0:0:0:
121,296,31822,5,10,3:3:0:0:
120,288,31908,1,0,0:0:0:0:
118,278,31995,2,0,L|129:180,1,93.500001783371
304,263,32340,5,2,0:3:0:0:
305,255,32426,1,0,0:0:0:0:
307,245,32513,2,0,L|296:147,1,93.500001783371
49,158,32857,5,2,0:3:0:0:
48,150,32943,1,0,0:0:0:0:
46,140,33030,2,0,L|57:42,1,93.500001783371
381,135,33374,5,2,0:3:0:0:
382,127,33460,1,0,0:0:0:0:
384,117,33547,2,0,L|373:19,1,93.500001783371
74,57,33891,5,2,0:3:0:0:
65,52,33978,1,0,0:0:0:0:
56,47,34064,1,0,0:0:0:0:
331,19,34236,5,2,0:3:0:0:
340,14,34323,1,0,0:0:0:0:
373,24,34409,1,0,3:3:0:0:
170,141,34581,6,0,P|108:124|52:118,1,93.500001783371,10|0,3:0|0:0,0:0:0:0:
38,37,34926,1,0,0:0:0:0:
314,169,35098,6,0,P|376:152|432:146,1,93.500001783371,2|0,0:3|0:0,0:0:0:0:
446,65,35443,1,0,0:0:0:0:
180,254,35616,6,0,P|124:221|71:201,1,93.500001783371,2|0,0:3|0:0,0:0:0:0:
79,119,35960,1,0,0:0:0:0:
303,282,36133,6,0,P|358:249|411:229,1,93.500001783371,2|0,0:3|0:0,0:0:0:0:
404,147,36478,1,0,0:0:0:0:
143,357,36650,5,2,0:3:0:0:
22,316,36822,1,8,3:0:0:0:
16,240,36995,1,0,0:0:0:0:
299,384,37167,5,8,3:0:0:0:
124,232,37340,6,0,P|117:184|112:114,1,93.500001783371,10|0,3:0|0:0,0:0:0:0:
172,292,37684,1,0,0:0:0:0:
338,196,37857,6,0,P|345:148|350:78,1,93.500001783371,2|0,0:3|0:0,0:0:0:0:
290,256,38201,1,0,0:0:0:0:
53,92,38374,6,0,P|81:53|127:0,1,93.500001783371,2|0,0:3|0:0,0:0:0:0:
44,168,38718,1,0,0:0:0:0:
429,77,38891,6,0,P|400:38|354:-14,1,93.500001783371,2|0,0:3|0:0,0:0:0:0:
438,153,39235,1,0,0:0:0:0:
222,30,39409,5,2,0:3:0:0:
229,22,39581,1,0,0:0:0:0:
187,190,39753,5,0,0:0:0:0:
229,303,39925,1,8,3:3:0:0:
345,92,40099,6,0,L|465:74,1,102.300003199997,10|0,3:0|0:0,0:0:0:0:
271,108,40443,1,0,0:0:0:0:
113,174,40615,6,0,L|-7:156,1,102.300003199997,2|0,0:3|0:0,0:0:0:0:
187,190,40960,1,0,0:0:0:0:
362,218,41133,6,0,B|412:240|412:240|429:299,1,102.300003199997,2|0,0:3|0:0,0:0:0:0:
331,148,41478,1,0,0:0:0:0:
156,260,41650,6,0,B|106:282|106:282|89:341,1,102.300003199997,2|0,0:3|0:0,0:0:0:0:
187,190,41995,1,0,0:0:0:0:
295,348,42167,5,2,0:3:0:0:
342,241,42340,1,8,3:3:0:0:
346,247,42512,1,0,0:0:0:0:
92,327,42685,5,8,3:0:0:0:
121,104,42857,6,0,L|113:61,3,27.5,8|0|0|0,3:0|0:0|0:0|0:0,0:0:0:0:
238,162,43202,6,0,L|232:189,1,27.5,8|0,3:0|0:0,0:0:0:0:
239,201,43374,2,0,L|245:174,1,27.5,8|0,3:0|0:0,0:0:0:0:
314,32,43547,6,0,L|319:59,1,27.5,4|0,3:0|0:0,0:0:0:0:
343,202,43719,5,8,1:0:0:0:
320,247,43805,1,8,1:0:0:0:
280,278,43891,1,8,1:0:0:0:
231,289,43977,1,8,1:0:0:0:
181,276,44063,1,8,1:0:0:0:
142,244,44150,1,8,1:0:0:0:
122,198,44236,1,8,1:0:0:0:
123,147,44322,1,8,3:0:0:0:
147,102,44408,1,8,3:0:0:0:
188,72,44494,1,8,3:0:0:0:
243,72,44581,5,12,3:0:0:0:
215,113,44667,1,12,3:0:0:0:
166,118,44753,1,12,3:0:0:0:
130,83,44839,1,12,3:0:0:0:
83,30,44926,5,8,3:0:0:0:
67,29,45012,1,12,3:0:0:0:
55,36,45098,1,8,3:0:0:0:
49,50,45184,1,12,3:0:0:0:
83,128,45271,5,12,1:3:0:0:
130,83,45357,1,4,1:3:0:0:
166,118,45443,1,8,1:3:0:0:
190,97,45529,1,4,1:3:0:0:
215,113,45616,6,0,L|185:324,1,165,4|0,1:0|0:0,0:0:0:0:
226,305,45961,1,8,0:0:0:0:
63,353,46133,1,2,0:0:0:0:
58,343,46219,1,0,0:0:0:0:
53,332,46305,2,0,P|62:268|86:197,1,110
377,364,46650,2,0,P|384:299|380:225,1,110,10|0,0:0|0:0,0:0:0:0:
332,181,46909,1,0,0:0:0:0:
337,171,46995,5,0,0:0:0:0:
465,55,47167,2,0,P|417:52|383:110,1,110,0|8,0:0|0:0,0:0:0:0:
224,207,47512,2,0,P|210:174|172:151,1,55,2|0,0:0|0:0,0:0:0:0:
55,147,47684,1,2,0:0:0:0:
179,275,47857,1,2,0:0:0:0:
145,4,48029,2,0,L|133:138,1,110,10|0,0:0|0:0,0:0:0:0:
31,308,48374,5,0,0:0:0:0:
31,308,48546,2,0,P|106:323|172:344,1,110,2|8,0:0|0:0,0:0:0:0:
434,303,48891,1,0,0:0:0:0:
441,294,48978,1,0,0:0:0:0:
447,285,49064,2,0,P|372:270|306:249,1,110,2|0,0:0|0:0,0:0:0:0:
159,162,49409,1,10,0:0:0:0:
151,127,49495,1,0,0:0:0:0:
182,131,49581,1,8,0:3:0:0:
179,144,49667,1,12,0:3:0:0:
223,151,49753,6,0,L|349:132,1,110
424,67,50012,1,0,0:0:0:0:
429,76,50098,1,8,0:0:0:0:
285,289,50271,1,2,0:0:0:0:
280,279,50357,1,0,0:0:0:0:
275,268,50443,1,2,0:0:0:0:
405,218,50615,1,2,0:0:0:0:
215,341,50788,2,0,P|197:249|176:206,1,110,10|0,0:0|0:0,0:0:0:0:
43,116,51046,1,0,0:0:0:0:
44,126,51133,6,0,P|132:156|180:159,1,110,4|0,0:0|0:0,0:0:0:0:
419,116,51478,1,8,0:0:0:0:
322,84,51650,2,0,P|251:145|224:185,1,110,2|0,0:0|0:0,0:0:0:0:
7,279,51995,1,0,0:0:0:0:
220,300,52167,2,0,L|96:288,1,110,10|0,0:0|0:0,0:0:0:0:
101,295,52426,1,0,0:0:0:0:
93,303,52512,6,0,L|243:319,1,110
415,370,52857,1,8,0:0:0:0:
486,181,53029,1,2,0:0:0:0:
481,170,53115,1,0,0:0:0:0:
477,159,53202,1,2,0:0:0:0:
307,106,53374,1,2,0:0:0:0:
461,267,53546,2,0,P|477:178|472:118,1,110,10|0,0:0|0:0,0:0:0:0:
437,89,53805,1,0,0:0:0:0:
476,21,53891,5,8,0:0:0:0:
184,76,54064,1,2,0:0:0:0:
184,76,54236,1,0,0:0:0:0:
437,89,54409,5,8,0:0:0:0:
128,4,54581,1,2,0:0:0:0:
126,14,54667,1,0,0:0:0:0:
123,24,54753,1,0,0:0:0:0:
476,21,54926,5,10,0:0:0:0:
312,102,55098,1,2,0:0:0:0:
422,276,55271,5,8,0:0:0:0:
385,264,55357,1,0,0:0:0:0:
385,225,55443,1,0,0:0:0:0:
422,213,55529,1,0,0:0:0:0:
444,244,55616,1,8,0:0:0:0:
220,288,55788,5,2,0:0:0:0:
215,277,55874,1,0,0:0:0:0:
210,267,55960,1,10,0:0:0:0:
134,120,56133,1,2,0:0:0:0:
139,109,56219,1,0,0:0:0:0:
144,99,56305,1,2,0:0:0:0:
95,223,56478,1,8,0:0:0:0:
95,223,56650,6,0,P|191:201|306:189,1,165,4|0,0:0|0:0,0:0:0:0:
289,215,56995,1,8,0:0:0:0:
44,327,57167,1,2,0:0:0:0:
38,317,57253,1,0,0:0:0:0:
32,307,57340,2,0,P|15:219|16:167,1,110
182,27,57685,2,0,P|160:89|112:76,1,110,10|0,0:0|0:0,0:0:0:0:
281,17,57943,1,0,0:0:0:0:
276,27,58029,6,0,P|265:95|265:151,1,110
393,204,58374,1,8,0:0:0:0:
214,342,58546,2,0,P|208:301|191:260,1,55,2|0,0:0|0:0,0:0:0:0:
352,355,58719,1,2,0:0:0:0:
115,303,58891,1,2,0:0:0:0:
393,204,59064,2,0,P|315:179|262:155,1,110,10|0,0:0|0:0,0:0:0:0:
477,34,59409,5,0,0:0:0:0:
477,34,59581,2,0,P|456:85|441:137,1,110,2|8,0:0|0:0,0:0:0:0:
495,305,59926,1,0,0:0:0:0:
489,314,60012,1,0,0:0:0:0:
484,323,60098,2,0,P|432:302|380:287,1,110,2|0,0:0|0:0,0:0:0:0:
103,159,60443,1,10,0:0:0:0:
135,224,60529,1,0,0:0:0:0:
162,207,60615,1,8,0:3:0:0:
168,195,60702,1,12,0:3:0:0:
185,208,60788,5,0,0:0:0:0:
257,79,60960,1,0,0:0:0:0:
251,69,61046,1,0,0:0:0:0:
241,62,61133,1,8,0:0:0:0:
379,137,61305,1,2,0:0:0:0:
411,22,61478,1,2,0:0:0:0:
371,145,61650,1,2,0:0:0:0:
507,7,61822,1,10,0:0:0:0:
441,228,61995,1,0,0:0:0:0:
437,238,62081,1,0,0:0:0:0:
438,248,62167,6,0,L|311:237,1,110,4|0,0:0|0:0,0:0:0:0:
246,296,62426,1,0,0:0:0:0:
235,293,62512,1,8,0:0:0:0:
85,381,62685,2,0,P|33:349|51:284,1,110,2|0,0:0|0:0,0:0:0:0:
177,378,63029,1,0,0:0:0:0:
148,103,63202,2,0,L|165:258,1,110,10|0,0:0|0:0,0:0:0:0:
169,218,63460,1,0,0:0:0:0:
178,223,63547,6,0,P|206:171|262:149,2,110,0|0|8,0:0|0:0|0:0,0:0:0:0:
331,128,64064,1,2,0:0:0:0:
191,95,64236,1,2,0:0:0:0:
369,209,64409,1,2,0:0:0:0:
157,0,64581,2,0,P|187:65|198:112,1,110,10|0,0:0|0:0,0:0:0:0:
170,172,64840,1,0,0:0:0:0:
198,200,64926,5,8,0:0:0:0:
43,278,65099,1,2,0:0:0:0:
34,271,65184,1,0,0:0:0:0:
25,263,65271,1,0,0:0:0:0:
256,264,65443,5,8,0:0:0:0:
41,181,65615,1,2,0:0:0:0:
39,169,65701,1,0,0:0:0:0:
38,157,65788,1,0,0:0:0:0:
220,338,65960,5,10,0:0:0:0:
88,95,66133,1,2,0:0:0:0:
242,119,66305,5,8,0:0:0:0:
236,173,66391,1,8,0:0:0:0:
230,228,66477,1,8,0:3:0:0:
225,283,66563,1,8,0:3:0:0:
220,338,66650,6,12,L|216:295,1,27.5,8|4,3:0|3:0,3:0:0:0:
296,361,66822,1,8,3:0:0:0:
372,293,66995,5,8,3:0:0:0:
367,283,67081,1,8,3:0:0:0:
362,272,67167,1,8,3:0:0:0:
419,221,67340,1,8,3:0:0:0:
349,185,67512,1,8,3:0:0:0:
349,185,67598,1,8,3:0:0:0:
349,185,67685,6,0,P|369:265|377:337,1,140.250002675057,4|0,0:0|0:0,0:0:0:0:
410,341,68030,1,8,0:0:0:0:
290,283,68202,1,0,0:0:0:0:
478,260,68374,1,2,0:0:0:0:
199,347,68547,5,0,0:0:0:0:
196,341,68604,1,0,0:0:0:0:
193,335,68661,1,0,0:0:0:0:
190,329,68719,1,8,0:0:0:0:
210,256,68891,1,0,0:0:0:0:
210,256,69236,6,0,P|145:235|101:208,1,93.500001783371,2|8,0:0|0:0,0:0:0:0:
92,151,69581,1,2,0:0:0:0:
381,38,69754,2,0,P|360:79|348:124,1,93.500001783371,2|0,0:0|0:0,0:0:0:0:
439,168,70099,1,8,0:0:0:0:
498,298,70271,6,0,B|377:267|427:353|293:330,1,187.000003566742,2|2,0:0|0:0,0:0:0:0:
91,301,70788,2,0,P|83:348|137:365,1,93.500001783371,8|0,0:0|0:0,0:0:0:0:
175,201,71133,1,2,0:0:0:0:
15,131,71305,5,0,0:0:0:0:
21,134,71363,1,0,0:0:0:0:
27,137,71420,1,0,0:0:0:0:
33,140,71478,1,8,0:0:0:0:
106,120,71650,1,0,0:0:0:0:
106,120,71995,5,2,0:0:0:0:
196,107,72167,1,10,0:0:0:0:
294,93,72340,1,2,0:0:0:0:
137,29,72512,5,2,0:0:0:0:
202,115,72685,1,2,0:0:0:0:
364,45,72857,1,10,0:0:0:0:
445,12,73030,6,0,P|422:84|410:179,1,140.250002675057,2|0,0:0|0:0,0:0:0:0:
493,230,73374,2,0,P|432:240|421:292,1,93.500001783371,2|10,0:0|0:0,0:0:0:0:
506,313,73719,1,0,0:0:0:0:
353,371,73892,2,0,L|221:359,1,93.500001783371,2|0,0:0|0:0,0:0:0:0:
255,357,74121,1,0,0:0:0:0:
250,352,74179,1,0,0:0:0:0:
245,347,74236,1,8,0:0:0:0:
281,278,74409,1,0,0:0:0:0:
281,278,74754,5,2,0:0:0:0:
273,77,74926,2,0,L|278:195,1,93.500001783371,8|0,0:0|0:0,0:0:0:0:
459,30,75271,2,0,P|419:65|356:75,1,93.500001783371,2|0,0:0|0:0,0:0:0:0:
221,18,75616,1,8,0:0:0:0:
27,101,75788,6,0,P|110:106|219:170,1,187.000003566742,2|2,0:0|0:0,0:0:0:0:
44,268,76305,1,8,0:0:0:0:
44,268,76478,2,0,P|108:259|146:212,1,93.500001783371,0|2,0:0|0:0,0:0:0:0:
261,298,76823,5,0,0:0:0:0:
266,295,76880,1,0,0:0:0:0:
269,289,76938,1,0,0:0:0:0:
270,283,76995,1,8,0:0:0:0:
316,220,77167,1,0,0:0:0:0:
316,220,77512,5,2,0:0:0:0:
194,33,77685,5,10,0:0:0:0:
200,79,77771,1,8,0:0:0:0:
207,125,77857,1,8,0:3:0:0:
214,171,77943,1,8,0:3:0:0:
235,148,78030,5,8,0:0:0:0:
236,120,78116,1,8,0:0:0:0:
238,92,78202,1,8,0:3:0:0:
240,64,78288,1,8,0:3:0:0:
200,79,78374,5,8,0:0:0:0:
315,111,78547,1,2,0:0:0:0:
463,22,78719,6,0,L|446:177,1,140.250002675057,4|0,0:0|0:0,0:0:0:0:
497,230,79064,2,0,P|437:252|422:283,1,93.500001783371,8|0,0:0|0:0,0:0:0:0:
266,355,79409,2,0,P|253:286|234:236,1,93.500001783371,2|0,0:0|0:0,0:0:0:0:
242,258,79639,1,0,0:0:0:0:
238,252,79696,1,0,0:0:0:0:
234,246,79754,1,8,0:0:0:0:
282,182,79926,1,0,0:0:0:0:
282,182,80271,5,2,0:0:0:0:
134,46,80443,2,0,P|157:102|166:164,1,93.500001783371,8|0,0:0|0:0,0:0:0:0:
161,143,80702,1,0,0:0:0:0:
157,151,80788,1,2,0:0:0:0:
244,77,80961,1,0,0:0:0:0:
39,38,81133,1,8,0:0:0:0:
226,201,81305,6,0,B|356:191|274:273|434:232,1,187.000003566742,2|2,0:0|0:0,0:0:0:0:
273,373,81823,2,0,P|259:302|258:265,1,93.500001783371,8|0,0:0|0:0,0:0:0:0:
369,161,82167,1,2,0:0:0:0:
225,53,82340,5,0,0:0:0:0:
229,48,82397,1,0,0:0:0:0:
233,43,82455,1,0,0:0:0:0:
237,38,82512,1,8,0:0:0:0:
164,6,82685,1,0,0:0:0:0:
164,6,83030,5,2,0:0:0:0:
179,126,83202,1,10,0:0:0:0:
143,248,83374,1,2,0:0:0:0:
27,158,83547,5,2,0:0:0:0:
176,133,83719,1,2,0:0:0:0:
27,158,83892,1,10,0:0:0:0:
140,256,84064,6,0,L|296:237,1,140.250002675057,2|0,0:0|0:0,0:0:0:0:
306,253,84409,1,2,0:0:0:0:
379,129,84581,1,8,0:0:0:0:
379,129,84754,1,0,0:0:0:0:
466,226,84926,2,0,L|450:340,1,93.500001783371,2|0,0:0|0:0,0:0:0:0:
452,324,85156,1,0,0:0:0:0:
451,330,85213,1,0,0:0:0:0:
449,336,85271,1,8,0:0:0:0:
376,357,85443,1,0,0:0:0:0:
376,357,85788,5,2,0:0:0:0:
407,173,85961,1,8,0:0:0:0:
407,173,86133,1,0,0:0:0:0:
188,272,86305,2,0,L|322:263,1,93.500001783371,2|0,0:0|0:0,0:0:0:0:
106,350,86650,1,8,0:0:0:0:
57,287,86823,1,0,0:0:0:0:
153,0,86995,5,8,0:0:0:0:
157,46,87081,1,8,0:0:0:0:
162,93,87167,1,4,0:3:0:0:
166,139,87253,1,4,0:3:0:0:
171,186,87339,1,8,0:0:0:0:
175,232,87426,1,8,0:0:0:0:
180,279,87512,1,4,0:3:0:0:
184,325,87598,1,4,0:3:0:0:
189,372,87684,1,12,0:3:0:0:
291,305,87857,5,8,3:0:0:0:
294,281,87943,1,8,3:0:0:0:
297,258,88029,1,8,3:0:0:0:
301,235,88115,1,8,3:0:0:0:
304,212,88202,2,8,L|296:139,1,46.7500008916855,8|8,3:0|3:0,3:0:0:0:
447,32,88374,5,12,3:0:0:0:
428,30,88460,1,12,3:0:0:0:
411,37,88546,1,12,3:0:0:0:
399,51,88632,1,12,3:0:0:0:
395,69,88719,2,12,P|399:102|408:132,1,46.7500008916855,12|12,3:0|3:0,3:0:0:0:
446,248,88892,2,12,P|451:225|453:201,1,46.7500008916855,12|12,3:0|3:0,3:0:0:0:
349,325,89064,5,12,3:0:0:0:
285,290,89150,1,12,3:0:0:0:
240,321,89236,1,12,3:0:0:0:
206,295,89323,1,12,3:0:0:0:
194,307,89409,1,4,0:0:0:0:
30,208,89667,1,0,0:0:0:0:
26,217,89754,5,4,0:0:0:0:
48,9,89926,2,0,L|38:116,1,82.5000031471254,2|0,0:0|0:0,0:0:0:0:
127,29,90271,1,2,0:0:0:0:
127,29,90443,2,0,L|117:136,1,82.5000031471254,8|0,0:0|0:0,0:0:0:0:
96,300,90788,1,2,0:0:0:0:
88,190,90961,1,0,0:0:0:0:
177,332,91133,5,0,0:0:0:0:
195,325,91305,1,0,0:0:0:0:
217,317,91478,1,0,0:0:0:0:
414,332,91650,2,0,L|304:323,1,82.5000031471254,2|8,0:0|0:0,0:0:0:0:
512,113,91995,1,0,0:0:0:0:
472,182,92167,2,0,P|453:241|447:289,1,82.5000031471254,8|0,0:0|0:0,0:0:0:0:
265,122,92512,5,0,0:0:0:0:
271,331,92685,2,0,L|267:222,1,82.5000031471254,2|0,0:0|0:0,0:0:0:0:
192,345,93030,1,2,0:0:0:0:
192,345,93202,2,0,L|188:236,1,82.5000031471254,10|0,0:0|0:0,0:0:0:0:
184,74,93547,1,2,0:0:0:0:
184,74,93719,1,0,0:0:0:0:
184,74,94064,5,2,0:0:0:0:
254,123,94236,1,2,0:0:0:0:
94,69,94409,1,2,0:0:0:0:
337,18,94581,5,10,0:0:0:0:
293,206,94754,1,0,0:0:0:0:
415,19,94926,5,10,0:0:0:0:
366,240,95099,1,0,0:0:0:0:
472,344,95271,6,0,P|418:320|378:309,1,82.5000031471254,4|2,0:0|0:0,0:0:0:0:
183,363,95616,1,0,0:0:0:0:
325,374,95788,1,2,0:0:0:0:
202,103,95961,2,0,P|224:164|236:210,1,82.5000031471254,8|0,0:0|0:0,0:0:0:0:
38,79,96305,2,0,P|77:66|115:52,1,82.5000031471254,2|0,0:0|0:0,0:0:0:0:
392,11,96650,5,0,0:0:0:0:
358,118,96823,1,8,0:0:0:0:
407,223,96995,2,0,P|392:261|380:300,1,82.5000031471254,2|0,0:0|0:0,0:0:0:0:
96,358,97340,2,0,P|124:313|177:309,1,82.5000031471254,10|0,0:0|0:0,0:0:0:0:
55,100,97685,1,10,0:0:0:0:
93,237,97857,1,0,0:0:0:0:
191,16,98030,6,0,P|178:78|169:167,1,123.750004720688
196,162,98374,1,2,0:0:0:0:
299,64,98547,1,0,0:0:0:0:
15,38,98719,2,0,L|103:45,1,82.5000031471254,10|0,0:0|0:0,0:0:0:0:
341,228,99064,1,2,0:0:0:0:
205,176,99236,1,0,0:0:0:0:
205,176,99581,5,10,0:0:0:0:
319,130,99754,1,2,0:0:0:0:
266,332,99926,1,2,0:0:0:0:
250,78,100099,5,10,0:0:0:0:
272,346,100271,1,0,0:0:0:0:
330,134,100443,1,10,0:0:0:0:
203,192,100616,1,0,0:0:0:0:
369,260,100788,5,4,0:0:0:0:
147,280,100961,2,0,L|240:272,1,82.5000031471254,2|0,0:0|0:0,0:0:0:0:
129,358,101305,1,2,0:0:0:0:
129,358,101478,2,0,L|222:350,1,82.5000031471254,8|0,0:0|0:0,0:0:0:0:
12,268,101823,2,0,P|49:302|52:337,1,82.5000031471254,2|0,0:0|0:0,0:0:0:0:
306,352,102167,5,0,0:0:0:0:
325,326,102340,1,8,0:0:0:0:
293,281,102512,1,0,0:0:0:0:
403,150,102685,2,0,P|395:215|391:260,1,82.5000031471254,2|8,0:0|0:0,0:0:0:0:
448,288,103030,1,2,0:0:0:0:
493,60,103202,2,0,P|428:52|383:48,1,82.5000031471254,8|0,0:0|0:0,0:0:0:0:
230,126,103547,5,0,0:0:0:0:
28,106,103719,2,0,L|123:115,1,82.5000031471254,2|0,0:0|0:0,0:0:0:0:
2,21,104064,1,2,0:0:0:0:
16,184,104236,2,0,L|111:193,1,82.5000031471254,10|0,0:0|0:0,0:0:0:0:
283,207,104581,1,2,0:0:0:0:
283,207,104754,1,0,0:0:0:0:
283,207,105099,5,10,0:0:0:0:
344,157,105271,1,2,0:0:0:0:
214,122,105443,1,2,0:0:0:0:
303,290,105616,5,10,0:0:0:0:
364,82,105788,1,0,0:0:0:0:
369,329,105961,5,10,0:0:0:0:
431,113,106133,1,0,0:0:0:0:
241,346,106305,5,4,0:0:0:0:
209,127,106478,2,0,L|225:234,1,82.5000031471254,2|0,0:0|0:0,0:0:0:0:
127,131,106823,1,2,0:0:0:0:
263,64,106995,1,8,0:0:0:0:
125,234,107167,1,0,0:0:0:0:
176,295,107340,1,0,0:0:0:0:
24,343,107512,2,0,P|99:347|139:359,1,82.5000031471254,2|0,0:0|0:0,0:0:0:0:
314,328,107857,6,0,P|320:287|319:246,1,82.5000031471254,10|0,0:0|0:0,0:0:0:0:
257,121,108202,1,2,0:0:0:0:
341,24,108374,1,8,0:0:0:0:
360,99,108547,1,2,0:0:0:0:
182,54,108719,1,8,0:0:0:0:
82,158,108892,6,0,L|96:269,1,82.5000031471254,2|0,0:0|0:0,0:0:0:0:
241,305,109236,1,2,0:0:0:0:
6,209,109409,1,0,0:0:0:0:
97,384,109581,2,0,P|148:369|158:321,1,82.5000031471254,2|8,0:0|0:0,0:0:0:0:
189,119,109926,2,0,L|175:230,1,82.5000031471254,2|0,0:0|0:0,0:0:0:0:
296,183,110271,1,0,0:0:0:0:
46,18,110443,5,0,0:0:0:0:
108,128,110616,1,2,0:0:0:0:
85,258,110788,1,2,0:0:0:0:
147,368,110961,1,2,0:0:0:0:
102,122,111133,5,10,0:0:0:0:
155,375,111305,1,0,0:0:0:0:
193,98,111478,1,10,0:0:0:0:
86,270,111650,1,0,0:0:0:0:
196,295,111823,6,0,B|309:274|309:274|355:299|355:299|364:292|364:292|527:263,1,330.000012588501,12|4,0:0|0:0,0:0:0:0:
316,89,113202,2,0,B|203:110|203:110|157:85|157:85|148:92|148:92|-15:121,1,330.000012588501,4|4,0:0|0:0,0:0:0:0:
253,384,114581,2,0,L|298:40,1,330.000012588501,4|4,0:0|0:0,0:0:0:0:
295,56,115961,5,8,0:0:0:0:
249,129,116133,1,8,0:0:0:0:
385,66,116305,1,8,0:0:0:0:
188,30,116478,1,8,0:0:0:0:
350,240,116650,5,12,0:3:0:0:
266,20,116823,1,12,0:3:0:0:
340,350,116995,1,8,0:3:0:0:
455,102,117167,1,8,0:3:0:0:
275,210,117340,6,0,L|4:190,1,220,6|8,0:0|0:0,0:0:0:0:
240,360,117857,1,2,0:0:0:0:
273,358,117943,1,0,0:0:0:0:
301,373,118030,2,0,P|327:304|333:239,1,110
173,88,118374,1,10,0:0:0:0:
411,19,118547,6,0,B|461:44|461:44|430:254,1,220
508,254,119064,1,8,0:0:0:0:
182,315,119236,2,0,P|222:260|281:208,1,110
319,318,119581,1,0,0:0:0:0:
96,139,119754,1,8,0:0:0:0:
114,379,119926,6,0,P|94:287|40:184,1,165,2|0,0:0|0:0,0:0:0:0:
0,129,120271,2,0,P|18:73|77:73,1,110,2|8,0:0|0:0,0:0:0:0:
294,3,120616,2,0,P|270:72|260:149,1,110,2|0,0:0|0:0,0:0:0:0:
368,147,120961,1,0,0:0:0:0:
177,24,121133,1,10,0:0:0:0:
292,323,121305,6,0,B|337:356|337:356|530:310,1,220,2|0,0:0|0:0,0:0:0:0:
512,129,121823,1,10,0:0:0:0:
461,185,121995,1,0,0:0:0:0:
339,26,122167,5,8,0:3:0:0:
471,202,122340,1,12,0:3:0:0:
512,0,122512,1,8,0:0:0:0:
377,216,122685,1,12,0:3:0:0:
246,22,122857,6,0,P|273:102|292:246,1,220,6|8,0:0|0:0,0:0:0:0:
41,303,123374,2,0,P|114:313|177:331,1,110,2|0,0:0|0:0,0:0:0:0:
291,235,123719,1,0,0:0:0:0:
77,73,123892,2,0,L|94:207,1,110,10|0,0:0|0:0,0:0:0:0:
334,97,124236,5,0,0:0:0:0:
346,87,124409,1,0,0:0:0:0:
205,36,124581,1,8,0:0:0:0:
313,204,124754,1,0,0:0:0:0:
305,17,124926,1,0,0:0:0:0:
233,328,125099,2,0,P|302:312|313:262,1,110,2|8,0:0|0:0,0:0:0:0:
66,161,125443,1,2,0:0:0:0:
195,24,125616,6,0,L|321:15,1,110
470,103,125961,1,8,0:0:0:0:
433,32,126133,1,0,0:0:0:0:
314,281,126305,2,0,L|338:363,1,55,2|0,0:0|0:0,0:0:0:0:
138,284,126478,1,2,0:0:0:0:
406,163,126650,1,8,0:0:0:0:
379,236,126823,1,2,0:0:0:0:
217,50,126995,5,8,0:0:0:0:
185,27,127081,1,8,0:0:0:0:
145,28,127167,1,8,0:0:0:0:
116,52,127253,1,8,0:0:0:0:
105,89,127339,1,8,0:3:0:0:
118,125,127426,1,8,0:3:0:0:
150,147,127512,2,0,L|255:130,1,55,8|8,0:3|0:3,0:0:0:0:
380,32,127685,5,8,0:3:0:0:
377,42,127771,1,12,0:3:0:0:
372,52,127857,2,8,L|377:97,1,27.5,8|12,0:3|0:3,0:3:0:0:
430,135,128030,1,8,0:3:0:0:
329,200,128202,1,8,0:3:0:0:
326,190,128288,1,8,0:3:0:0:
324,179,128374,6,0,B|298:198|298:198|318:403,1,220,6|8,0:0|0:0,0:0:0:0:
498,162,128892,2,0,P|442:103|406:95,1,110,2|0,0:0|0:0,0:0:0:0:
139,16,129236,1,0,0:0:0:0:
129,51,129323,1,0,0:0:0:0:
142,89,129409,2,0,L|264:78,1,110,10|0,0:0|0:0,0:0:0:0:
73,355,129754,5,0,0:0:0:0:
43,251,129926,1,0,0:0:0:0:
11,145,130099,1,8,0:0:0:0:
87,366,130271,2,0,L|225:347,1,110
443,219,130616,1,0,0:0:0:0:
210,166,130788,1,8,0:0:0:0:
475,378,130961,6,0,P|489:291|523:230,1,110,2|0,0:0|0:0,0:0:0:0:
373,11,131305,1,2,0:0:0:0:
210,166,131478,1,8,0:0:0:0:
493,20,131650,2,0,P|475:71|470:126,1,110,2|0,0:0|0:0,0:0:0:0:
285,312,131995,1,0,0:0:0:0:
230,304,132081,1,0,0:0:0:0:
175,297,132167,1,10,0:0:0:0:
75,160,132340,1,2,0:0:0:0:
85,158,132426,1,0,0:0:0:0:
96,156,132512,5,0,0:0:0:0:
48,265,132685,1,0,0:0:0:0:
6,68,132857,1,10,0:0:0:0:
6,68,133030,1,0,0:0:0:0:
189,181,133202,2,0,P|254:159|319:103,1,110,2|0,0:0|0:0,0:0:0:0:
324,66,133461,1,0,0:0:0:0:
382,113,133547,2,0,L|393:236,1,110,10|0,0:0|0:0,0:0:0:0:
214,367,133892,6,0,P|135:348|80:218,1,220,6|8,0:0|0:0,0:0:0:0:
306,384,134409,2,0,P|322:311|351:249,1,110,2|0,0:0|0:0,0:0:0:0:
510,84,134754,1,0,0:0:0:0:
502,91,134840,1,0,0:0:0:0:
495,99,134926,2,0,P|475:150|465:204,1,110,10|0,0:0|0:0,0:0:0:0:
202,91,135271,5,0,0:0:0:0:
213,78,135443,1,0,0:0:0:0:
259,161,135616,1,8,0:0:0:0:
126,60,135788,1,0,0:0:0:0:
350,22,135961,1,0,0:0:0:0:
144,191,136133,1,0,0:0:0:0:
485,231,136305,1,8,0:0:0:0:
389,186,136478,1,0,0:0:0:0:
235,342,136650,6,0,B|115:303|115:303|66:351,1,165
8,362,136995,2,0,L|30:207,1,110,8|0,0:0|0:0,0:0:0:0:
15,13,137340,2,0,P|65:73|123:64,1,110,2|0,0:0|0:0,0:0:0:0:
156,32,137599,1,0,0:0:0:0:
167,40,137685,2,0,L|252:31,1,55,8|0,0:0|0:0,0:0:0:0:
418,9,137857,1,2,0:0:0:0:
506,122,138030,6,0,L|502:148,5,18.3333333333333,8|0|0|0|0|0,0:0|0:0|0:0|0:0|0:0|0:0,0:0:0:0:
430,175,138374,6,8,L|438:215,5,27.5000010490418,8|8|8|8|8|8,0:3|0:3|0:3|0:3|0:3|0:3,0:3:0:0:
496,252,138719,5,8,0:3:0:0:
491,273,138776,1,12,0:3:0:0:
486,294,138834,1,8,0:3:0:0:
481,316,138891,1,12,0:3:0:0:
476,337,138948,1,8,0:3:0:0:
471,359,139006,1,12,0:3:0:0:
444,371,139064,6,0,L|394:359,1,44,12|0,0:3|0:0,0:0:0:0:
128,365,139409,6,0,L|107:177,1,165,4|0,0:0|0:0,0:0:0:0:
80,178,139754,1,8,0:0:0:0:
293,16,139926,1,2,0:0:0:0:
292,26,140012,1,0,0:0:0:0:
290,36,140099,2,0,L|269:169,1,110
244,306,140443,1,10,0:0:0:0:
434,242,140616,1,0,0:0:0:0:
440,233,140702,1,0,0:0:0:0:
441,222,140788,6,0,P|371:227|334:275,1,110
400,357,141133,1,8,0:0:0:0:
459,98,141305,1,2,0:0:0:0:
455,87,141392,1,0,0:0:0:0:
450,77,141478,1,0,0:0:0:0:
299,33,141650,1,2,0:0:0:0:
477,180,141823,1,10,0:0:0:0:
380,0,141995,1,0,0:0:0:0:
233,132,142167,5,0,0:0:0:0:
233,132,142340,2,0,P|258:204|275:273,1,110,2|8,0:0|0:0,0:0:0:0:
100,322,142685,1,0,0:0:0:0:
97,311,142771,1,0,0:0:0:0:
95,300,142857,2,0,P|79:247|61:195,1,110,2|0,0:0|0:0,0:0:0:0:
121,43,143202,1,10,0:0:0:0:
156,0,143288,1,8,0:0:0:0:
184,31,143374,1,8,0:3:0:0:
196,18,143461,1,12,0:3:0:0:
212,25,143547,5,0,0:0:0:0:
491,66,143719,1,0,0:0:0:0:
485,75,143805,1,0,0:0:0:0:
479,84,143892,2,0,P|467:166|465:218,1,110,8|2,0:0|0:0,0:0:0:0:
511,354,144236,1,2,0:0:0:0:
384,169,144409,1,2,0:0:0:0:
510,266,144581,1,10,0:0:0:0:
279,348,144754,1,0,0:0:0:0:
279,348,144840,1,0,0:0:0:0:
279,348,144926,6,0,L|96:315,1,165,4|0,0:0|0:0,0:0:0:0:
91,333,145271,1,8,0:0:0:0:
41,131,145443,1,2,0:0:0:0:
46,121,145530,1,0,0:0:0:0:
52,111,145616,2,0,L|33:228,1,110
135,40,145961,1,10,0:0:0:0:
11,40,146133,1,0,0:0:0:0:
206,196,146305,5,0,0:0:0:0:
149,323,146478,2,0,L|263:300,1,110,0|8,0:0|0:0,0:0:0:0:
452,335,146823,1,2,0:0:0:0:
457,325,146909,1,0,0:0:0:0:
462,315,146995,1,2,0:0:0:0:
335,138,147167,1,2,0:0:0:0:
346,384,147340,2,0,P|357:311|354:244,1,110,10|0,0:0|0:0,0:0:0:0:
283,47,147685,5,8,0:0:0:0:
32,104,147857,1,2,0:0:0:0:
32,104,147943,1,0,0:0:0:0:
32,104,148030,1,0,0:0:0:0:
335,104,148202,5,8,0:0:0:0:
5,29,148374,1,2,0:0:0:0:
272,160,148547,1,0,0:0:0:0:
32,104,148719,5,10,0:0:0:0:
207,212,148892,1,2,0:0:0:0:
12,319,149064,5,8,3:3:0:0:
48,307,149150,1,8,3:3:0:0:
84,305,149236,1,4,3:0:0:0:
117,322,149322,1,12,3:0:0:0:
154,310,149408,1,12,3:0:0:0:
324,348,149581,5,8,0:3:0:0:
330,338,149667,1,8,0:3:0:0:
337,329,149754,1,8,0:3:0:0:
253,180,149926,1,12,0:3:0:0:
260,189,150013,1,12,0:3:0:0:
266,199,150099,1,12,0:3:0:0:
313,98,150271,1,8,0:0:0:0:
126,21,150443,6,0,B|169:38|169:38|181:180,1,165,4|0,0:0|0:0,0:0:0:0:
158,177,150788,1,8,0:0:0:0:
303,25,150961,1,2,0:0:0:0:
308,34,151047,1,0,0:0:0:0:
312,43,151133,2,0,P|329:122|329:181,1,110
266,285,151478,1,10,0:0:0:0:
411,125,151650,1,0,0:0:0:0:
410,114,151736,1,0,0:0:0:0:
407,103,151823,5,0,0:0:0:0:
467,195,151995,1,0,0:0:0:0:
330,364,152167,1,8,0:0:0:0:
389,256,152340,1,2,0:0:0:0:
389,256,152426,1,0,0:0:0:0:
389,256,152512,1,2,0:0:0:0:
481,362,152685,1,2,0:0:0:0:
187,230,152857,2,0,L|322:221,1,110,10|0,0:0|0:0,0:0:0:0:
71,346,153202,5,0,0:0:0:0:
71,346,153374,2,0,P|44:267|33:208,1,110,2|8,0:0|0:0,0:0:0:0:
313,105,153719,1,0,0:0:0:0:
211,18,153892,2,0,P|197:71|178:122,1,110,2|0,0:0|0:0,0:0:0:0:
272,316,154236,1,10,0:0:0:0:
318,294,154323,1,8,0:3:0:0:
387,319,154409,1,4,0:3:0:0:
392,309,154495,1,12,0:3:0:0:
413,294,154581,6,0,P|396:229|353:186,1,110
359,191,154840,1,0,0:0:0:0:
349,184,154926,1,8,0:0:0:0:
486,35,155099,1,2,0:0:0:0:
481,45,155185,1,0,0:0:0:0:
476,55,155271,1,2,0:0:0:0:
512,246,155443,1,2,0:0:0:0:
348,53,155616,2,0,L|200:42,1,110,10|0,0:0|0:0,0:0:0:0:
129,89,155874,1,0,0:0:0:0:
138,94,155961,6,0,B|106:122|106:122|126:271,1,165,4|0,0:0|0:0,0:0:0:0:
100,271,156305,1,8,0:0:0:0:
251,339,156478,1,2,0:0:0:0:
259,345,156564,1,0,0:0:0:0:
265,353,156650,2,0,P|351:341|416:336,1,110
507,270,156995,1,10,0:0:0:0:
362,356,157167,1,0,0:0:0:0:
331,135,157340,5,0,0:0:0:0:
391,226,157512,1,0,0:0:0:0:
182,64,157685,2,0,P|246:67|263:120,1,110,8|2,0:0|0:0,0:0:0:0:
201,183,157943,1,0,0:0:0:0:
206,192,158030,1,2,0:0:0:0:
102,25,158202,1,2,0:0:0:0:
8,207,158374,2,0,P|80:214|138:237,1,110,10|0,0:0|0:0,0:0:0:0:
122,234,158633,1,0,0:0:0:0:
128,242,158719,5,8,0:0:0:0:
253,290,158892,1,2,0:0:0:0:
260,282,158978,1,0,0:0:0:0:
261,271,159064,1,0,0:0:0:0:
142,333,159236,5,8,0:0:0:0:
343,297,159409,1,2,0:0:0:0:
370,293,159495,1,0,0:0:0:0:
398,288,159581,1,0,0:0:0:0:
432,81,159754,2,0,L|412:203,1,110,10|2,0:0|0:0,0:0:0:0:
191,68,160099,5,8,0:0:0:0:
153,70,160185,1,8,0:0:0:0:
129,98,160271,1,8,0:3:0:0:
134,135,160357,1,8,0:3:0:0:
164,157,160443,1,8,3:3:0:0:
174,151,160530,1,12,3:3:0:0:
174,140,160616,1,8,3:3:0:0:
73,234,160788,5,8,3:0:0:0:
73,245,160874,1,8,3:0:0:0:
83,252,160961,1,8,3:0:0:0:
165,283,161133,1,12,3:3:0:0:
21,349,161305,1,12,3:0:0:0:
21,349,161392,1,12,3:0:0:0:
21,349,161478,6,0,L|190:320,1,140.250002675057,4|0,0:0|0:0,0:0:0:0:
177,349,161823,1,8,0:0:0:0:
247,155,161995,1,0,0:0:0:0:
273,360,162167,2,0,P|251:303|243:239,1,93.500001783371,2|0,0:0|0:0,0:0:0:0:
246,265,162397,1,0,0:0:0:0:
249,259,162455,1,0,0:0:0:0:
252,254,162512,1,8,0:0:0:0:
325,220,162685,1,0,0:0:0:0:
325,220,163030,5,2,0:0:0:0:
310,17,163202,2,0,L|318:127,1,93.500001783371,8|2,0:0|0:0,0:0:0:0:
470,243,163547,2,0,P|460:196|392:178,1,93.500001783371,2|0,0:0|0:0,0:0:0:0:
163,303,163892,1,8,0:0:0:0:
23,218,164064,6,0,L|228:197,1,187.000003566742,2|2,0:0|0:0,0:0:0:0:
270,258,164581,1,8,0:0:0:0:
125,97,164754,1,0,0:0:0:0:
116,232,164926,1,2,0:0:0:0:
261,100,165099,5,0,0:0:0:0:
267,98,165156,1,0,0:0:0:0:
273,96,165213,1,0,0:0:0:0:
279,94,165271,1,8,0:0:0:0:
349,128,165443,1,0,0:0:0:0:
349,128,165788,5,2,0:0:0:0:
203,82,165961,1,10,0:0:0:0:
395,39,166133,1,2,0:0:0:0:
313,226,166305,5,2,0:0:0:0:
268,20,166478,1,2,0:0:0:0:
371,276,166650,1,10,0:0:0:0:
283,211,166823,1,2,0:0:0:0:
495,70,166995,5,0,0:0:0:0:
395,39,167167,2,0,P|418:81|425:168,1,93.500001783371,2|10,0:0|0:0,0:0:0:0:
408,279,167512,2,0,P|394:325|337:391,1,93.500001783371,0|2,0:0|0:0,0:0:0:0:
153,309,167857,5,0,0:0:0:0:
148,304,167915,1,0,0:0:0:0:
143,299,167972,1,0,0:0:0:0:
137,296,168030,1,8,0:0:0:0:
65,326,168202,1,0,0:0:0:0:
65,326,168547,5,2,0:0:0:0:
218,262,168719,1,8,0:0:0:0:
85,241,168892,1,0,0:0:0:0:
258,353,169064,2,0,L|380:338,1,93.500001783371,2|0,0:0|0:0,0:0:0:0:
481,88,169409,1,8,0:0:0:0:
512,352,169581,6,0,L|500:259,1,93.500001783371,2|0,0:0|0:0,0:0:0:0:
406,52,169926,1,2,0:0:0:0:
480,186,170099,1,8,0:0:0:0:
296,253,170271,2,0,P|235:237|180:208,1,93.500001783371,0|2,0:0|0:0,0:0:0:0:
101,93,170616,5,0,0:0:0:0:
103,87,170673,1,0,0:0:0:0:
106,82,170731,1,0,0:0:0:0:
109,76,170788,1,8,0:0:0:0:
180,41,170961,1,0,0:0:0:0:
180,41,171305,5,2,0:0:0:0:
331,98,171478,5,10,0:0:0:0:
324,143,171564,1,8,0:0:0:0:
295,179,171650,1,8,0:3:0:0:
252,196,171736,1,8,0:3:0:0:
224,142,171823,5,8,0:0:0:0:
255,134,171909,1,8,0:0:0:0:
283,149,171995,1,8,0:3:0:0:
295,179,172081,1,8,0:3:0:0:
285,209,172167,1,8,0:0:0:0:
402,161,172340,1,2,0:0:0:0:
470,263,172512,5,4,0:0:0:0:
437,69,172685,1,0,0:0:0:0:
480,138,172857,1,8,0:0:0:0:
372,333,173030,2,0,L|251:315,1,93.500001783371,0|2,0:0|0:0,0:0:0:0:
140,347,173374,5,0,0:0:0:0:
135,342,173432,1,0,0:0:0:0:
130,338,173489,1,0,0:0:0:0:
125,334,173547,1,8,0:0:0:0:
48,351,173719,1,0,0:0:0:0:
23,184,173892,5,0,0:0:0:0:
169,168,174064,2,0,L|156:280,1,93.500001783371,2|8,0:0|0:0,0:0:0:0:
69,72,174409,1,0,0:0:0:0:
67,62,174495,1,0,0:0:0:0:
63,53,174581,2,0,L|155:42,1,93.500001783371,2|0,0:0|0:0,0:0:0:0:
328,10,174926,1,8,0:0:0:0:
261,181,175099,1,2,0:0:0:0:
219,0,175271,5,0,0:0:0:0:
271,192,175443,1,2,0:0:0:0:
331,135,175616,1,8,0:0:0:0:
458,326,175788,2,0,P|402:297|349:321,1,93.500001783371,0|2,0:0|0:0,0:0:0:0:
182,355,176133,5,0,0:0:0:0:
176,352,176190,1,0,0:0:0:0:
170,349,176248,1,0,0:0:0:0:
164,346,176305,1,8,0:0:0:0:
123,284,176478,1,0,0:0:0:0:
11,358,176650,5,0,0:0:0:0:
11,358,176823,2,0,P|26:302|31:240,1,93.500001783371,2|10,0:0|0:0,0:0:0:0:
17,16,177167,1,2,0:0:0:0:
16,186,177340,1,2,0:0:0:0:
104,2,177512,1,2,0:0:0:0:
131,237,177685,1,10,0:0:0:0:
1,104,177857,6,0,L|129:86,1,93.500001783371,2|0,0:0|0:0,0:0:0:0:
299,154,178202,1,2,0:0:0:0:
196,54,178374,1,8,0:0:0:0:
264,297,178547,1,0,0:0:0:0:
311,61,178719,2,0,P|299:137|299:181,1,93.500001783371,2|0,0:0|0:0,0:0:0:0:
299,159,178949,1,0,0:0:0:0:
300,165,179007,1,0,0:0:0:0:
301,170,179064,1,8,0:0:0:0:
366,212,179236,1,0,0:0:0:0:
366,212,179581,5,2,0:0:0:0:
205,308,179754,2,0,L|86:295,1,93.500001783371,8|0,0:0|0:0,0:0:0:0:
309,375,180099,2,0,P|326:324|381:323,1,93.500001783371,2|0,0:0|0:0,0:0:0:0:
126,163,180443,1,8,0:0:0:0:
205,308,180616,1,0,0:0:0:0:
398,147,180788,5,8,0:0:0:0:
351,142,180874,1,8,0:0:0:0:
305,147,180960,1,4,0:3:0:0:
263,168,181046,1,4,0:3:0:0:
229,199,181132,1,8,0:0:0:0:
192,228,181219,1,8,0:0:0:0:
148,243,181305,1,4,0:3:0:0:
101,246,181391,1,4,0:3:0:0:
55,241,181477,1,12,0:3:0:0:
52,105,181650,5,8,3:0:0:0:
31,87,181736,1,8,3:0:0:0:
23,60,181822,1,8,3:0:0:0:
33,34,181908,1,8,3:0:0:0:
55,18,181994,1,8,3:0:0:0:
83,18,182081,1,8,3:0:0:0:
106,34,182167,1,12,3:0:0:0:
123,57,182254,1,12,3:0:0:0:
142,83,182340,1,12,3:0:0:0:
173,91,182426,1,12,3:0:0:0:
201,77,182512,1,12,3:0:0:0:
214,48,182598,1,12,3:0:0:0:
204,17,182685,2,12,P|176:11|151:11,1,46.7500008916855,12|12,3:0|3:0,3:0:0:0:
47,176,182857,5,12,3:0:0:0:
81,227,182943,1,12,3:0:0:0:
118,192,183030,1,12,3:0:0:0:
153,220,183116,1,12,3:0:0:0:
169,199,183202,1,4,0:0:0:0:
452,92,183461,1,0,0:0:0:0:
447,102,183547,5,4,0:0:0:0:
421,316,183719,2,0,L|435:202,1,82.5000031471254,2|0,0:0|0:0,0:0:0:0:
342,323,184064,1,2,0:0:0:0:
342,323,184236,2,0,L|356:209,1,82.5000031471254,8|0,0:0|0:0,0:0:0:0:
299,64,184581,1,2,0:0:0:0:
346,158,184754,1,0,0:0:0:0:
206,99,184926,5,0,0:0:0:0:
185,117,185099,1,8,0:0:0:0:
261,137,185271,1,0,0:0:0:0:
138,18,185443,1,2,0:0:0:0:
197,206,185616,1,8,0:0:0:0:
256,42,185788,1,0,0:0:0:0:
81,216,185961,1,0,0:0:0:0:
238,290,186133,6,0,P|300:269|345:261,1,82.5000031471254
428,47,186478,2,0,L|435:130,1,82.5000031471254,2|0,0:0|0:0,0:0:0:0:
350,51,186823,1,2,0:0:0:0:
350,51,186995,2,0,L|356:133,1,82.5000031471254,10|0,0:0|0:0,0:0:0:0:
204,235,187340,1,2,0:0:0:0:
90,197,187512,1,0,0:0:0:0:
90,197,187857,5,10,0:0:0:0:
204,235,188030,1,2,0:0:0:0:
321,275,188202,1,2,0:0:0:0:
93,209,188374,5,10,0:0:0:0:
327,288,188547,1,0,0:0:0:0:
146,302,188719,5,2,0:0:0:0:
438,240,188892,1,0,0:0:0:0:
311,162,189064,5,4,0:0:0:0:
491,128,189236,2,0,L|386:149,1,82.5000031471254,2|0,0:0|0:0,0:0:0:0:
486,52,189581,1,2,0:0:0:0:
486,52,189754,2,0,L|381:73,1,82.5000031471254,8|0,0:0|0:0,0:0:0:0:
166,25,190099,2,0,P|223:52|226:87,1,82.5000031471254,2|0,0:0|0:0,0:0:0:0:
153,227,190443,5,0,0:0:0:0:
74,207,190616,1,8,0:0:0:0:
56,127,190788,1,2,0:0:0:0:
188,299,190961,1,0,0:0:0:0:
257,193,191133,1,10,0:0:0:0:
378,341,191305,1,0,0:0:0:0:
474,172,191478,1,2,0:0:0:0:
406,215,191650,1,0,0:0:0:0:
406,215,191823,6,0,P|384:152|377:93,1,123.750004720688
400,73,192167,1,2,0:0:0:0:
199,41,192340,2,0,P|247:80|263:122,1,82.5000031471254,0|10,0:0|0:0,0:0:0:0:
153,316,192685,2,0,P|163:255|191:220,1,82.5000031471254,0|2,0:0|0:0,0:0:0:0:
36,128,193030,6,0,B|131:107|104:178|212:149,1,165.000006294251,0|10,0:0|0:0,0:0:0:0:
362,53,193547,1,2,0:0:0:0:
372,227,193719,1,2,0:0:0:0:
193,153,193892,5,10,0:0:0:0:
233,148,193978,1,8,0:0:0:0:
274,143,194064,1,8,0:3:0:0:
315,138,194150,1,8,0:3:0:0:
356,133,194236,5,2,0:0:0:0:
342,148,194322,1,8,0:3:0:0:
328,163,194408,1,8,3:0:0:0:
314,178,194494,1,12,3:0:0:0:
274,143,194580,5,4,0:0:0:0:
297,347,194754,2,0,L|284:228,1,82.5000031471254,2|0,0:0|0:0,0:0:0:0:
214,346,195099,1,2,0:0:0:0:
214,346,195271,2,0,L|201:227,1,82.5000031471254,8|0,0:0|0:0,0:0:0:0:
43,279,195616,1,2,0:0:0:0:
133,287,195788,1,0,0:0:0:0:
133,287,196133,5,8,0:0:0:0:
43,163,196305,1,0,0:0:0:0:
43,279,196478,1,2,0:0:0:0:
150,191,196650,5,8,0:0:0:0:
235,125,196823,1,2,0:0:0:0:
346,139,196995,1,0,0:0:0:0:
115,30,197167,6,0,P|135:86|149:212,1,165.000006294251,0|2,0:0|0:0,0:0:0:0:
322,281,197685,2,0,P|264:251|221:232,1,82.5000031471254,0|2,0:0|0:0,0:0:0:0:
398,120,198030,2,0,L|389:210,1,82.5000031471254,10|0,0:0|0:0,0:0:0:0:
478,103,198374,2,0,L|469:193,1,82.5000031471254,2|0,0:0|0:0,0:0:0:0:
469,185,198892,5,10,0:0:0:0:
440,68,199064,1,2,0:0:0:0:
323,97,199236,1,2,0:0:0:0:
352,213,199409,1,10,0:0:0:0:
469,185,199581,1,0,0:0:0:0:
323,97,199754,5,2,0:0:0:0:
283,325,199926,1,0,0:0:0:0:
139,173,200099,5,4,0:0:0:0:
117,0,200271,2,0,L|129:95,1,82.5000031471254,2|0,0:0|0:0,0:0:0:0:
200,18,200616,1,2,0:0:0:0:
200,18,200788,2,0,L|212:113,1,82.5000031471254,8|0,0:0|0:0,0:0:0:0:
357,231,201133,2,0,P|325:174|282:170,1,82.5000031471254,0|2,0:0|0:0,0:0:0:0:
118,322,201478,5,0,0:0:0:0:
118,322,201650,1,10,0:0:0:0:
197,270,201823,1,0,0:0:0:0:
291,298,201995,1,2,0:0:0:0:
83,257,202167,5,8,0:0:0:0:
234,349,202340,1,2,0:0:0:0:
166,190,202512,1,0,0:0:0:0:
227,364,202685,1,2,0:0:0:0:
227,364,203030,6,0,P|251:318|298:305,1,82.5000031471254,2|0,0:0|0:0,0:0:0:0:
352,319,203374,1,2,0:0:0:0:
384,98,203547,2,0,L|370:198,1,82.5000031471254,8|2,0:0|0:0,0:0:0:0:
310,68,203892,2,0,L|296:168,1,82.5000031471254
142,255,204236,5,8,0:0:0:0:
103,268,204322,1,8,0:0:0:0:
66,254,204408,1,8,0:3:0:0:
46,218,204494,1,8,0:3:0:0:
70,188,204581,5,8,3:0:0:0:
84,164,204667,1,4,3:0:0:0:
74,138,204754,1,8,3:0:0:0:
47,130,204839,1,12,3:0:0:0:
55,165,204926,5,8,3:0:0:0:
74,138,205012,1,8,3:0:0:0:
84,164,205098,1,12,3:0:0:0:
98,150,205184,1,12,3:0:0:0:
108,156,205271,5,10,0:0:0:0:
261,102,205443,1,0,0:0:0:0:
257,94,205530,1,0,0:0:0:0:
253,86,205616,6,0,B|366:67|366:67|379:57|379:57|494:38|494:38|457:137,1,330.000012588501,12|4,0:0|0:0,0:0:0:0:
259,298,206995,2,0,B|146:317|146:317|133:327|133:327|18:346|18:346|55:247,1,330.000012588501,4|4,0:0|0:0,0:0:0:0:
308,15,208374,2,0,L|257:363,1,330.000012588501,4|4,0:0|0:0,0:0:0:0:
42,89,209754,5,8,0:0:0:0:
168,57,209926,1,8,0:0:0:0:
295,91,210098,1,8,0:0:0:0:
389,181,210271,1,8,0:0:0:0:
319,320,210443,5,12,0:3:0:0:
295,91,210616,1,12,0:3:0:0:
385,363,210788,1,8,0:3:0:0:
156,193,210961,1,8,0:3:0:0:
235,209,211133,5,4,0:0:0:0:
256,192,222167,12,0,230185,0:0:0:0:
327,299,230271,5,0,0:0:0:0:
354,344,230357,1,8,1:3:0:0:
406,358,230443,1,8,0:0:0:0:
453,332,230529,1,8,0:0:0:0:
466,284,230615,1,8,0:3:0:0:
444,233,230702,1,8,0:3:0:0:
393,216,230788,5,8,3:0:0:0:
366,220,230874,1,8,3:0:0:0:
339,225,230960,1,12,3:0:0:0:
311,229,231046,1,12,3:0:0:0:
284,270,231133,5,8,0:3:0:0:
256,274,231219,1,8,0:3:0:0:
229,278,231305,1,12,0:3:0:0:
202,283,231391,1,12,0:3:0:0:
176,321,231478,5,12,3:0:0:0:
163,315,231564,1,12,3:0:0:0:
87,331,231650,5,8,0:0:0:0:
55,274,231736,1,8,0:0:0:0:
61,209,231822,1,8,0:0:0:0:
102,159,231908,1,8,0:0:0:0:
164,140,231994,1,8,0:0:0:0:
226,160,232081,1,8,0:0:0:0:
291,139,232167,5,8,1:3:0:0:
316,132,232253,1,8,1:3:0:0:
329,108,232339,1,12,0:3:0:0:
322,83,232425,1,12,0:3:0:0:
282,63,232512,5,12,3:0:0:0:
286,101,232598,1,8,3:0:0:0:
291,139,232684,1,12,3:0:0:0:
296,177,232770,1,8,3:0:0:0:
339,203,232857,5,12,0:0:0:0:
275,243,232943,1,4,3:0:0:0:
318,273,233030,1,8,0:3:0:0:
300,303,233116,1,4,3:0:0:0:
320,322,233202,6,0,L|341:67,1,220,6|8,0:0|0:0,0:0:0:0:
142,23,233719,1,2,0:0:0:0:
127,52,233805,1,0,0:0:0:0:
137,83,233892,2,0,P|206:85|256:51,1,110
460,28,234236,1,10,0:0:0:0:
381,227,234409,6,0,B|251:202|307:297|171:278,1,220
3,109,234926,1,8,0:0:0:0:
91,36,235099,2,0,L|76:184,1,110
52,369,235443,1,0,0:0:0:0:
72,155,235616,1,8,0:0:0:0:
206,316,235788,6,0,P|312:261|396:240,1,165,2|0,0:0|0:0,0:0:0:0:
494,355,236133,2,0,L|511:222,1,110,2|8,0:0|0:0,0:0:0:0:
383,17,236478,2,0,L|396:126,1,110,2|0,0:0|0:0,0:0:0:0:
355,247,236823,1,0,0:0:0:0:
240,10,236995,1,10,0:0:0:0:
34,158,237167,6,0,B|102:147|102:147|168:163|168:163|277:146,1,220,2|0,0:0|0:0,0:0:0:0:
70,348,237685,2,0,P|31:298|49:242,1,110,10|0,0:0|0:0,0:0:0:0:
198,32,238030,5,8,0:3:0:0:
111,278,238202,1,12,0:3:0:0:
116,65,238374,1,8,0:0:0:0:
178,328,238547,1,12,0:3:0:0:
477,187,238719,6,0,B|441:142|441:142|259:174,1,220,6|8,0:0|0:0,0:0:0:0:
375,367,239236,2,0,P|400:310|411:219,1,110,2|0,0:0|0:0,0:0:0:0:
268,51,239581,1,0,0:0:0:0:
140,272,239754,2,0,L|286:248,1,110,10|0,0:0|0:0,0:0:0:0:
13,113,240099,5,0,0:0:0:0:
32,224,240271,1,0,0:0:0:0:
108,94,240443,1,8,0:0:0:0:
0,265,240616,1,0,0:0:0:0:
143,355,240788,1,0,0:0:0:0:
400,188,240961,2,0,L|380:306,1,110,2|8,0:0|0:0,0:0:0:0:
463,68,241305,6,0,P|372:66|295:180,1,220,2|0,0:0|0:0,0:0:0:0:
80,356,241823,2,0,B|54:309|54:309|81:229,1,110,8|0,0:0|0:0,0:0:0:0:
169,29,242167,1,2,0:0:0:0:
221,329,242340,1,2,0:0:0:0:
15,156,242512,1,8,0:0:0:0:
295,96,242685,1,2,0:0:0:0:
451,271,242857,5,8,0:0:0:0:
407,277,242943,1,8,0:0:0:0:
363,278,243029,1,8,0:0:0:0:
320,271,243115,1,8,0:0:0:0:
280,252,243201,1,8,0:3:0:0:
247,223,243288,1,8,0:3:0:0:
211,198,243374,1,8,0:3:0:0:
169,186,243460,1,8,0:3:0:0:
125,185,243547,5,8,0:3:0:0:
131,200,243633,1,12,0:3:0:0:
136,215,243719,2,8,L|128:294,1,55,8|0,0:3|0:0,0:3:0:0:
120,370,243892,1,8,0:3:0:0:
24,179,244064,1,8,0:3:0:0:
30,169,244150,1,8,0:3:0:0:
36,159,244236,6,0,L|280:145,1,220,6|8,0:0|0:0,0:0:0:0:
465,26,244754,2,0,B|486:78|486:78|461:148,1,110,2|0,0:0|0:0,0:0:0:0:
279,360,245099,1,0,0:0:0:0:
306,356,245185,1,0,0:0:0:0:
333,353,245271,2,0,L|348:231,1,110,10|0,0:0|0:0,0:0:0:0:
259,41,245616,5,0,0:0:0:0:
428,231,245788,1,0,0:0:0:0:
468,62,245961,1,8,0:0:0:0:
219,280,246133,2,0,P|152:307|89:342,1,110
19,130,246478,1,0,0:0:0:0:
192,373,246650,1,8,0:0:0:0:
81,45,246823,6,0,P|108:112|143:175,1,110,2|0,0:0|0:0,0:0:0:0:
368,195,247167,1,2,0:0:0:0:
198,179,247340,1,8,0:0:0:0:
493,41,247512,2,0,P|460:106|431:171,1,110,2|0,0:0|0:0,0:0:0:0:
300,329,247857,1,0,0:0:0:0:
264,313,247943,1,0,0:0:0:0:
225,317,248030,1,10,0:0:0:0:
42,251,248202,1,2,0:0:0:0:
20,324,248374,6,0,B|58:290|58:290|244:319,1,220,0|10,0:0|0:0,0:0:0:0:
317,133,248892,1,0,0:0:0:0:
328,367,249064,2,0,P|301:288|283:217,1,110,2|0,0:0|0:0,0:0:0:0:
242,203,249323,1,0,0:0:0:0:
167,174,249409,2,0,P|194:95|212:24,1,110,10|0,0:0|0:0,0:0:0:0:
488,108,249754,6,0,B|350:94|405:193|256:152,1,220,6|8,0:0|0:0,0:0:0:0:
398,270,250271,2,0,P|450:245|432:185,1,110,2|0,0:0|0:0,0:0:0:0:
198,12,250616,1,0,0:0:0:0:
187,16,250702,1,0,0:0:0:0:
177,22,250788,2,0,P|194:89|203:168,1,110,10|0,0:0|0:0,0:0:0:0:
137,284,251133,5,0,0:0:0:0:
31,235,251305,1,0,0:0:0:0:
283,312,251478,1,8,0:0:0:0:
78,361,251650,1,0,0:0:0:0:
243,159,251823,1,0,0:0:0:0:
207,354,251995,1,0,0:0:0:0:
207,354,252081,1,0,0:0:0:0:
207,354,252167,1,8,0:0:0:0:
141,87,252340,1,0,0:0:0:0:
406,18,252512,6,0,P|376:92|343:207,1,165
430,318,252857,2,0,P|369:294|394:233,1,110,8|0,0:0|0:0,0:0:0:0:
158,343,253202,2,0,L|19:321,1,110,2|0,0:0|0:0,0:0:0:0:
15,246,253461,1,0,0:0:0:0:
25,245,253547,2,0,L|103:236,1,55,8|0,0:0|0:0,0:0:0:0:
276,346,253719,1,2,0:0:0:0:
417,231,253892,6,0,L|448:227,5,18.3333333333333,8|0|0|0|0|0,0:0|0:0|0:0|0:0|0:0|0:0,0:0:0:0:
356,167,254236,6,0,P|363:149|360:123,5,27.5000010490418,8|8|8|8|8|8,0:3|0:3|0:3|0:3|0:3|0:3,0:3:0:0:
277,202,254581,5,8,0:3:0:0:
248,198,254638,1,12,0:3:0:0:
226,179,254695,1,8,0:3:0:0:
218,151,254753,1,12,0:3:0:0:
227,124,254810,1,8,0:3:0:0:
249,106,254868,1,12,0:3:0:0:
269,136,254926,6,0,L|261:197,1,44,12|0,0:3|0:0,0:0:0:0:
72,333,255271,6,0,B|109:295|109:295|226:333,1,165,4|0,0:0|0:0,0:0:0:0:
241,311,255616,1,8,0:0:0:0:
454,342,255788,1,2,0:0:0:0:
463,335,255874,1,0,0:0:0:0:
472,329,255961,2,0,B|501:281|501:281|463:201,1,110
368,41,256305,1,10,0:0:0:0:
478,11,256478,1,0,0:0:0:0:
478,11,256564,1,0,0:0:0:0:
478,11,256650,5,0,0:0:0:0:
366,114,256823,1,0,0:0:0:0:
201,14,256995,2,0,L|222:127,1,110,8|2,0:0|0:0,0:0:0:0:
218,201,257254,1,0,0:0:0:0:
224,210,257340,1,0,0:0:0:0:
366,114,257512,1,2,0:0:0:0:
131,162,257685,2,0,L|110:275,1,110,10|0,0:0|0:0,0:0:0:0:
13,47,258030,5,0,0:0:0:0:
13,47,258202,2,0,L|170:32,1,110,2|8,0:0|0:0,0:0:0:0:
382,74,258547,1,0,0:0:0:0:
389,65,258633,1,0,0:0:0:0:
390,54,258719,2,0,P|369:78|363:171,1,110,2|0,0:0|0:0,0:0:0:0:
457,326,259064,1,10,0:0:0:0:
423,293,259150,1,8,0:0:0:0:
403,320,259236,1,8,0:3:0:0:
394,313,259323,1,12,0:3:0:0:
330,351,259409,6,0,L|184:339,1,110
141,363,259667,1,0,0:0:0:0:
132,356,259754,2,0,P|153:290|157:221,1,110,8|2,0:0|0:0,0:0:0:0:
12,101,260099,1,2,0:0:0:0:
180,158,260271,1,2,0:0:0:0:
2,208,260443,1,10,0:0:0:0:
119,49,260616,1,0,0:0:0:0:
129,46,260702,1,0,0:0:0:0:
139,42,260788,6,0,L|292:30,2,110,4|0|8,0:0|0:0|0:0,0:0:0:0:
309,166,261305,2,0,P|333:97|361:43,1,110,2|0,0:0|0:0,0:0:0:0:
425,39,261650,1,0,0:0:0:0:
427,223,261823,2,0,P|403:292|375:346,1,110,10|0,0:0|0:0,0:0:0:0:
311,344,262168,1,0,0:0:0:0:
147,342,262340,6,0,L|136:233,1,110,0|8,0:0|0:0,0:0:0:0:
19,56,262685,1,2,0:0:0:0:
17,66,262771,1,0,0:0:0:0:
12,75,262857,2,0,L|121:63,1,110,2|2,0:0|0:0,0:0:0:0:
363,37,263202,1,10,0:0:0:0:
363,37,263374,1,0,0:0:0:0:
475,158,263547,5,8,0:0:0:0:
207,111,263719,1,2,0:0:0:0:
204,100,263805,1,0,0:0:0:0:
201,89,263892,1,0,0:0:0:0:
466,238,264064,5,8,0:0:0:0:
215,14,264236,1,2,0:0:0:0:
392,84,264409,1,0,0:0:0:0:
511,24,264581,5,10,0:0:0:0:
176,178,264754,1,2,0:0:0:0:
315,346,264926,5,8,3:3:0:0:
319,307,265012,1,8,3:3:0:0:
323,269,265098,1,4,3:0:0:0:
327,231,265184,1,12,3:0:0:0:
332,192,265270,1,12,3:0:0:0:
438,74,265443,5,8,0:3:0:0:
435,100,265529,1,8,0:3:0:0:
417,121,265615,1,8,0:3:0:0:
475,282,265788,1,12,0:3:0:0:
453,266,265874,1,12,0:3:0:0:
444,240,265960,1,12,0:3:0:0:
313,199,266133,1,8,0:0:0:0:
322,192,266219,1,0,0:0:0:0:
332,192,266305,6,0,P|321:269|297:387,1,165,4|0,0:0|0:0,0:0:0:0:
274,368,266650,1,8,0:0:0:0:
65,293,266823,1,2,0:0:0:0:
59,302,266909,1,0,0:0:0:0:
53,311,266995,2,0,L|39:172,1,110
174,36,267340,1,10,0:0:0:0:
20,88,267512,1,0,0:0:0:0:
20,88,267599,1,0,0:0:0:0:
20,88,267685,5,0,0:0:0:0:
153,131,267857,1,0,0:0:0:0:
300,41,268030,2,0,P|288:105|278:179,1,110,8|2,0:0|0:0,0:0:0:0:
337,216,268288,1,0,0:0:0:0:
336,226,268374,1,2,0:0:0:0:
153,131,268547,1,2,0:0:0:0:
426,72,268719,1,10,0:0:0:0:
426,72,268892,1,0,0:0:0:0:
490,271,269064,5,0,0:0:0:0:
208,305,269236,2,0,L|360:288,1,110,2|8,0:0|0:0,0:0:0:0:
77,371,269581,1,0,0:0:0:0:
68,364,269667,1,0,0:0:0:0:
59,356,269754,2,0,P|37:298|68:228,1,110,2|0,0:0|0:0,0:0:0:0:
197,114,270099,1,10,0:0:0:0:
213,68,270185,1,8,0:3:0:0:
236,92,270271,1,4,0:3:0:0:
227,103,270357,1,12,0:3:0:0:
259,116,270443,6,0,L|395:103,1,110
378,110,270702,1,0,0:0:0:0:
387,115,270788,2,0,P|414:74|391:12,1,110,8|2,0:0|0:0,0:0:0:0:
324,265,271133,1,2,0:0:0:0:
477,161,271305,1,2,0:0:0:0:
237,284,271478,2,0,L|101:271,1,110,10|0,0:0|0:0,0:0:0:0:
36,231,271736,1,0,0:0:0:0:
28,222,271823,6,0,B|62:173|62:173|202:205,1,165,4|0,0:0|0:0,0:0:0:0:
189,177,272167,1,8,0:0:0:0:
316,20,272340,1,2,0:0:0:0:
316,30,272426,1,0,0:0:0:0:
315,40,272512,2,0,L|287:198,1,110
408,361,272857,1,10,0:0:0:0:
353,195,273030,1,0,0:0:0:0:
235,355,273202,6,0,L|91:330,2,110,0|0|8,0:0|0:0|0:0,0:0:0:0:
420,268,273719,1,2,0:0:0:0:
427,260,273805,1,0,0:0:0:0:
436,253,273892,1,2,0:0:0:0:
226,198,274064,1,2,0:0:0:0:
386,349,274236,1,10,0:0:0:0:
345,275,274409,1,0,0:0:0:0:
139,276,274581,5,8,0:0:0:0:
346,168,274754,1,2,0:0:0:0:
346,168,274840,1,0,0:0:0:0:
346,168,274926,1,0,0:0:0:0:
62,246,275099,5,8,0:0:0:0:
347,90,275271,1,2,0:0:0:0:
62,246,275443,1,0,0:0:0:0:
304,23,275616,5,10,0:0:0:0:
39,166,275788,1,2,0:0:0:0:
221,307,275961,6,8,P|238:301|253:283,1,25.6666658833822,8|8,0:3|0:3,0:3:0:0:
269,292,276076,2,8,P|276:275|274:252,1,25.6666658833822,8|8,0:3|0:3,0:3:0:0:
297,252,276190,2,8,P|291:235|273:220,1,25.6666658833822,8|8,0:3|0:3,0:3:0:0:
226,188,276305,6,8,P|232:171|250:156,1,25.6666658833822,8|8,0:3|0:3,0:3:0:0:
240,139,276420,2,8,P|256:131|279:133,1,25.6666658833822,8|8,0:3|0:3,0:3:0:0:
288,121,276535,2,8,P|304:126|319:144,1,25.6666658833822,8|8,0:3|0:3,0:3:0:0:
369,185,276650,5,8,0:3:0:0:
394,187,276708,1,12,0:3:0:0:
416,175,276764,1,8,0:3:0:0:
427,153,276822,1,12,0:3:0:0:
424,128,276879,1,8,0:3:0:0:
407,109,276937,1,12,0:3:0:0:
376,94,276995,5,8,0:3:0:0:
367,88,277053,1,12,0:3:0:0:
365,78,277110,1,8,0:3:0:0:
372,71,277167,1,12,0:3:0:0:
382,71,277225,1,8,0:3:0:0:
388,80,277282,1,12,0:3:0:0:
407,109,277340,5,4,0:0:0:0:
256,192,277397,12,0,280271,0:0:0:0:
