osu file format v14

[General]
AudioFilename: PN.mp3
AudioLeadIn: 0
PreviewTime: 244448
Countdown: 1
SampleSet: Normal
StackLeniency: 0.7
Mode: 0
LetterboxInBreaks: 1
WidescreenStoryboard: 0

[Editor]
Bookmarks: 67896,89965,112034,134103,156172,178241,200310,222379,244448,266517,288586,312034
DistanceSpacing: 1
BeatDivisor: 4
GridSize: 4
TimelineZoom: 3.699999

[Metadata]
Title:Propane Nightmares
TitleUnicode:Propane Nightmares
Artist:Pendulum
ArtistUnicode:Pendulum
Creator:Secretpipe
Version:Illusion
Source:
Tags:
BeatmapID:941642
BeatmapSetID:437302

[Difficulty]
HPDrainRate:7
CircleSize:4
OverallDifficulty:7.5
ApproachRate:9
SliderMultiplier:1.6
SliderTickRate:1

[Events]
//Background and Video events
0,0,"682993.jpg",0,0
//Break Periods
//Storyboard Layer 0 (Background)
//Storyboard Layer 1 (Fail)
//Storyboard Layer 2 (Pass)
//Storyboard Layer 3 (Foreground)
//Storyboard Sound Samples

[TimingPoints]
1690,344.827586206897,4,1,0,40,1,0
1690,-333.629498000889,4,1,0,40,0,0
23758,-133.333333333333,4,1,0,40,0,0
25138,-200,4,1,0,40,0,0
26862,-200,4,1,0,40,0,0
28242,-133.333333333333,4,1,0,40,0,0
29276,-200,4,1,0,40,0,0
31000,-133.333333333333,4,1,0,40,0,0
34793,-200,4,1,0,40,0,0
35827,-133.333333333333,4,1,0,40,0,0
37551,-200,4,1,0,40,0,0
39878,-133.333333333333,4,1,0,40,0,0
40310,-200,4,1,0,40,0,0
45482,-300,4,1,0,40,0,0
45827,-90.9090909090909,4,1,0,40,0,1
46172,-100,4,1,0,40,0,0
47206,-90.9090909090909,4,1,0,40,0,0
47551,-100,4,1,0,40,0,0
48585,-90.9090909090909,4,1,0,40,0,0
48930,-100,4,1,0,40,0,0
49965,-90.9090909090909,4,1,0,40,0,0
50482,-100,4,1,0,40,0,0
51344,-90.9090909090909,4,1,0,40,0,0
51689,-100,4,1,0,40,0,0
52723,-90.9090909090909,4,1,0,40,0,0
53068,-100,4,1,0,40,0,0
54103,-90.9090909090909,4,1,0,40,0,0
54447,-100,4,1,0,40,0,0
55482,-90.9090909090909,4,1,0,40,0,0
56000,-100,4,1,0,40,0,0
56861,-90.9090909090909,4,1,0,40,0,0
58241,-90.9090909090909,4,1,0,40,0,0
58758,-100,4,1,0,40,0,0
59620,-90.9090909090909,4,1,0,40,0,0
60138,-100,4,1,0,40,0,0
60999,-90.9090909090909,4,1,0,40,0,0
61344,-100,4,1,0,40,0,0
62379,-90.9090909090909,4,1,0,40,0,0
62896,-100,4,1,0,40,0,0
63758,-90.9090909090909,4,1,0,40,0,0
64276,-100,4,1,0,40,0,0
67896,-83.3333333333333,4,1,0,40,0,1
68069,-83.3333333333333,4,1,0,40,0,0
76172,-125,4,1,0,40,0,0
78931,-83.3333333333333,4,1,0,40,0,1
79103,-83.3333333333333,4,1,0,40,0,0
89965,-125,4,1,0,40,0,0
92034,-100,4,1,0,40,0,0
92724,-83.3333333333333,4,1,0,40,0,0
98586,-133.333333333333,4,1,0,40,0,0
101000,-76.9230769230769,4,1,0,40,0,0
101345,-83.3333333333333,4,1,0,40,0,0
103758,-76.9230769230769,4,1,0,40,0,0
104103,-83.3333333333333,4,1,0,40,0,0
106517,-76.9230769230769,4,1,0,40,0,0
106862,-83.3333333333333,4,1,0,40,0,0
109276,-76.9230769230769,4,1,0,40,0,0
109621,-83.3333333333333,4,1,0,40,0,0
111690,-100,4,1,0,40,0,0
112034,-83.3333333333333,4,1,0,40,0,1
134103,-76.9230769230769,4,1,0,40,0,0
134448,-83.3333333333333,4,1,0,40,0,0
244448,-66.6666666666667,4,1,0,40,0,1
266517,-76.9230769230769,4,1,0,40,0,0

[HitObjects]
118,263,1690,6,0,B|226:293|200:238|307:263,1,191.829567437841
166,188,3759,2,0,L|167:139,1,47.9573918594603
214,71,4449,2,0,P|284:57|381:74,1,167.850871508111
432,127,5828,2,0,L|435:230,1,95.9147837189206
367,338,7207,6,0,B|327:326|290:345|290:345|256:363|200:344,1,167.850871508111
136,305,8587,2,0,L|131:203,1,95.9147837189206
199,79,9621,2,0,L|197:113,1,23.9786959297302
235,170,9966,2,0,P|273:178|314:169,1,71.9360877891905
378,128,10656,2,0,L|373:46,1,71.9360877891905
449,96,11345,1,0,0:0:0:0:
410,244,11690,2,0,L|409:278,2,23.9786959297302
463,332,12380,1,0,0:0:0:0:
347,357,12725,6,0,P|302:309|186:340,1,191.829567437841
389,263,14794,2,0,L|388:213,1,47.9573918594603
327,159,15483,2,0,P|272:178|164:161,1,167.850871508111
104,120,16863,2,0,L|109:21,1,95.9147837189206
174,273,18242,6,0,P|254:293|341:270,1,167.850871508111
398,225,19621,2,0,L|398:119,1,95.9147837189206
286,37,20656,2,0,L|288:69,1,23.9786959297302
258,129,21001,2,0,P|225:124|185:130,1,71.9360877891905
121,168,21690,2,0,L|118:243,1,71.9360877891905
151,308,22380,5,0,0:0:0:0:
181,318,22724,1,0,0:0:0:0:
211,327,23069,1,0,0:0:0:0:
242,334,23414,1,0,0:0:0:0:
435,212,23759,5,0,0:0:0:0:
320,100,24449,2,0,P|267:116|192:92,1,120.000004577637
137,59,24966,1,0,0:0:0:0:
95,136,25138,6,0,L|91:267,1,120
52,329,25828,1,0,0:0:0:0:
199,254,26173,1,0,0:0:0:0:
342,329,26517,1,0,0:0:0:0:
353,337,26862,6,0,L|355:132,1,200
392,66,27897,1,0,0:0:0:0:
267,36,28242,2,0,P|211:27|142:43,1,120.000004577637
63,117,28931,1,0,0:0:0:0:
125,280,29276,6,0,B|196:250|243:293|243:293|339:257|310:316|401:281,1,280
467,259,30655,1,0,0:0:0:0:
476,250,31000,2,0,L|468:123,1,120.000004577637
379,31,31690,2,0,L|373:102,1,60.0000022888184
328,155,32035,6,0,P|273:169|202:160,1,120.000004577637
138,132,32552,1,0,0:0:0:0:
73,175,32725,2,0,L|69:301,1,120.000004577637
107,363,33242,1,0,0:0:0:0:
161,277,33414,1,0,0:0:0:0:
257,347,33759,2,0,L|319:352,2,60.0000022888184
412,296,34448,1,0,0:0:0:0:
420,290,34793,6,0,L|419:129,1,160
320,44,35828,2,0,P|286:39|240:48,1,60.0000022888184
186,87,36173,2,0,L|196:271,1,180.000006866455
146,345,36862,2,0,P|124:351|83:346,1,60.0000022888184
195,266,37207,2,0,P|217:260|258:265,1,60.0000022888184
356,337,37552,6,0,B|380:264|354:214|354:214|327:161|344:103,1,240
406,47,38759,1,0,0:0:0:0:
329,26,38931,2,0,L|232:31,1,80
185,75,39448,2,0,L|191:169,1,80
211,176,39880,2,0,P|267:188|364:160,1,150.000005722046
327,349,40655,6,0,P|288:361|195:345,1,120
126,301,41345,2,0,L|123:244,1,40
67,192,41690,1,0,0:0:0:0:
202,42,42035,1,0,0:0:0:0:
256,193,42380,1,0,0:0:0:0:
141,109,42724,6,0,L|90:103,2,40
308,123,43414,2,0,L|347:118,1,40
412,67,43759,1,0,0:0:0:0:
438,190,44104,2,0,P|422:269|437:331,1,140
454,351,44793,2,0,L|328:359,1,120
259,328,45483,6,0,L|257:281,1,40
221,223,45828,6,0,L|126:232,1,88.000002685547
268,135,46173,1,0,0:0:0:0:
346,294,46345,2,0,L|435:302,1,80
493,170,46690,1,0,0:0:0:0:
345,82,46862,2,0,P|341:127|353:175,1,80
249,26,47207,6,0,L|145:35,1,88.000002685547
345,82,47552,1,0,0:0:0:0:
188,129,47724,2,0,L|108:135,1,80
270,258,48069,2,0,P|281:223|268:159,2,80
356,136,48586,6,0,L|460:121,1,88.000002685547
380,264,48931,1,0,0:0:0:0:
279,100,49104,2,0,P|268:70|271:4,1,80
377,55,49448,1,0,0:0:0:0:
252,221,49621,2,0,P|214:231|165:222,1,80
390,268,49966,6,0,L|401:174,2,88.000002685547
279,100,50483,2,0,L|268:6,2,80
125,127,51000,2,0,P|150:97|202:82,1,80
103,280,51345,6,0,P|62:277|15:247,1,88.000002685547
212,268,51690,1,0,0:0:0:0:
212,268,51862,2,0,P|214:307|193:358,1,80
140,179,52207,1,0,0:0:0:0:
140,179,52379,2,0,P|177:166|217:168,1,80
434,245,52724,6,0,L|445:133,1,88.000002685547
362,322,53069,1,0,0:0:0:0:
317,164,53241,2,0,L|309:65,1,80
241,230,53586,1,0,0:0:0:0:
241,45,53758,1,0,0:0:0:0:
399,123,53931,1,0,0:0:0:0:
155,161,54103,6,0,P|118:168|66:159,1,88.000002685547
241,230,54448,1,0,0:0:0:0:
241,230,54621,2,0,P|278:237|330:228,1,80
248,124,54965,1,0,0:0:0:0:
155,292,55138,2,0,L|161:380,1,80
167,128,55483,6,0,P|130:122|67:147,2,88.000002685547
49,287,56000,2,0,P|43:247|53:209,2,80
209,241,56517,2,0,L|122:244,1,80
314,332,56862,6,0,L|407:325,1,88.000002685547
470,227,57207,1,0,0:0:0:0:
310,134,57379,2,0,P|303:188|320:235,1,88.000002685547
390,70,57724,1,0,0:0:0:0:
205,107,57896,2,0,L|111:100,1,88.000002685547
311,219,58241,6,0,P|353:222|404:203,1,88.000002685547
326,90,58586,1,0,0:0:0:0:
234,268,58758,2,0,P|192:271|141:252,1,80
319,295,59103,2,0,L|308:387,2,80
181,343,59621,6,0,P|137:351|82:338,1,88.000002685547
219,178,59965,1,0,0:0:0:0:
319,295,60138,2,0,P|362:303|418:288,1,80
352,170,60483,1,0,0:0:0:0:
217,258,60655,2,0,P|174:250|118:265,1,80
344,165,61000,6,0,L|334:68,1,88.000002685547
289,230,61345,1,0,0:0:0:0:
180,114,61517,2,0,P|141:108|90:118,1,80
230,183,61862,1,0,0:0:0:0:
163,29,62034,1,0,0:0:0:0:
47,161,62207,1,0,0:0:0:0:
308,64,62379,6,0,L|421:66,1,88.000002685547
255,131,62724,1,0,0:0:0:0:
341,282,62896,2,0,P|349:242|338:182,1,80
274,352,63241,1,0,0:0:0:0:
421,265,63414,2,0,L|507:257,1,80
256,202,63758,6,0,L|142:191,2,88.000002685547
120,332,64276,2,0,P|111:295|125:246,1,80
164,119,64621,1,0,0:0:0:0:
295,279,64793,2,0,L|195:286,1,80
346,343,65138,6,0,L|425:348,1,80
304,197,65483,2,0,L|224:202,1,80
375,255,65827,2,0,L|454:260,1,80
361,57,66172,2,0,P|346:103|359:154,1,80
375,255,66517,5,0,0:0:0:0:
341,275,66603,1,0,0:0:0:0:
301,283,66689,1,0,0:0:0:0:
262,276,66775,1,0,0:0:0:0:
228,256,66861,1,0,0:0:0:0:
204,223,66948,1,0,0:0:0:0:
170,202,67034,1,0,0:0:0:0:
130,194,67120,1,0,0:0:0:0:
91,201,67207,6,0,L|82:266,1,40
136,353,67379,2,0,L|141:313,1,40
86,190,67552,2,0,L|77:255,1,40
144,358,67724,2,0,L|149:318,1,40
204,223,67896,6,0,L|311:217,1,95.9999970703126
183,49,68241,2,0,L|70:50,1,95.9999970703126
343,125,68586,2,0,P|351:51|335:2,2,95.9999970703126
134,251,69103,6,0,P|81:234|19:247,1,95.9999970703126
282,207,69448,2,0,P|326:223|374:219,1,95.9999970703126
187,111,69793,1,0,0:0:0:0:
282,301,69965,1,0,0:0:0:0:
368,82,70138,1,0,0:0:0:0:
167,192,70310,2,0,L|179:308,1,95.9999970703126
187,111,70655,6,0,P|185:57|157:16,1,95.9999970703126
250,194,71000,2,0,P|293:150|302:92,1,95.9999970703126
88,86,71345,2,0,B|106:164|106:164|74:318,1,191.999994140625
219,80,71862,6,0,P|272:90|304:120,1,95.9999970703126
25,153,72207,2,0,L|3:45,1,95.9999970703126
144,280,72552,1,0,0:0:0:0:
219,80,72724,2,0,P|247:30|315:13,1,95.9999970703126
350,240,73069,2,0,P|292:240|243:190,1,95.9999970703126
420,42,73414,6,0,P|449:91|430:158,1,95.9999970703126
340,335,73758,2,0,L|350:230,1,95.9999970703126
158,115,74103,2,0,L|168:220,2,95.9999970703126
321,8,74621,6,0,L|311:103,1,95.9999970703126
137,297,74965,2,0,P|148:233|184:199,1,95.9999970703126
398,201,75310,1,0,0:0:0:0:
222,284,75483,1,0,0:0:0:0:
234,65,75655,1,0,0:0:0:0:
330,289,75827,2,0,L|321:388,1,95.9999970703126
315,103,76172,6,0,L|387:92,1,64
315,103,76517,2,0,L|319:185,1,64
311,39,76862,2,0,L|315:121,1,64
214,224,77207,1,0,0:0:0:0:
214,224,77379,6,0,L|150:233,1,64
214,224,77724,2,0,L|205:92,1,128
171,307,78241,1,0,0:0:0:0:
113,133,78414,1,0,0:0:0:0:
293,200,78586,1,0,0:0:0:0:
293,200,78931,6,0,P|285:250|294:313,1,95.9999970703126
362,105,79276,2,0,L|486:112,1,95.9999970703126
250,16,79621,2,0,P|224:69|228:138,2,95.9999970703126
449,14,80138,6,0,L|460:137,1,95.9999970703126
360,256,80483,2,0,L|366:144,1,95.9999970703126
147,56,80827,1,0,0:0:0:0:
199,289,81000,1,0,0:0:0:0:
288,121,81172,1,0,0:0:0:0:
50,205,81345,2,0,L|60:328,1,95.9999970703126
108,120,81690,6,0,P|56:97|-1:111,1,95.9999970703126
199,289,82034,2,0,L|316:280,1,95.9999970703126
377,97,82379,2,0,B|316:94|316:94|258:117|258:117|170:107,1,191.999994140625
482,14,82896,6,0,L|490:138,1,95.9999970703126
364,298,83241,2,0,L|378:178,1,95.9999970703126
225,29,83586,1,0,0:0:0:0:
266,253,83758,2,0,P|263:304|227:359,1,95.9999970703126
307,140,84103,2,0,P|359:174|381:232,1,95.9999970703126
141,274,84448,6,0,L|146:145,1,95.9999970703126
375,202,84793,2,0,L|364:298,1,95.9999970703126
239,88,85138,2,0,P|290:57|343:68,2,95.9999970703126
251,290,85655,6,0,P|262:345|255:397,1,95.9999970703126
91,208,86000,2,0,P|80:153|87:101,1,95.9999970703126
356,86,86345,1,0,0:0:0:0:
181,239,86517,1,0,0:0:0:0:
198,20,86690,1,0,0:0:0:0:
348,212,86862,2,0,L|468:206,1,95.9999970703126
269,98,87207,6,0,L|278:216,1,95.9999970703126
163,344,87552,2,0,P|185:231|175:154,1,191.999994140625
114,93,88069,1,0,0:0:0:0:
114,93,88241,2,0,L|-4:101,1,95.9999970703126
215,30,88586,5,0,0:0:0:0:
123,242,88758,1,0,0:0:0:0:
240,153,88931,1,0,0:0:0:0:
114,93,89103,1,0,0:0:0:0:
239,266,89276,1,0,0:0:0:0:
391,88,89448,1,0,0:0:0:0:
203,35,89621,1,0,0:0:0:0:
240,153,89793,1,0,0:0:0:0:
337,25,89965,5,0,0:0:0:0:
97,123,90310,1,0,0:0:0:0:
291,269,90655,2,0,L|371:262,1,64
414,204,91000,2,0,P|418:172|413:140,1,64
319,56,91345,2,0,P|314:87|319:119,1,64
354,263,91690,1,0,0:0:0:0:
358,275,92034,5,0,0:0:0:0:
456,119,92207,1,0,0:0:0:0:
244,76,92379,2,0,L|147:72,1,80
316,33,92724,6,0,L|413:29,1,95.9999970703126
327,287,93069,2,0,P|305:223|312:136,1,143.999995605469
308,147,93414,2,0,L|199:157,1,95.9999970703126
419,52,93758,1,0,0:0:0:0:
494,173,93931,1,0,0:0:0:0:
327,287,94103,2,0,P|285:298|216:287,1,95.9999970703126
399,342,94448,2,0,P|441:353|510:342,1,95.9999970703126
371,197,94793,5,0,0:0:0:0:
459,38,94965,1,0,0:0:0:0:
365,207,95138,2,0,P|316:218|255:209,1,95.9999970703126
451,139,95483,6,0,P|462:220|440:284,1,143.999995605469
370,344,95827,2,0,P|333:335|207:353,1,143.999995605469
228,344,96172,2,0,L|233:233,1,95.9999970703126
169,29,96517,1,0,0:0:0:0:
135,183,96690,1,0,0:0:0:0:
262,84,96862,2,0,L|359:73,1,95.9999970703126
130,193,97207,2,0,L|34:182,1,95.9999970703126
238,163,97552,5,0,0:0:0:0:
174,336,97724,1,0,0:0:0:0:
308,257,97896,2,0,P|365:256|415:273,1,95.9999970703126
512,327,98241,1,0,0:0:0:0:
168,208,98586,6,0,L|178:123,1,60.0000022888184
122,294,98931,2,0,L|62:301,1,60.0000022888184
250,272,99276,2,0,L|309:279,1,60.0000022888184
431,244,99621,1,0,0:0:0:0:
392,348,99793,1,0,0:0:0:0:
346,166,99965,2,0,L|331:90,1,60.0000022888184
445,136,100310,5,0,0:0:0:0:
312,272,100483,1,0,0:0:0:0:
256,103,100655,1,0,0:0:0:0:
346,166,100827,1,0,0:0:0:0:
190,316,101000,6,0,P|143:333|41:293,1,155.999992858887
46,299,101345,2,0,L|33:185,1,95.9999970703126
235,142,101690,2,0,L|223:237,1,95.9999970703126
143,41,102034,1,0,0:0:0:0:
308,15,102207,1,0,0:0:0:0:
150,134,102379,6,0,P|113:147|54:142,1,95.9999970703126
317,93,102724,2,0,P|364:87|409:102,1,95.9999970703126
318,331,103069,1,0,0:0:0:0:
358,172,103241,1,0,0:0:0:0:
445,298,103414,1,0,0:0:0:0:
230,241,103586,1,0,0:0:0:0:
29,350,103758,6,0,L|41:194,1,155.999992858887
100,134,104103,2,0,P|152:129|212:147,1,95.9999970703126
163,334,104448,2,0,P|143:291|148:232,1,95.9999970703126
337,259,104793,1,0,0:0:0:0:
466,347,104965,1,0,0:0:0:0:
327,264,105138,6,0,L|226:274,1,95.9999970703126
404,102,105483,2,0,P|411:160|389:215,1,95.9999970703126
333,45,105827,1,0,0:0:0:0:
478,185,106000,1,0,0:0:0:0:
318,271,106172,2,0,L|211:256,1,95.9999970703126
409,364,106517,6,0,P|443:290|412:203,1,155.999992858887
372,152,106862,2,0,P|360:67|374:32,1,95.9999970703126
257,282,107207,2,0,P|217:291|131:276,1,95.9999970703126
282,42,107552,2,0,L|285:137,1,95.9999970703126
389,303,107896,2,0,L|392:207,1,95.9999970703126
196,353,108241,5,0,0:0:0:0:
196,353,108586,1,0,0:0:0:0:
126,143,108758,1,0,0:0:0:0:
75,320,108930,1,0,0:0:0:0:
237,218,109103,1,0,0:0:0:0:
64,56,109276,6,0,P|138:42|222:73,1,155.999992858887
285,120,109621,2,0,P|338:136|405:122,1,95.9999970703126
150,166,109965,2,0,P|102:162|56:177,1,95.9999970703126
250,313,110310,2,0,L|235:206,1,95.9999970703126
181,371,110655,5,0,0:0:0:0:
344,229,110827,1,0,0:0:0:0:
150,166,111000,1,0,0:0:0:0:
346,323,111172,1,0,0:0:0:0:
272,99,111345,1,0,0:0:0:0:
127,270,111517,1,0,0:0:0:0:
426,277,111690,2,0,P|438:240|416:173,1,80
257,68,112034,6,0,P|275:126|280:264,1,191.999994140625
323,22,112552,2,0,P|340:67|353:130,1,95.9999970703126
204,233,112896,1,0,0:0:0:0:
415,47,113069,2,0,P|425:93|429:158,1,95.9999970703126
132,180,113414,5,0,0:0:0:0:
132,180,113586,1,0,0:0:0:0:
209,28,113758,1,0,0:0:0:0:
209,248,113931,1,0,0:0:0:0:
130,72,114103,1,0,0:0:0:0:
209,248,114276,1,0,0:0:0:0:
130,72,114448,1,0,0:0:0:0:
333,88,114621,1,0,0:0:0:0:
209,248,114793,6,0,B|269:237|269:237|328:249|328:249|410:234,1,191.999994140625
203,165,115310,2,0,L|79:188,1,95.9999970703126
263,324,115655,1,0,0:0:0:0:
294,64,115827,2,0,L|170:87,1,95.9999970703126
426,160,116172,6,0,B|410:107|410:107|441:2,1,143.999995605469
500,158,116517,2,0,P|481:214|439:235,1,95.9999970703126
167,118,116862,1,0,0:0:0:0:
352,37,117034,1,0,0:0:0:0:
218,224,117207,2,0,P|202:276|258:352,1,143.999995605469
226,216,117552,6,0,B|172:202|172:202|131:211|131:211|82:190|16:202,1,191.999994140625
305,180,118069,2,0,P|311:227|283:285,1,95.9999970703126
211,16,118414,1,0,0:0:0:0:
388,268,118586,2,0,P|395:218|386:168,1,95.9999970703126
120,86,118931,5,0,0:0:0:0:
181,179,119103,1,0,0:0:0:0:
303,6,119276,1,0,0:0:0:0:
111,257,119448,1,0,0:0:0:0:
181,179,119621,1,0,0:0:0:0:
7,94,119793,1,0,0:0:0:0:
206,282,119965,1,0,0:0:0:0:
218,46,120138,1,0,0:0:0:0:
32,193,120310,6,0,B|54:256|54:256|32:380,1,191.999994140625
181,179,120827,2,0,B|280:153|272:213|387:194,1,191.999994140625
124,20,121345,2,0,P|101:73|123:142,1,95.9999970703126
368,330,121690,6,0,B|342:262|342:262|382:160,1,143.999995605469
278,119,122034,2,0,B|295:167|295:167|269:232,1,95.9999970703126
86,36,122379,1,0,0:0:0:0:
301,34,122552,1,0,0:0:0:0:
95,140,122724,2,0,L|-26:128,1,95.9999970703126
301,34,123069,6,0,P|373:124|347:231,1,191.999994140625
208,30,123586,2,0,P|255:21|311:40,1,95.9999970703126
270,272,123931,1,0,0:0:0:0:
418,16,124103,2,0,P|449:75|466:141,1,95.9999970703126
195,143,124448,5,0,0:0:0:0:
195,143,124621,1,0,0:0:0:0:
384,240,124793,1,0,0:0:0:0:
272,43,124965,1,0,0:0:0:0:
291,242,125138,1,0,0:0:0:0:
272,43,125310,1,0,0:0:0:0:
342,315,125483,1,0,0:0:0:0:
237,166,125655,1,0,0:0:0:0:
396,56,125827,6,0,B|378:120|378:120|399:169|399:169|379:261,1,191.999994140625
300,55,126345,2,0,L|412:56,1,95.9999970703126
260,275,126690,1,0,0:0:0:0:
395,55,126862,2,0,L|507:56,1,95.9999970703126
284,172,127207,6,0,B|220:148|208:192|113:160,1,143.999995605469
259,92,127552,2,0,P|314:105|364:143,1,95.9999970703126
133,260,127896,1,0,0:0:0:0:
204,33,128069,1,0,0:0:0:0:
293,245,128241,2,0,P|363:270|442:221,1,143.999995605469
293,245,128586,6,0,B|266:213|266:213|214:312|214:312|253:315,1,191.999994140625
295,126,129103,2,0,P|239:124|193:159,1,95.9999970703126
357,328,129448,1,0,0:0:0:0:
272,45,129621,2,0,P|335:51|378:101,1,95.9999970703126
165,239,129965,6,0,P|183:159|165:33,1,191.999994140625
286,196,130483,2,0,P|268:276|286:402,1,191.999994140625
85,76,131000,2,0,P|127:48|186:57,1,95.9999970703126
477,191,131345,6,0,B|284:196,1,191.999994140625
401,74,131862,2,0,B|418:298,1,191.999994140625
189,54,132379,2,0,B|285:49,1,95.9999970703126
106,301,132724,5,0,0:0:0:0:
181,85,132896,1,0,0:0:0:0:
85,177,133068,1,0,0:0:0:0:
216,244,133241,1,0,0:0:0:0:
22,248,133414,5,0,0:0:0:0:
218,325,133586,1,0,0:0:0:0:
56,55,133758,1,0,0:0:0:0:
327,143,133931,1,0,0:0:0:0:
89,335,134103,6,0,P|116:284|96:164,1,155.999992858887
