osu file format v14

[General]
AudioFilename: audio.mp3
AudioLeadIn: 0
PreviewTime: 177552
Countdown: 0
SampleSet: Drum
StackLeniency: 0.8
Mode: 0
LetterboxInBreaks: 0
WidescreenStoryboard: 0

[Editor]
Bookmarks: 45861,63961,67930,89999,112068,134103,156172,178241,200310,201603,201690,202293,202379,202638,202724,205655,205827,206776,206862,207207,208155,208241,211172,222379,244448,254448,266517,268931,271690,274793,276862,282293,288586,310655,312034
DistanceSpacing: 0.9
BeatDivisor: 4
GridSize: 16
TimelineZoom: 1.6

[Metadata]
Title:Propane Nightmares
TitleUnicode:Propane Nightmares
Artist:Pendulum
ArtistUnicode:Pendulum
Creator:Ameyy
Version:Witness
Source:
Tags:ringer drum and bass dnb Electronic Rock Ear Storm In Silico Rob Swire Gareth McGrillen Paul El Hornet Harding Peredur ap Gwynedd Ben Mount Paul Kodish
BeatmapID:1541423
BeatmapSetID:730379

[Difficulty]
HPDrainRate:6
CircleSize:4
OverallDifficulty:8.5
ApproachRate:9.2
SliderMultiplier:1.7
SliderTickRate:1

[Events]
//Background and Video events
0,0,"bg.jpg",0,0
//Break Periods
//Storyboard Layer 0 (Background)
//Storyboard Layer 1 (Fail)
//Storyboard Layer 2 (Pass)
//Storyboard Layer 3 (Foreground)
//Storyboard Layer 4 (Overlay)
//Storyboard Sound Samples

[TimingPoints]
1726,344.827586206897,4,3,1,65,1,0
1726,-181.818181818181,4,2,1,25,0,0
22379,344.827586206897,4,3,1,65,1,0
22379,-181.818181818181,4,2,1,25,0,0
23758,-153.846153846153,4,2,2,50,0,0
24448,-153.846153846153,4,2,3,62,0,0
45741,-153.846153846153,4,3,1,5,0,0
45827,-100,4,3,1,65,0,0
47207,-90.9090909090909,4,3,1,65,0,0
47379,-100,4,3,1,65,0,0
48586,-90.9090909090909,4,3,1,65,0,0
48758,-100,4,3,1,65,0,0
49965,-90.9090909090909,4,3,1,65,0,0
50138,-111.111111111111,4,3,1,65,0,0
51258,-111.111111111111,4,3,1,5,0,0
51345,-90.9090909090909,4,3,1,65,0,0
51517,-100,4,3,1,65,0,0
52724,-90.9090909090909,4,3,1,65,0,0
52896,-100,4,3,1,65,0,0
54017,-100,4,3,1,5,0,0
54103,-90.9090909090909,4,3,1,65,0,0
54276,-100,4,3,1,65,0,0
56862,-90.9090909090909,4,3,1,65,0,0
57034,-100,4,3,1,65,0,0
58241,-90.9090909090909,4,3,1,65,0,0
58414,-100,4,3,1,65,0,0
59534,-100,4,3,1,5,0,0
59621,-90.9090909090909,4,3,1,65,0,0
59793,-100,4,3,1,65,0,0
61000,-90.9090909090909,4,3,1,65,0,0
61172,-100,4,3,1,65,0,0
62379,-90.9090909090909,4,3,1,65,0,0
62582,-100,4,3,1,65,0,0
63758,-90.9090909090909,4,3,1,65,0,0
63931,-100,4,3,1,65,0,0
65052,-100,4,3,1,5,0,0
65138,-90.9090909090909,4,3,1,65,0,0
65310,-100,4,3,1,65,0,0
67896,-83.3333333333333,4,3,1,65,0,0
68069,-90.9090909090909,4,3,1,65,0,0
73327,-90.9090909090909,4,3,1,5,0,0
73414,-90.9090909090909,4,3,1,65,0,0
76172,-125,4,3,1,65,0,0
78241,-125,4,3,1,70,0,0
78931,-83.3333333333333,4,3,1,65,0,0
79133,-90.9090909090909,4,3,1,65,0,0
84362,-90.9090909090909,4,3,1,5,0,0
84448,-90.9090909090909,4,3,1,65,0,0
87207,-125,4,3,1,65,0,0
88586,-100,4,3,1,70,0,0
89276,-100,4,3,1,72,0,0
89621,-100,4,3,1,74,0,0
89965,-125,4,3,1,75,0,0
90310,-125,4,3,1,65,0,0
92724,-100,4,3,1,65,0,0
93069,-90.9090909090909,4,3,1,65,0,0
93241,-100,4,3,1,65,0,0
93758,-90.9090909090909,4,3,1,65,0,0
93931,-100,4,3,1,65,0,0
94448,-90.9090909090909,4,3,1,65,0,0
94621,-100,4,3,1,65,0,0
95827,-90.9090909090909,4,3,1,65,0,0
96000,-100,4,3,1,65,0,0
96517,-90.9090909090909,4,3,1,65,0,0
96690,-100,4,3,1,65,0,0
97207,-90.9090909090909,4,3,1,65,0,0
97379,-100,4,3,1,65,0,0
98586,-125,4,3,1,65,0,0
100310,-125,4,3,1,70,0,0
101000,-90.9090909090909,4,3,1,65,0,0
101172,-100,4,3,1,65,0,0
102034,-90.9090909090909,4,3,1,65,0,0
102207,-100,4,3,1,65,0,0
102724,-90.9090909090909,4,3,1,65,0,0
102896,-100,4,3,1,65,0,0
104103,-90.9090909090909,4,3,1,65,0,0
104276,-100,4,3,1,65,0,0
104793,-90.9090909090909,4,3,1,65,0,0
104965,-100,4,3,1,65,0,0
105483,-90.9090909090909,4,3,1,65,0,0
105655,-100,4,3,1,65,0,0
106862,-90.9090909090909,4,3,1,65,0,0
107034,-100,4,3,1,65,0,0
107552,-90.9090909090909,4,3,1,65,0,0
107724,-100,4,3,1,65,0,0
108241,-90.9090909090909,4,3,1,65,0,0
108414,-100,4,3,1,65,0,0
109621,-90.9090909090909,4,3,1,65,0,0
109793,-100,4,3,1,65,0,0
110310,-90.9090909090909,4,3,1,65,0,0
110483,-100,4,3,1,65,0,0
111345,-100,4,3,1,70,0,0
112034,-83.3333333333333,4,3,99,70,0,1
112379,-83.3333333333333,4,3,2,70,0,1
116086,-83.3333333333333,4,3,2,5,0,1
116172,-83.3333333333333,4,3,2,70,0,1
117207,-100,4,3,2,70,0,1
117465,-83.3333333333333,4,3,2,5,0,1
117552,-83.3333333333333,4,3,2,70,0,1
121603,-83.3333333333333,4,3,2,5,0,1
121689,-83.3333333333333,4,3,2,70,0,1
127120,-83.3333333333333,4,3,2,5,0,1
127206,-83.3333333333333,4,3,2,70,0,1
132724,-83.3333333333333,4,3,2,70,0,1
133414,-83.3333333333333,4,3,2,75,0,1
134103,-90.9090909090909,4,3,1,80,0,0
134276,-90.9090909090909,4,3,1,65,0,0
139534,-90.9090909090909,4,3,1,5,0,0
139621,-90.9090909090909,4,3,1,65,0,0
142379,-125,4,3,1,65,0,0
144448,-125,4,3,1,70,0,0
145138,-83.3333333333333,4,3,1,65,0,0
145310,-90.9090909090909,4,3,1,65,0,0
150569,-90.9090909090909,4,3,1,5,0,0
150655,-90.9090909090909,4,3,1,65,0,0
153414,-125,4,3,1,65,0,0
154793,-100,4,3,1,70,0,0
155483,-100,4,3,1,72,0,0
155827,-100,4,3,1,74,0,0
156172,-100,4,3,1,75,0,0
156517,-90.9090909090909,4,3,1,65,0,0
156690,-100,4,3,1,65,0,0
157207,-90.9090909090909,4,3,1,65,0,0
157379,-100,4,3,1,65,0,0
157896,-90.9090909090909,4,3,1,65,0,0
158069,-100,4,3,1,65,0,0
159276,-90.9090909090909,4,3,1,65,0,0
159448,-100,4,3,1,65,0,0
160655,-90.9090909090909,4,3,1,65,0,0
160827,-100,4,3,1,65,0,0
162034,-90.9090909090909,4,3,1,65,0,0
162207,-100,4,3,1,65,0,0
163414,-90.9090909090909,4,3,1,65,0,0
163586,-100,4,3,1,65,0,0
164448,-125,4,3,1,65,0,0
166517,-125,4,3,1,70,0,0
167207,-90.9090909090909,4,3,1,65,0,0
167379,-100,4,3,1,65,0,0
168241,-90.9090909090909,4,3,1,65,0,0
168414,-100,4,3,1,65,0,0
168931,-90.9090909090909,4,3,1,65,0,0
169103,-100,4,3,1,65,0,0
170310,-90.9090909090909,4,3,1,65,0,0
170483,-100,4,3,1,65,0,0
171000,-90.9090909090909,4,3,1,65,0,0
171172,-100,4,3,1,65,0,0
171690,-90.9090909090909,4,3,1,65,0,0
171862,-100,4,3,1,65,0,0
173069,-90.9090909090909,4,3,1,65,0,0
173241,-100,4,3,1,65,0,0
173758,-90.9090909090909,4,3,1,65,0,0
173931,-100,4,3,1,65,0,0
174448,-90.9090909090909,4,3,1,65,0,0
174621,-100,4,3,1,65,0,0
175827,-90.9090909090909,4,3,1,65,0,0
176000,-100,4,3,1,65,0,0
176517,-90.9090909090909,4,3,1,65,0,0
176690,-100,4,3,1,65,0,0
177552,-100,4,3,1,70,0,0
178241,-83.3333333333333,4,3,99,70,0,0
178586,-83.3333333333333,4,3,2,70,0,0
200310,-200,4,2,99,45,0,0
201603,-200,4,2,1,5,0,0
201690,-200,4,2,1,45,0,0
202293,-200,4,2,1,5,0,0
202379,-200,4,2,1,45,0,0
202638,-200,4,2,1,5,0,0
202724,-200,4,2,1,45,0,0
205655,-200,4,2,1,5,0,0
205827,-200,4,2,1,45,0,0
206776,-200,4,2,1,5,0,0
206862,-200,4,2,1,45,0,0
207121,-200,4,2,1,5,0,0
207207,-200,4,2,1,35,0,0
208155,-200,4,2,1,5,0,0
208241,-200,4,2,1,25,0,0
211172,-200,4,2,1,5,0,0
211345,-142.857142857143,4,2,2,40,0,0
212724,-142.857142857143,4,2,2,45,0,0
214103,-142.857142857143,4,2,2,50,0,0
215483,-142.857142857143,4,2,2,55,0,0
216862,-142.857142857143,4,2,2,60,0,0
218241,-142.857142857143,4,2,2,65,0,0
219621,-200,4,2,2,40,0,0
219707,-200,4,2,1,40,0,0
222293,-200,4,3,2,5,0,0
222379,-90.9090909090909,4,3,1,65,0,0
222552,-100,4,3,1,65,0,0
223758,-90.9090909090909,4,3,1,65,0,0
223931,-100,4,3,1,65,0,0
225138,-90.9090909090909,4,3,1,65,0,0
225310,-100,4,3,1,65,0,0
226517,-90.9090909090909,4,3,1,65,0,0
226862,-100,4,3,1,65,0,0
227810,-100,4,3,1,5,0,0
227896,-90.9090909090909,4,3,1,65,0,0
228069,-100,4,3,1,65,0,0
229276,-90.9090909090909,4,3,1,65,0,0
229448,-100,4,3,1,65,0,0
230569,-100,4,3,1,5,0,0
230655,-90.9090909090909,4,3,1,65,0,0
230827,-100,4,3,1,65,0,0
232034,-90.9090909090909,4,3,1,65,0,0
232207,-100,4,3,1,65,0,0
233414,-90.9090909090909,4,3,1,65,0,0
233586,-100,4,3,1,65,0,0
234793,-90.9090909090909,4,3,1,65,0,0
234965,-100,4,3,1,65,0,0
236086,-100,4,3,1,5,0,0
236172,-90.9090909090909,4,3,1,65,0,0
236345,-100,4,3,1,65,0,0
237552,-90.9090909090909,4,3,1,65,0,0
237896,-100,4,3,1,65,0,0
238931,-90.9090909090909,4,3,1,65,0,0
239103,-100,4,3,1,65,0,0
240310,-90.9090909090909,4,3,1,65,0,0
240483,-100,4,3,1,65,0,0
241603,-100,4,3,1,5,0,0
241690,-100,4,3,1,65,0,0
244447,-83.3333333333333,4,3,99,70,0,1
244621,-83.3333333333333,4,3,2,70,0,1
245914,-83.3333333333333,4,3,2,5,0,1
246000,-83.3333333333333,4,3,2,70,0,1
247465,-83.3333333333333,4,3,2,5,0,1
247552,-83.3333333333333,4,3,2,70,0,1
250224,-83.3333333333333,4,3,2,5,0,1
250310,-83.3333333333333,4,3,2,70,0,1
251431,-83.3333333333333,4,3,2,5,0,1
251517,-83.3333333333333,4,3,2,70,0,1
252983,-83.3333333333333,4,3,2,5,0,1
253069,-83.3333333333333,4,3,2,70,0,1
254362,-83.3333333333333,4,3,2,5,0,1
254448,-83.3333333333333,4,3,2,70,0,1
254707,-83.3333333333333,4,3,2,5,0,1
254793,-83.3333333333333,4,3,2,70,0,1
255741,-83.3333333333333,4,3,2,5,0,1
255827,-83.3333333333333,4,3,2,75,0,1
256948,-83.3333333333333,4,3,2,5,0,1
257034,-83.3333333333333,4,3,2,75,0,1
258500,-83.3333333333333,4,3,2,5,0,1
258586,-83.3333333333333,4,3,2,75,0,1
261258,-83.3333333333333,4,3,2,5,0,1
261345,-83.3333333333333,4,3,2,75,0,1
262465,-83.3333333333333,4,3,2,5,0,1
262552,-83.3333333333333,4,3,2,75,0,1
264017,-83.3333333333333,4,3,2,5,0,1
264103,-83.3333333333333,4,3,2,75,0,1
265310,-83.3333333333333,4,3,2,75,0,1
266517,-83.3333333333333,4,3,2,75,0,1
269190,-83.3333333333333,4,3,2,5,0,1
269276,-83.3333333333333,4,3,2,75,0,1
270568,-83.3333333333333,4,3,2,5,0,1
270654,-83.3333333333333,4,3,2,75,0,1
272034,-83.3333333333333,4,3,2,75,0,1
273327,-83.3333333333333,4,3,2,5,0,1
273414,-83.3333333333333,4,3,2,75,0,1
275052,-83.3333333333333,4,3,2,5,0,1
275138,-83.3333333333333,4,3,2,75,0,1
277552,-83.3333333333333,4,3,2,75,0,1
279017,-83.3333333333333,4,3,2,5,0,1
279103,-83.3333333333333,4,3,2,75,0,1
280569,-83.3333333333333,4,3,2,5,0,1
280655,-83.3333333333333,4,3,2,75,0,1
282293,-142.857142857143,4,3,2,5,0,1
282379,-142.857142857143,4,3,2,75,0,1
283069,-83.3333333333333,4,3,2,75,0,1
284534,-83.3333333333333,4,3,2,5,0,1
284621,-83.3333333333333,4,3,2,75,0,1
288585,-100,4,3,1,80,0,0
288931,-100,4,3,1,65,0,0
290224,-100,4,3,1,5,0,0
290310,-100,4,3,1,65,0,0
292983,-100,4,3,1,5,0,0
293069,-100,4,3,1,65,0,0
295741,-100,4,3,1,5,0,0
295827,-100,4,3,1,65,0,0
296086,-100,4,3,1,5,0,0
296172,-100,4,3,1,65,0,0
296862,-125,4,3,1,65,0,0
299621,-100,4,3,1,65,0,0
301258,-100,4,3,1,5,0,0
301345,-100,4,3,1,65,0,0
306776,-100,4,3,1,5,0,0
306862,-100,4,3,1,65,0,0
307121,-100,4,3,1,5,0,0
307207,-100,4,3,1,65,0,0
310655,-100,4,3,1,75,0,0
311690,-100,4,3,1,35,0,0
312034,-100,4,3,1,5,0,0

[Colours]
Combo1 : 109,169,65
Combo2 : 204,156,45
Combo3 : 204,70,32

[HitObjects]
45,107,1726,6,0,P|81:59|264:176,1,327.250009986878,2|0,0:0|0:0,0:0:0:0:
230,271,3105,2,0,P|284:306|358:277,1,140.25000428009,2|0,0:0|0:0,0:0:0:0:
465,186,3794,2,0,L|471:286,1,93.5000028533936,2|2,0:0|0:0,0:0:0:0:
366,361,4484,6,0,B|271:307|231:395|134:332,1,233.750007133484,2|0,0:0|0:0,0:0:0:0:
93,199,5691,1,2,0:0:0:0:
93,199,5863,2,0,B|190:199|190:199|264:127,1,187.000005706787,2|0,0:0|0:0,0:0:0:0:
481,89,7243,6,0,B|429:117|382:112|346:78|327:29|327:29|317:120|376:152,1,327.250009986878,2|0,0:0|0:0,0:0:0:0:
417,247,8622,2,0,P|423:307|319:358,1,187.000005706787,2|0,0:0|0:0,0:0:0:0:
135,243,9657,2,0,L|191:253,1,46.7500014266968,2|2,0:0|0:0,0:0:0:0:
37,288,10001,6,0,L|28:136,1,140.25000428009,2|0,0:0|0:0,0:0:0:0:
116,94,10691,2,0,B|188:108|188:108|251:76,1,140.25000428009,2|0,0:0|0:0,0:0:0:0:
334,33,11381,1,2,0:0:0:0:
383,177,11726,2,0,L|378:239,2,46.7500014266968,2|2|2,0:0|0:0|0:0,0:0:0:0:
383,177,12415,1,2,0:0:0:0:
283,325,12760,6,0,B|254:284|279:229|279:229|262:116|262:116|224:232,1,327.250009986878,2|0,0:0|0:0,0:0:0:0:
2,226,14139,2,0,L|147:225,1,140.25000428009,2|0,0:0|0:0,0:0:0:0:
252,121,14829,2,0,P|235:73|186:56,1,93.5000028533936,2|2,0:0|0:0,0:0:0:0:
9,100,15519,6,0,P|61:154|199:53,1,280.500008560181,2|0,0:0|0:0,0:0:0:0:
376,61,16726,1,2,0:0:0:0:
376,61,16898,2,0,B|411:45|411:45|442:80|458:126|482:205|354:251,1,280.500008560181,2|0,0:0|0:0,0:0:0:0:
204,340,18277,6,0,B|220:188|71:159|71:159|116:230,1,327.250009986878,2|0,0:0|0:0,0:0:0:0:
204,340,19657,2,0,P|296:352|335:236,1,233.750007133484,2|0,0:0|0:0,0:0:0:0:
141,190,20691,2,0,P|117:234|116:241,1,46.7500014266968,2|2,0:0|0:0,0:0:0:0:
256,160,21036,6,0,L|396:164,1,140.25000428009,2|2,0:0|0:0,0:0:0:0:
460,44,21726,2,0,B|390:52|390:52|318:25,1,140.25000428009,2|0,0:0|0:0,0:0:0:0:
211,92,22379,2,0,P|166:97|153:97,1,46.7500014266968,2|0,0:0|0:0,0:0:0:0:
1,72,22724,2,0,P|34:57|51:57,1,46.7500014266968,2|0,0:0|0:0,0:0:0:0:
241,185,23069,2,0,P|196:190|183:188,1,46.7500014266968,2|0,0:0|0:0,0:0:0:0:
31,165,23414,2,0,P|64:150|86:152,1,46.7500014266968,2|0,0:0|0:0,0:0:0:0:
229,289,23758,5,12,0:0:0:0:
229,289,24448,2,0,L|348:299,1,110.499994941712
439,203,24965,1,0,0:0:0:0:
439,203,25138,2,0,B|394:181|394:181|353:125,1,110.499994941712,2|0,0:0|0:0,0:0:0:0:
241,53,25655,1,0,0:0:0:0:
241,53,25827,2,0,L|235:126,1,55.2499974708558,2|0,0:0|0:0,0:0:0:0:
124,195,26172,2,0,L|124:122,1,55.2499974708558,2|0,0:0|0:0,0:0:0:0:
303,218,26517,6,0,B|234:255|168:211|140:185|124:140|124:140|124:203,1,276.249987354279,2|0,0:0|0:0,0:0:0:0:
240,328,27724,1,2,0:0:0:0:
240,328,27896,2,0,L|356:331,2,110.499994941712,2|0|0,0:0|0:0|0:0,0:0:0:0:
136,299,28931,1,0,0:0:0:0:
391,243,29275,6,0,B|413:317|478:325|478:325|519:275|511:209|511:209|433:193|438:91,1,386.749982295991,2|0,0:0|0:0,0:0:0:0:
290,79,30655,2,0,B|369:45|438:111|438:111|433:40|371:24,1,276.249987354279,2|0,0:0|0:0,0:0:0:0:
222,44,31690,2,0,P|214:78|223:111,1,55.2499974708558,2|2,0:0|0:0,0:0:0:0:
248,310,32034,6,0,L|243:197,1,110.499994941712,2|0,0:0|0:0,0:0:0:0:
115,219,32552,1,2,0:0:0:0:
115,219,32724,2,0,P|93:155|-1:135,1,165.749992412568,2|0,0:0|0:0,0:0:0:0:
29,218,33414,1,2,0:0:0:0:
165,337,33758,2,0,L|223:356,2,55.2499974708558,2|2|2,0:0|0:0|0:0,0:0:0:0:
104,246,34448,1,2,0:0:0:0:
339,217,34793,6,0,B|273:280|179:240|167:166|167:166|159:239|99:248,1,331.499984825135,2|0,0:0|0:0,0:0:0:0:
340,107,36172,2,0,L|466:100,1,110.499994941712,2|0,0:0|0:0,0:0:0:0:
267,55,36690,2,0,P|250:106|265:160,1,110.499994941712,2|0,0:0|0:0,0:0:0:0:
414,233,37207,2,0,B|425:270|449:282|449:282|409:273|409:273|311:258|165:276,1,331.499984825135,2|0,0:0|0:0,0:0:0:0:
172,130,38586,6,0,L|239:137,1,55.2499974708558,2|2,0:0|0:0,0:0:0:0:
79,286,38931,2,0,L|66:172,1,110.499994941712,2|0,0:0|0:0,0:0:0:0:
273,74,39448,2,0,P|302:121|293:175,1,110.499994941712,2|0,0:0|0:0,0:0:0:0:
210,313,39965,2,0,B|259:289|259:289|327:304,1,110.499994941712,2|0,0:0|0:0,0:0:0:0:
411,349,40483,1,0,0:0:0:0:
411,349,40655,2,0,P|455:324|477:257,1,110.499994941712,2|0,0:0|0:0,0:0:0:0:
394,151,41345,5,2,0:0:0:0:
394,151,41690,2,0,L|277:152,2,110.499994941712,2|0|0,0:0|0:0|0:0,0:0:0:0:
262,62,42724,2,0,L|324:48,1,55.2499974708558,2|2,0:0|0:0,0:0:0:0:
176,131,43069,6,0,P|113:147|65:129,1,110.499994941712,2|0,0:0|0:0,0:0:0:0:
266,237,43586,1,2,0:0:0:0:
266,237,43758,2,0,P|329:253|380:238,1,110.499994941712,2|0,0:0|0:0,0:0:0:0:
137,343,44448,6,0,B|97:299|80:251|66:173|148:96|148:96|105:206|160:232,1,414.374981031419,2|0,0:0|0:0,0:0:0:0:
176,240,45827,6,0,P|217:254|290:233,1,85,12|0,0:0|0:0,0:0:0:0:
332,162,46172,1,0,0:0:0:0:
93,89,46345,2,0,L|94:211,1,85,8|0,0:0|0:0,0:0:0:0:
81,282,46690,1,0,0:0:0:0:
305,346,46862,2,0,P|366:348|400:322,1,85,8|0,0:0|0:0,0:0:0:0:
417,123,47207,6,0,L|303:174,1,93.5000028533936,8|0,0:0|0:0,0:0:0:0:
364,37,47552,1,0,0:0:0:0:
508,208,47724,2,0,P|512:275|501:313,1,85,8|0,0:0|0:0,0:0:0:0:
329,253,48069,1,0,0:0:0:0:
177,85,48241,2,0,L|60:90,1,85,8|0,0:0|0:0,0:0:0:0:
329,253,48586,6,0,P|336:206|317:124,1,93.5000028533936,8|0,0:0|0:0,0:0:0:0:
177,85,48931,1,0,0:0:0:0:
267,307,49103,2,0,P|306:334|351:334,1,85,8|0,0:0|0:0,0:0:0:0:
420,240,49448,1,0,0:0:0:0:
189,200,49621,2,0,L|188:296,1,85,8|0,0:0|0:0,0:0:0:0:
283,103,49965,6,0,P|345:88|375:100,2,93.5000028533936,8|0|0,0:0|0:0|0:0,0:0:0:0:
188,284,50483,2,0,P|126:299|106:294,2,76.4999976654053,8|0|0,0:0|0:0|0:0,0:0:0:0:
332,162,51000,2,0,P|381:176|439:134,1,114.749996498108,8|0,0:0|0:0,0:0:0:0:
468,132,51345,6,0,L|468:11,1,93.5000028533936,8|0,0:0|0:0,0:0:0:0:
343,10,51690,1,0,0:0:0:0:
247,174,51862,2,0,P|247:230|272:263,1,85,8|0,0:0|0:0,0:0:0:0:
332,162,52207,1,0,0:0:0:0:
199,106,52379,2,0,L|95:108,1,85,8|0,0:0|0:0,0:0:0:0:
261,253,52724,6,0,L|395:253,1,93.5000028533936,8|0,0:0|0:0,0:0:0:0:
426,155,53069,1,0,0:0:0:0:
247,174,53241,2,0,P|196:209|182:248,1,85,8|0,0:0|0:0,0:0:0:0:
261,331,53586,1,0,0:0:0:0:
426,155,53758,2,0,B|394:100|394:100|327:73,1,127.5,8|0,0:0|0:0,0:0:0:0:
288,81,54103,6,0,P|231:93|166:78,1,93.5000028533936,8|0,0:0|0:0,0:0:0:0:
74,30,54448,1,0,0:0:0:0:
217,186,54621,2,0,P|257:197|300:195,1,85,8|0,0:0|0:0,0:0:0:0:
426,155,54965,1,0,0:0:0:0:
283,307,55138,2,0,P|240:308|199:297,1,85,8|0,0:0|0:0,0:0:0:0:
398,246,55483,6,0,L|501:251,1,85,8|0,0:0|0:0,0:0:0:0:
316,176,55827,1,0,0:0:0:0:
283,307,56000,2,0,L|159:306,1,85,8|0,0:0|0:0,0:0:0:0:
316,176,56345,1,0,0:0:0:0:
509,111,56517,1,8,0:0:0:0:
509,111,56862,6,0,P|515:175|492:215,1,93.5000028533936,8|0,0:0|0:0,0:0:0:0:
411,281,57207,1,0,0:0:0:0:
301,75,57379,2,0,L|413:84,1,85,8|0,0:0|0:0,0:0:0:0:
509,111,57724,1,0,0:0:0:0:
246,139,57896,2,0,P|218:96|220:57,1,85,8|0,0:0|0:0,0:0:0:0:
411,281,58241,6,0,P|401:351|369:389,1,93.5000028533936,8|0,0:0|0:0,0:0:0:0:
285,294,58586,1,0,0:0:0:0:
489,211,58758,2,0,L|386:192,1,85,8|0,0:0|0:0,0:0:0:0:
306,113,59103,1,0,0:0:0:0:
285,294,59276,2,0,P|201:301|155:271,1,127.5,8|0,0:0|0:0,0:0:0:0:
144,248,59621,6,0,L|141:145,1,93.5000028533936,8|0,0:0|0:0,0:0:0:0:
141,27,59965,1,0,0:0:0:0:
306,113,60138,2,0,P|311:171|289:221,1,85,8|0,0:0|0:0,0:0:0:0:
144,248,60483,1,0,0:0:0:0:
238,73,60655,2,0,P|264:43|328:41,1,85,8|0,0:0|0:0,0:0:0:0:
453,196,61000,6,0,L|442:321,1,93.5000028533936,8|0,0:0|0:0,0:0:0:0:
321,317,61345,1,0,0:0:0:0:
449,114,61517,2,0,P|509:133|525:158,1,85,8|0,0:0|0:0,0:0:0:0:
349,200,61862,1,0,0:0:0:0:
359,51,62034,1,8,0:0:0:0:
453,196,62207,1,0,0:0:0:0:
278,236,62379,6,0,L|147:245,1,93.5000028533936,8|0,0:0|0:0,0:0:0:0:
85,161,62724,1,0,0:0:0:0:
236,311,62896,2,0,L|337:317,1,85,8|0,0:0|0:0,0:0:0:0:
349,200,63241,1,0,0:0:0:0:
108,248,63414,2,0,L|108:367,1,85,8|0,0:0|0:0,0:0:0:0:
225,134,63758,6,0,P|233:88|214:21,1,93.5000028533936,8|0,0:0|0:0,0:0:0:0:
96,41,64103,1,0,0:0:0:0:
201,212,64276,2,0,P|256:211|292:180,1,85,8|0,0:0|0:0,0:0:0:0:
325,78,64621,1,0,0:0:0:0:
126,189,64793,2,0,P|126:245|190:291,1,127.5,8|0,0:0|0:0,0:0:0:0:
226,293,65138,6,0,L|328:294,1,93.5000028533936,8|0,0:0|0:0,0:0:0:0:
447,195,65483,1,8,0:0:0:0:
283,177,65655,1,0,0:0:0:0:
409,309,65827,1,8,0:0:0:0:
325,78,66000,1,0,0:0:0:0:
226,293,66172,1,8,0:0:0:0:
488,94,66345,1,0,0:0:0:0:
409,309,66517,5,8,0:0:0:0:
376,335,66603,1,0,0:0:0:0:
335,344,66690,1,0,0:0:0:0:
294,332,66776,1,0,0:0:0:0:
264,304,66862,1,8,0:0:0:0:
248,268,66948,1,0,0:0:0:0:
210,249,67034,1,0,0:0:0:0:
168,245,67121,1,0,0:0:0:0:
127,257,67207,5,8,0:0:0:0:
75,168,67379,1,8,0:0:0:0:
19,271,67552,1,8,0:0:0:0:
69,57,67724,1,8,0:0:0:0:
102,63,67810,1,8,0:0:0:0:
134,68,67896,6,0,L|270:68,1,101.999996887207,14|0,1:0|0:0,0:0:0:0:
407,157,68241,2,0,L|303:157,1,93.5000028533936,10|0,0:0|0:0,0:0:0:0:
497,100,68586,2,0,P|516:161|492:226,1,93.5000028533936,2|0,0:0|1:0,0:0:0:0:
452,269,68931,1,8,0:0:0:0:
316,67,69103,6,0,L|432:73,1,93.5000028533936,2|0,0:0|1:0,0:0:0:0:
226,154,69448,2,0,L|110:160,1,93.5000028533936,2|8,0:0|0:0,0:0:0:0:
286,258,69793,1,2,0:0:0:0:
235,68,69965,1,2,0:0:0:0:
190,298,70138,1,0,1:0:0:0:
250,85,70310,1,8,0:0:0:0:
419,192,70483,1,0,0:0:0:0:
190,298,70655,6,0,L|78:284,1,93.5000028533936,2|0,1:0|0:0,0:0:0:0:
286,258,71000,2,0,P|292:318|265:367,1,93.5000028533936,10|0,0:0|0:0,0:0:0:0:
316,127,71345,2,0,P|394:113|428:139,1,93.5000028533936,2|0,0:0|1:0,0:0:0:0:
462,215,71690,1,8,0:0:0:0:
226,154,71862,6,0,L|110:160,1,93.5000028533936,2|0,0:0|1:0,0:0:0:0:
385,304,72207,2,0,L|501:298,1,93.5000028533936,2|8,0:0|0:0,0:0:0:0:
284,240,72552,1,0,0:0:0:0:
280,347,72724,1,2,0:0:0:0:
366,183,72896,1,0,1:0:0:0:
187,305,73069,2,0,B|115:311|115:311|38:284,1,140.25000428009,10|0,0:0|0:0,0:0:0:0:
38,249,73414,6,0,B|34:196|57:147,1,93.5000028533936,6|0,1:0|0:0,0:0:0:0:
240,60,73758,2,0,B|244:113|221:162,1,93.5000028533936,10|0,0:0|0:0,0:0:0:0:
39,27,74103,2,0,L|143:26,1,93.5000028533936,2|0,0:0|1:0,0:0:0:0:
240,60,74448,1,8,0:0:0:0:
250,238,74621,6,0,B|225:286|178:309,1,93.5000028533936,2|0,0:0|1:0,0:0:0:0:
382,182,74965,2,0,B|407:134|454:111,1,93.5000028533936,2|8,0:0|0:0,0:0:0:0:
421,326,75310,1,2,0:0:0:0:
224,150,75483,1,2,0:0:0:0:
415,313,75655,1,0,1:0:0:0:
340,64,75827,1,8,0:0:0:0:
408,302,76000,1,0,0:0:0:0:
253,321,76172,5,2,1:0:0:0:
253,321,76517,2,0,P|250:270|263:238,1,68,10|0,0:0|0:0,0:0:0:0:
381,180,76862,2,0,P|332:175|297:151,1,68,2|0,1:0|0:0,0:0:0:0:
378,53,77207,1,8,0:0:0:0:
466,202,77379,2,0,P|440:249|411:265,1,68,2|0,0:0|1:0,0:0:0:0:
282,276,77724,2,0,L|232:221,1,68,0|10,0:0|0:0,0:0:0:0:
113,169,78068,1,0,0:0:0:0:
209,83,78241,1,8,0:0:0:0:
236,225,78414,1,8,0:0:0:0:
344,69,78586,1,8,0:0:0:0:
344,69,78931,6,0,P|413:86|474:77,1,101.999996887207,6|0,1:0|0:0,0:0:0:0:
236,225,79275,2,0,P|167:242|106:233,1,93.5000028533936,10|0,0:0|0:0,0:0:0:0:
436,268,79621,2,0,L|427:375,1,93.5000028533936,0|0,0:0|1:0,0:0:0:0:
330,203,79965,1,8,0:0:0:0:
84,211,80138,6,0,P|79:266|127:312,1,93.5000028533936,2|0,0:0|1:0,0:0:0:0:
211,45,80483,2,0,L|87:58,1,93.5000028533936,2|8,0:0|0:0,0:0:0:0:
357,184,80827,1,2,0:0:0:0:
211,45,81000,1,2,0:0:0:0:
84,211,81172,1,0,1:0:0:0:
228,51,81345,1,8,0:0:0:0:
214,304,81517,1,0,0:0:0:0:
357,184,81690,6,0,P|411:184|451:205,1,93.5000028533936,2|0,1:0|0:0,0:0:0:0:
214,304,82034,2,0,L|190:205,1,93.5000028533936,10|0,0:0|0:0,0:0:0:0:
444,111,82379,2,0,P|457:160|430:220,1,93.5000028533936,2|0,0:0|1:0,0:0:0:0:
289,108,82724,1,8,0:0:0:0:
443,36,82896,6,0,P|489:50|519:99,1,93.5000028533936,2|0,0:0|1:0,0:0:0:0:
289,108,83241,2,0,L|177:113,1,93.5000028533936,2|8,0:0|0:0,0:0:0:0:
145,35,83586,1,0,0:0:0:0:
390,101,83758,2,0,P|386:142|350:188,1,93.5000028533936,2|0,0:0|1:0,0:0:0:0:
212,303,84103,2,0,P|265:290|354:330,1,140.25000428009,10|0,0:0|0:0,0:0:0:0:
316,350,84448,6,0,L|214:341,1,93.5000028533936,6|0,1:0|0:0,0:0:0:0:
29,240,84793,2,0,L|135:231,1,93.5000028533936,10|0,0:0|0:0,0:0:0:0:
355,183,85138,2,0,P|300:148|274:101,1,93.5000028533936,2|0,0:0|1:0,0:0:0:0:
423,302,85483,1,8,0:0:0:0:
215,239,85655,6,0,L|107:230,1,93.5000028533936,2|0,0:0|1:0,0:0:0:0:
290,35,86000,2,0,B|298:82|298:82|281:133,1,93.5000028533936,2|8,0:0|0:0,0:0:0:0:
120,71,86345,1,2,0:0:0:0:
197,238,86517,1,2,0:0:0:0:
290,35,86690,1,0,1:0:0:0:
201,226,86862,1,8,0:0:0:0:
398,176,87034,1,0,0:0:0:0:
205,342,87207,5,2,1:0:0:0:
205,342,87552,2,0,L|118:329,1,68,10|0,0:0|0:0,0:0:0:0:
347,271,87896,2,0,P|351:331|338:360,1,68,2|0,0:0|1:0,0:0:0:0:
197,238,88241,2,0,P|193:178|206:149,1,68,10|2,0:0|0:0,0:0:0:0:
347,271,88586,5,0,1:0:0:0:
267,73,88758,1,10,0:0:0:0:
172,207,88931,1,2,1:0:0:0:
406,178,89103,1,0,1:0:0:0:
194,363,89276,1,8,0:0:0:0:
307,151,89448,1,0,1:0:0:0:
438,348,89621,1,8,0:0:0:0:
172,207,89793,1,0,1:0:0:0:
404,137,89965,6,0,P|392:99|345:64,1,68,4|0,1:0|0:0,0:0:0:0:
272,78,90310,1,0,1:0:0:0:
165,79,90655,1,0,1:0:0:0:
215,167,91000,1,0,1:0:0:0:
268,253,91345,1,0,1:0:0:0:
321,166,91690,1,0,1:0:0:0:
374,79,92034,5,8,1:0:0:0:
165,79,92207,1,8,0:0:0:0:
275,260,92379,1,8,1:0:0:0:
270,35,92552,1,10,0:0:0:0:
275,260,92724,5,12,1:0:0:0:
275,260,93069,2,0,B|289:324|236:368,1,93.5000028533936,8|0,0:0|0:0,0:0:0:0:
346,174,93414,2,0,P|412:167|458:189,1,85,0|0,1:0|0:0,0:0:0:0:
269,75,93758,2,0,L|138:91,1,93.5000028533936,8|0,0:0|0:0,0:0:0:0:
82,246,94103,2,0,L|195:260,1,85,0|0,1:0|0:0,0:0:0:0:
46,47,94448,2,0,P|34:114|57:158,1,93.5000028533936,8|0,0:0|0:0,0:0:0:0:
166,256,94793,5,8,1:0:0:0:
113,91,94965,1,8,0:0:0:0:
82,246,95138,1,8,0:0:0:0:
234,164,95310,1,2,1:0:0:0:
9,212,95483,5,12,1:0:0:0:
9,212,95827,2,0,P|4:272|51:319,1,93.5000028533936,8|0,0:0|0:0,0:0:0:0:
234,164,96172,2,0,L|117:172,1,85,0|0,1:0|0:0,0:0:0:0:
326,270,96517,2,0,L|460:281,1,93.5000028533936,8|0,0:0|0:0,0:0:0:0:
204,274,96862,2,0,P|195:327|216:371,1,85,0|0,1:0|0:0,0:0:0:0:
358,161,97207,2,0,P|367:108|347:60,1,93.5000028533936,8|0,0:0|0:0,0:0:0:0:
260,89,97552,5,8,1:0:0:0:
354,71,97724,1,8,0:0:0:0:
228,12,97896,1,8,1:0:0:0:
357,160,98068,1,2,0:0:0:0:
482,18,98241,5,12,1:0:0:0:
482,18,98586,2,0,L|476:99,1,68,10|0,0:0|0:0,0:0:0:0:
352,228,98931,2,0,L|358:147,1,68,2|0,1:0|0:0,0:0:0:0:
407,347,99276,2,0,P|361:359|319:346,1,68,10|0,0:0|0:0,0:0:0:0:
163,293,99621,6,0,P|209:281|251:294,1,68,2|0,1:0|0:0,0:0:0:0:
207,366,99965,1,10,1:0:0:0:
103,234,100138,1,0,0:0:0:0:
91,351,100310,1,8,1:0:0:0:
205,194,100483,1,8,0:0:0:0:
19,127,100655,1,8,0:0:0:0:
19,127,101000,6,0,L|113:120,1,93.5000028533936,12|0,1:0|0:0,0:0:0:0:
286,210,101345,2,0,P|215:192|183:205,1,85,8|0,0:0|0:0,0:0:0:0:
322,342,101689,2,0,L|408:347,1,85,0|0,1:0|0:0,0:0:0:0:
228,284,102034,2,0,P|208:342|215:378,1,93.5000028533936,8|0,0:0|0:0,0:0:0:0:
393,216,102379,2,0,L|400:114,1,85,0|0,1:0|0:0,0:0:0:0:
204,100,102724,2,0,L|206:237,1,93.5000028533936,8|0,0:0|0:0,0:0:0:0:
300,220,103069,5,8,1:0:0:0:
105,165,103241,1,8,0:0:0:0:
232,304,103414,1,8,1:0:0:0:
104,264,103586,1,2,0:0:0:0:
209,103,103758,5,12,1:0:0:0:
209,103,104103,2,0,P|279:100|317:73,1,93.5000028533936,8|0,0:0|0:0,0:0:0:0:
88,75,104448,2,0,L|92:175,1,85,0|0,1:0|0:0,0:0:0:0:
232,304,104793,2,0,L|228:203,1,93.5000028533936,8|0,0:0|0:0,0:0:0:0:
148,303,105138,2,0,P|195:313|232:303,1,85,0|0,1:0|0:0,0:0:0:0:
407,195,105483,2,0,L|395:312,1,93.5000028533936,8|0,0:0|0:0,0:0:0:0:
500,278,105827,5,8,1:0:0:0:
443,108,106000,1,8,0:0:0:0:
407,195,106172,1,8,0:0:0:0:
390,29,106345,1,2,1:0:0:0:
226,200,106517,5,12,1:0:0:0:
226,200,106862,2,0,L|324:197,1,93.5000028533936,8|0,0:0|0:0,0:0:0:0:
145,140,107207,2,0,P|127:205|124:247,1,85,0|0,1:0|0:0,0:0:0:0:
397,288,107552,2,0,P|407:221|406:184,1,93.5000028533936,8|0,0:0|0:0,0:0:0:0:
184,322,107896,2,0,P|242:341|298:338,1,85,0|0,1:0|0:0,0:0:0:0:
331,87,108241,2,0,P|273:68|205:73,1,93.5000028533936,8|0,0:0|0:0,0:0:0:0:
266,164,108586,5,8,1:0:0:0:
403,40,108758,1,8,0:0:0:0:
267,182,108931,1,8,1:0:0:0:
140,40,109103,1,2,0:0:0:0:
103,218,109276,5,12,1:0:0:0:
103,218,109621,2,0,L|103:325,1,93.5000028533936,8|0,0:0|0:0,0:0:0:0:
267,182,109965,2,0,P|270:128|257:88,1,85,0|0,1:0|0:0,0:0:0:0:
213,318,110310,2,0,P|281:331|337:312,1,93.5000028533936,8|0,0:0|0:0,0:0:0:0:
461,210,110655,2,0,L|352:221,1,85,0|8,1:0|0:0,0:0:0:0:
267,182,111000,5,0,1:0:0:0:
303,326,111172,1,0,1:0:0:0:
197,139,111345,1,8,0:0:0:0:
408,127,111517,1,0,1:0:0:0:
192,223,111690,1,8,0:0:0:0:
230,22,111862,1,0,1:0:0:0:
485,146,112034,6,0,P|451:195|331:140,1,203.999993774414,14|8,0:0|0:0,0:0:0:0:
466,62,112552,1,0,0:0:0:0:
406,207,112724,2,0,P|401:269|408:313,1,101.999996887207,0|0,0:0|1:0,0:0:0:0:
321,336,113069,1,8,0:0:0:0:
496,303,113241,1,0,0:0:0:0:
320,183,113414,1,0,1:0:0:0:
321,336,113585,6,0,P|251:325|214:305,1,101.999996887207,2|10,0:0|0:0,0:0:0:0:
324,188,113931,1,2,0:0:0:0:
324,188,114103,1,2,0:0:0:0:
108,169,114276,1,2,1:0:0:0:
226,127,114447,2,0,L|221:234,1,101.999996887207,10|2,0:0|0:0,0:0:0:0:
359,355,114793,6,0,B|380:305|380:305|328:142,1,203.999993774414,2|8,1:0|0:0,0:0:0:0:
226,127,115310,1,0,0:0:0:0:
108,169,115483,1,0,0:0:0:0:
338,167,115655,1,0,1:0:0:0:
338,167,115827,2,0,P|291:249|202:232,1,152.999995330811,8|0,0:0|0:0,0:0:0:0:
199,238,116172,6,0,P|176:290|183:351,1,101.999996887207,0|0,1:0|0:0,0:0:0:0:
416,335,116517,2,0,L|292:345,1,101.999996887207,8|0,0:0|0:0,0:0:0:0:
476,210,116862,1,0,0:0:0:0:
494,372,117034,1,0,1:0:0:0:
335,162,117207,2,0,B|323:150|311:138|299:125|299:125|295:107|285:70|331:4,1,127.5,8|0,0:0|0:0,0:0:0:0:
335,162,117552,6,0,P|251:185|129:159,1,203.999993774414,4|8,1:0|0:0,0:0:0:0:
196,68,118069,1,0,0:0:0:0:
45,202,118241,2,0,B|34:255|34:255|45:319,1,101.999996887207,0|0,0:0|1:0,0:0:0:0:
137,163,118586,2,0,P|90:114|29:108,2,101.999996887207,8|0|0,0:0|0:0|1:0,0:0:0:0:
211,260,119103,5,2,0:0:0:0:
211,260,119276,1,10,0:0:0:0:
324,346,119448,1,2,0:0:0:0:
324,346,119621,1,2,0:0:0:0:
379,252,119793,1,2,1:0:0:0:
225,168,119965,1,10,0:0:0:0:
231,342,120138,1,2,0:0:0:0:
458,312,120310,6,0,B|482:278|482:278|482:92,1,203.999993774414,2|8,1:0|0:0,0:0:0:0:
397,95,120827,1,0,0:0:0:0:
315,230,121000,1,0,0:0:0:0:
236,132,121172,1,0,0:0:0:0:
317,60,121344,2,0,P|254:23|166:51,1,152.999995330811,8|0,0:0|0:0,0:0:0:0:
141,52,121690,2,0,L|23:66,1,101.999996887207,0|0,1:0|0:0,0:0:0:0:
18,271,122034,1,8,0:0:0:0:
116,183,122207,1,0,0:0:0:0:
215,340,122379,2,0,L|318:341,1,101.999996887207,0|0,0:0|1:0,0:0:0:0:
414,254,122724,1,8,0:0:0:0:
485,373,122896,1,0,0:0:0:0:
510,173,123069,6,0,B|446:192|416:145|416:145|386:192|323:169,1,203.999993774414,4|8,1:0|0:0,0:0:0:0:
225,55,123586,1,0,0:0:0:0:
400,45,123758,2,0,L|508:50,1,101.999996887207,0|0,0:0|1:0,0:0:0:0:
217,164,124103,2,0,L|109:169,1,101.999996887207,8|0,0:0|0:0,0:0:0:0:
225,55,124448,1,0,1:0:0:0:
88,280,124621,5,2,0:0:0:0:
88,280,124793,1,10,0:0:0:0:
56,76,124965,1,2,0:0:0:0:
56,76,125138,1,2,0:0:0:0:
217,164,125310,1,2,1:0:0:0:
34,176,125483,1,10,0:0:0:0:
170,272,125655,1,2,0:0:0:0:
56,76,125827,6,0,B|160:62|160:62|268:76,1,203.999993774414,2|8,1:0|0:0,0:0:0:0:
333,190,126344,1,0,0:0:0:0:
170,272,126517,2,0,P|152:341|163:374,1,101.999996887207,0|0,0:0|1:0,0:0:0:0:
181,176,126862,2,0,L|336:191,1,152.999995330811,8|0,0:0|0:0,0:0:0:0:
365,198,127206,2,0,P|409:190|470:117,1,101.999996887207,0|0,1:0|0:0,0:0:0:0:
324,111,127552,1,8,0:0:0:0:
271,282,127724,2,0,L|140:269,1,101.999996887207
432,355,128069,1,0,1:0:0:0:
430,246,128241,1,8,0:0:0:0:
322,379,128414,1,0,0:0:0:0:
365,198,128586,6,0,P|428:164|510:261,1,203.999993774414,4|8,1:0|0:0,0:0:0:0:
432,355,129103,1,0,0:0:0:0:
311,255,129276,2,0,P|232:249|191:261,1,101.999996887207,0|0,0:0|1:0,0:0:0:0:
156,341,129621,1,8,0:0:0:0:
196,157,129793,1,0,0:0:0:0:
0,256,129965,6,0,L|107:256,1,101.999996887207,0|0,1:0|0:0,0:0:0:0:
298,157,130310,2,0,L|189:158,1,101.999996887207,8|0,0:0|0:0,0:0:0:0:
391,151,130655,2,0,P|388:188|346:236,1,101.999996887207,0|0,0:0|1:0,0:0:0:0:
111,167,131000,2,0,P|114:130|156:82,1,101.999996887207,8|0,0:0|0:0,0:0:0:0:
301,302,131345,6,0,P|212:344|118:294,2,203.999993774414,0|8|0,1:0|0:0|0:0,0:0:0:0:
297,158,132207,1,0,1:0:0:0:
428,268,132379,2,0,L|427:377,1,101.999996887207,8|0,0:0|0:0,0:0:0:0:
297,158,132724,5,8,1:0:0:0:
428,268,132896,1,8,0:0:0:0:
374,110,133069,1,8,0:0:0:0:
317,306,133241,1,8,0:0:0:0:
496,213,133414,1,8,0:0:0:0:
235,216,133586,1,8,0:0:0:0:
461,135,133758,1,8,0:0:0:0:
424,368,133931,1,8,0:0:0:0:
298,160,134103,6,0,L|287:51,1,93.5000028533936,14|0,1:0|0:0,0:0:0:0:
155,238,134448,2,0,L|144:347,1,93.5000028533936,10|0,0:0|0:0,0:0:0:0:
207,137,134793,2,0,P|140:125|97:143,1,93.5000028533936,2|0,0:0|1:0,0:0:0:0:
52,224,135138,1,8,0:0:0:0:
267,275,135310,6,0,L|403:280,1,93.5000028533936,2|0,0:0|1:0,0:0:0:0:
457,121,135655,2,0,P|381:123|339:107,1,93.5000028533936,2|8,0:0|0:0,0:0:0:0:
287,36,136000,1,2,0:0:0:0:
336,193,136172,1,2,0:0:0:0:
268,42,136345,1,0,1:0:0:0:
266,275,136517,1,8,0:0:0:0:
138,146,136690,1,0,0:0:0:0:
336,193,136862,6,0,L|469:201,1,93.5000028533936,2|0,1:0|0:0,0:0:0:0:
291,350,137207,2,0,P|228:346|194:303,1,93.5000028533936,10|0,0:0|0:0,0:0:0:0:
138,146,137552,2,0,B|130:195|130:195|98:248,1,93.5000028533936,2|0,0:0|1:0,0:0:0:0:
0,258,137896,1,8,0:0:0:0:
126,68,138069,6,0,P|179:77|214:127,1,93.5000028533936,2|0,0:0|1:0,0:0:0:0:
380,183,138414,2,0,L|265:198,1,93.5000028533936,2|8,0:0|0:0,0:0:0:0:
206,327,138758,1,2,0:0:0:0:
280,120,138931,1,2,0:0:0:0:
369,269,139103,1,0,1:0:0:0:
196,252,139276,2,0,P|132:346|155:384,1,140.25000428009,10|0,0:0|0:0,0:0:0:0:
174,372,139621,6,0,L|273:360,1,93.5000028533936,6|0,1:0|0:0,0:0:0:0:
426,204,139965,2,0,P|373:189|328:193,1,93.5000028533936,10|0,0:0|0:0,0:0:0:0:
453,381,140310,2,0,L|463:262,1,93.5000028533936,2|0,0:0|1:0,0:0:0:0:
506,185,140655,1,8,0:0:0:0:
274,146,140827,6,0,P|259:202|293:252,1,93.5000028533936,2|0,0:0|1:0,0:0:0:0:
364,85,141172,2,0,P|316:48|271:47,1,93.5000028533936,2|8,0:0|0:0,0:0:0:0:
180,87,141517,1,2,0:0:0:0:
271,235,141690,1,2,0:0:0:0:
179,98,141862,1,0,1:0:0:0:
152,317,142034,1,8,0:0:0:0:
117,165,142207,1,0,0:0:0:0:
291,325,142379,5,2,1:0:0:0:
291,325,142724,2,0,L|370:320,1,68,10|0,0:0|0:0,0:0:0:0:
470,203,143069,2,0,L|391:208,1,68,2|0,1:0|0:0,0:0:0:0:
318,152,143414,1,10,0:0:0:0:
229,217,143586,6,0,P|210:177|207:137,1,68,2|0,0:0|1:0,0:0:0:0:
402,207,143931,2,0,L|397:279,1,68,0|10,0:0|0:0,0:0:0:0:
313,348,144276,1,0,0:0:0:0:
210,294,144448,1,8,0:0:0:0:
104,177,144621,1,8,0:0:0:0:
217,52,144793,1,8,0:0:0:0:
217,52,145138,6,0,P|290:58|345:42,1,101.999996887207,6|0,1:0|0:0,0:0:0:0:
93,5,145483,2,0,P|84:67|104:106,1,93.5000028533936,10|0,0:0|0:0,0:0:0:0:
211,288,145827,2,0,P|220:226|200:187,1,93.5000028533936,2|0,0:0|1:0,0:0:0:0:
104,177,146172,1,8,0:0:0:0:
123,297,146345,6,0,P|168:306|218:279,1,93.5000028533936,2|0,0:0|1:0,0:0:0:0:
425,226,146690,2,0,P|380:217|330:244,1,93.5000028533936,2|8,0:0|0:0,0:0:0:0:
392,333,147034,1,2,0:0:0:0:
462,146,147207,1,2,0:0:0:0:
391,319,147379,1,0,1:0:0:0:
321,115,147552,1,8,0:0:0:0:
436,233,147724,1,0,0:0:0:0:
204,207,147896,6,0,L|202:83,1,93.5000028533936,2|0,1:0|0:0,0:0:0:0:
25,150,148241,2,0,P|19:210|43:248,1,93.5000028533936,10|0,0:0|0:0,0:0:0:0:
166,334,148586,2,0,L|275:335,1,93.5000028533936,2|0,0:0|1:0,0:0:0:0:
319,239,148931,5,8,0:0:0:0:
102,282,149103,2,0,P|83:343|102:388,1,93.5000028533936,2|0,0:0|1:0,0:0:0:0:
319,239,149448,2,0,L|321:132,1,93.5000028533936,2|8,0:0|0:0,0:0:0:0:
218,24,149793,1,2,0:0:0:0:
222,205,149965,1,2,0:0:0:0:
384,101,150138,1,0,1:0:0:0:
162,151,150310,2,0,P|140:207|192:281,1,140.25000428009,10|0,0:0|0:0,0:0:0:0:
212,286,150655,6,0,L|314:288,1,93.5000028533936,6|0,1:0|0:0,0:0:0:0:
162,151,151000,2,0,L|60:153,1,93.5000028533936,10|0,0:0|0:0,0:0:0:0:
181,370,151345,2,0,P|211:319|208:271,1,93.5000028533936,2|0,0:0|1:0,0:0:0:0:
102,259,151690,1,8,0:0:0:0:
306,357,151862,6,0,L|431:355,1,93.5000028533936,2|0,0:0|1:0,0:0:0:0:
253,149,152207,2,0,B|204:140|204:140|136:156,1,93.5000028533936,2|8,0:0|0:0,0:0:0:0:
214,285,152552,1,2,0:0:0:0:
377,155,152724,1,2,0:0:0:0:
226,288,152896,1,0,1:0:0:0:
274,60,153069,1,8,0:0:0:0:
339,250,153241,1,0,0:0:0:0:
408,59,153414,5,2,1:0:0:0:
339,250,153758,2,0,P|286:235|265:215,1,68,10|0,0:0|0:0,0:0:0:0:
435,252,154103,2,0,P|433:279|405:322,1,68,2|0,0:0|1:0,0:0:0:0:
395,172,154448,2,0,P|440:163|482:178,1,68,10|2,0:0|0:0,0:0:0:0:
339,250,154793,5,0,1:0:0:0:
338,108,154965,1,10,0:0:0:0:
259,282,155138,1,2,1:0:0:0:
395,172,155310,1,0,1:0:0:0:
181,137,155483,1,8,0:0:0:0:
422,92,155655,1,0,1:0:0:0:
326,336,155827,1,8,0:0:0:0:
252,87,156000,1,0,1:0:0:0:
132,327,156172,5,12,1:0:0:0:
89,138,156517,2,0,P|152:131|201:144,1,93.5000028533936,8|0,0:0|0:0,0:0:0:0:
3,154,156862,2,0,L|6:52,1,85,0|0,1:0|0:0,0:0:0:0:
135,233,157207,2,0,L|131:351,1,93.5000028533936,8|0,0:0|0:0,0:0:0:0:
274,198,157552,2,0,P|280:131|299:100,1,85,0|0,1:0|0:0,0:0:0:0:
322,298,157896,2,0,P|260:311|203:273,1,93.5000028533936,8|0,0:0|0:0,0:0:0:0:
355,217,158241,5,8,1:0:0:0:
407,334,158414,1,8,0:0:0:0:
322,298,158586,1,8,1:0:0:0:
494,274,158758,1,2,0:0:0:0:
386,142,158931,5,12,1:0:0:0:
386,142,159276,2,0,P|298:139|265:122,1,93.5000028533936,8|0,0:0|0:0,0:0:0:0:
484,89,159621,2,0,L|480:190,1,85,0|0,1:0|0:0,0:0:0:0:
234,194,159965,2,0,P|211:143|222:101,1,85,8|0,0:0|0:0,0:0:0:0:
324,298,160310,2,0,P|267:330|211:324,1,85,0|0,1:0|0:0,0:0:0:0:
60,300,160655,2,0,P|117:268|182:277,1,93.5000028533936,8|0,0:0|0:0,0:0:0:0:
135,364,161000,5,8,1:0:0:0:
248,331,161172,1,8,0:0:0:0:
234,194,161345,1,8,0:0:0:0:
152,177,161517,1,2,1:0:0:0:
324,298,161690,5,12,1:0:0:0:
324,298,162034,2,0,L|444:300,1,93.5000028533936,8|0,0:0|0:0,0:0:0:0:
234,194,162379,2,0,P|171:187|131:158,1,85,0|0,1:0|0:0,0:0:0:0:
368,98,162724,2,0,B|376:144|376:144|364:199,1,85,8|0,0:0|0:0,0:0:0:0:
211,16,163069,2,0,L|325:14,1,85,0|0,1:0|0:0,0:0:0:0:
152,177,163414,2,0,L|28:179,1,93.5000028533936,8|0,0:0|0:0,0:0:0:0:
76,78,163758,5,8,1:0:0:0:
68,263,163931,1,8,0:0:0:0:
152,177,164103,1,8,1:0:0:0:
0,126,164276,1,2,0:0:0:0:
211,16,164448,5,12,1:0:0:0:
220,177,164793,2,0,L|121:177,1,68,10|0,0:0|0:0,0:0:0:0:
68,263,165138,2,0,P|112:294|141:295,1,68,2|0,1:0|0:0,0:0:0:0:
288,219,165483,2,0,P|300:176|289:138,1,68,10|0,0:0|0:0,0:0:0:0:
230,92,165827,5,2,1:0:0:0:
208,259,166000,1,0,0:0:0:0:
387,263,166172,2,0,L|398:185,1,68,10|0,0:0|0:0,0:0:0:0:
432,115,166517,1,8,0:0:0:0:
472,293,166690,1,8,0:0:0:0:
296,154,166862,1,8,0:0:0:0:
296,154,167207,6,0,L|293:40,1,93.5000028533936,4|0,1:0|0:0,0:0:0:0:
208,259,167552,2,0,L|159:149,1,85,8|0,0:0|0:0,0:0:0:0:
208,347,167896,2,0,P|261:333|288:298,1,85,0|0,1:0|0:0,0:0:0:0:
110,252,168241,2,0,L|98:379,1,93.5000028533936,8|0,0:0|0:0,0:0:0:0:
9,168,168586,2,0,P|50:161|121:177,1,85,0|0,1:0|0:0,0:0:0:0:
300,259,168931,2,0,P|259:266|185:249,1,93.5000028533936,8|0,0:0|0:0,0:0:0:0:
254,167,169276,5,8,1:0:0:0:
207,258,169448,1,8,0:0:0:0:
348,152,169621,1,8,1:0:0:0:
191,93,169793,1,2,0:0:0:0:
412,76,169965,5,12,1:0:0:0:
412,76,170310,2,0,P|451:133|439:193,1,93.5000028533936,8|0,0:0|0:0,0:0:0:0:
267,335,170655,2,0,B|263:292|314:237,1,85,0|0,1:0|0:0,0:0:0:0:
491,285,171000,2,0,P|443:283|389:244,1,93.5000028533936,8|0,0:0|0:0,0:0:0:0:
263,152,171345,2,0,L|348:152,1,85,0|0,1:0|0:0,0:0:0:0:
164,242,171690,2,0,L|64:236,1,93.5000028533936,8|0,0:0|0:0,0:0:0:0:
40,138,172034,5,8,1:0:0:0:
12,298,172207,1,8,0:0:0:0:
164,242,172379,1,8,0:0:0:0:
141,143,172552,1,2,1:0:0:0:
235,346,172724,5,12,1:0:0:0:
235,346,173069,2,0,L|336:348,1,93.5000028533936,8|0,0:0|0:0,0:0:0:0:
459,278,173414,2,0,B|447:235|447:235|456:165,1,85,0|0,1:0|0:0,0:0:0:0:
303,115,173758,2,0,P|296:180|262:206,1,93.5000028533936,8|0,0:0|0:0,0:0:0:0:
131,64,174103,2,0,L|222:68,1,85,0|0,1:0|0:0,0:0:0:0:
318,272,174448,2,0,B|268:299|218:252,1,93.5000028533936,8|0,0:0|0:0,0:0:0:0:
174,194,174793,5,8,1:0:0:0:
318,272,174965,1,8,0:0:0:0:
128,267,175138,1,8,1:0:0:0:
275,197,175310,1,2,0:0:0:0:
216,370,175483,5,12,1:0:0:0:
216,370,175827,2,0,P|277:363|317:336,1,93.5000028533936,8|0,0:0|0:0,0:0:0:0:
416,238,176172,2,0,L|417:329,1,85,0|0,1:0|0:0,0:0:0:0:
462,161,176517,2,0,P|421:147|360:169,1,93.5000028533936,8|0,0:0|0:0,0:0:0:0:
321,238,176862,5,0,1:0:0:0:
329,88,177034,1,8,0:0:0:0:
246,268,177207,2,0,P|276:310|319:319,1,85,8|0,1:0|1:0,0:0:0:0:
194,170,177552,1,8,0:0:0:0:
321,238,177724,1,0,1:0:0:0:
244,65,177896,1,8,0:0:0:0:
246,268,178069,1,0,1:0:0:0:
50,365,178241,6,0,B|24:325|24:325|36:153,1,203.999993774414,4|0,0:0|0:0,0:0:0:0:
194,170,178758,1,0,1:0:0:0:
247,268,178931,2,0,B|293:292|293:292|380:293,1,101.999996887207,8|0,0:0|1:0,0:0:0:0:
460,241,179276,1,0,0:0:0:0:
314,212,179448,1,0,1:0:0:0:
189,344,179621,1,0,1:0:0:0:
137,237,179792,6,0,P|107:184|124:124,1,101.999996887207,2|2,0:0|1:0,0:0:0:0:
314,212,180138,1,2,1:0:0:0:
314,212,180310,1,10,0:0:0:0:
220,62,180483,1,2,1:0:0:0:
221,234,180654,2,0,L|220:348,1,101.999996887207,2|2,0:0|0:0,0:0:0:0:
288,123,181000,6,0,B|352:123|352:123|416:141|416:141|500:141,1,203.999993774414,2|0,1:0|0:0,0:0:0:0:
376,8,181517,1,0,1:0:0:0:
314,212,181690,2,0,B|252:217|252:217|182:193,1,101.999996887207,8|0,0:0|1:0,0:0:0:0:
116,125,182034,1,0,0:0:0:0:
288,123,182207,1,0,1:0:0:0:
241,308,182379,1,0,1:0:0:0:
409,263,182552,2,0,P|420:200|408:163,1,101.999996887207,0|0,0:0|1:0,0:0:0:0:
288,123,182896,1,0,1:0:0:0:
332,312,183069,1,8,0:0:0:0:
332,312,183414,5,8,0:0:0:0:
386,81,183586,1,8,0:0:0:0:
186,91,183758,2,0,B|160:165|56:160|56:160|90:114,1,203.999993774414,12|0,1:0|0:0,0:0:0:0:
161,7,184276,1,0,1:0:0:0:
240,185,184448,2,0,P|169:237|110:251,1,101.999996887207,8|0,0:0|1:0,0:0:0:0:
26,293,184793,1,0,0:0:0:0:
83,125,184965,1,0,1:0:0:0:
156,241,185138,1,0,1:0:0:0:
262,332,185310,6,0,L|381:318,1,101.999996887207,2|2,0:0|1:0,0:0:0:0:
244,189,185655,1,2,1:0:0:0:
244,189,185827,1,10,0:0:0:0:
350,144,186000,1,2,1:0:0:0:
431,257,186172,2,0,P|487:244|534:214,1,101.999996887207,2|2,0:0|0:0,0:0:0:0:
432,113,186517,6,0,P|358:57|265:118,1,203.999993774414,2|0,1:0|0:0,0:0:0:0:
431,257,187034,1,0,1:0:0:0:
288,322,187207,2,0,B|235:336|235:336|141:330,1,101.999996887207,8|0,0:0|1:0,0:0:0:0:
50,300,187552,1,0,0:0:0:0:
187,332,187724,1,0,1:0:0:0:
206,191,187896,2,0,L|208:90,1,101.999996887207,0|0,1:0|0:0,0:0:0:0:
79,59,188241,1,0,1:0:0:0:
79,59,188413,1,0,1:0:0:0:
206,191,188586,1,8,0:0:0:0:
210,195,188931,5,8,0:0:0:0:
50,300,189103,1,8,0:0:0:0:
191,336,189276,2,0,B|257:316|330:367|402:333,1,203.999993774414,12|0,1:0|0:0,0:0:0:0:
336,180,189793,1,0,1:0:0:0:
204,137,189965,2,0,P|177:233|181:261,1,101.999996887207,8|0,0:0|1:0,0:0:0:0:
191,336,190310,1,0,0:0:0:0:
336,180,190483,1,0,1:0:0:0:
336,50,190655,1,0,1:0:0:0:
212,35,190827,6,0,L|201:160,1,101.999996887207,2|2,0:0|1:0,0:0:0:0:
317,150,191172,1,2,1:0:0:0:
317,150,191345,1,10,0:0:0:0:
417,9,191517,1,2,1:0:0:0:
317,150,191689,2,0,P|306:82|316:26,1,101.999996887207,2|2,0:0|0:0,0:0:0:0:
419,145,192034,6,0,B|419:212|419:212|436:288|436:288|435:353,1,203.999993774414,2|0,1:0|0:0,0:0:0:0:
512,244,192552,1,0,1:0:0:0:
419,145,192724,2,0,P|359:146|296:154,1,101.999996887207,8|0,0:0|1:0,0:0:0:0:
266,276,193069,1,0,0:0:0:0:
115,280,193241,1,0,1:0:0:0:
112,137,193414,2,0,L|112:29,1,101.999996887207,0|0,1:0|0:0,0:0:0:0:
218,144,193758,1,0,1:0:0:0:
25,226,193931,1,0,1:0:0:0:
155,373,194103,1,8,0:0:0:0:
155,373,194448,5,8,0:0:0:0:
112,137,194621,1,8,0:0:0:0:
286,291,194793,2,0,B|335:314|335:314|494:315,1,203.999993774414,12|0,1:0|0:0,0:0:0:0:
386,177,195310,1,0,1:0:0:0:
286,291,195483,2,0,P|212:317|159:296,1,101.999996887207,8|0,0:0|1:0,0:0:0:0:
217,209,195827,1,0,0:0:0:0:
242,93,196000,5,0,1:0:0:0:
386,177,196172,2,0,P|459:175|487:159,1,101.999996887207,0|0,1:0|0:0,0:0:0:0:
242,93,196517,2,0,P|214:154|223:208,1,101.999996887207,0|0,1:0|1:0,0:0:0:0:
383,76,196862,2,0,P|370:20|332:-12,1,101.999996887207,8|0,0:0|1:0,0:0:0:0:
175,27,197207,1,0,0:0:0:0:
303,164,197379,1,0,0:0:0:0:
123,199,197552,6,0,P|40:200|-1:179,1,101.999996887207,0|0,1:0|0:0,0:0:0:0:
224,327,197896,2,0,L|344:331,1,101.999996887207,0|0,0:0|1:0,0:0:0:0:
227,230,198241,1,8,0:0:0:0:
129,353,198414,1,0,1:0:0:0:
405,277,198586,2,0,L|387:159,1,101.999996887207,0|0,0:0|1:0,0:0:0:0:
227,230,198931,5,0,1:0:0:0:
390,177,199103,1,0,0:0:0:0:
268,92,199276,2,0,L|153:94,1,101.999996887207,0|0,1:0|1:0,0:0:0:0:
226,229,199621,1,8,0:0:0:0:
376,90,199793,1,0,0:0:0:0:
400,284,199965,1,8,0:0:0:0:
268,92,200138,1,8,0:0:0:0:
274,321,200310,6,0,B|225:337|225:337|137:296|113:263|135:167|235:186|228:248,1,297.5,14|0,0:0|0:0,0:0:0:0:
85,318,201690,2,0,P|68:262|92:181,1,127.5
163,129,202379,2,0,B|194:134|194:134|242:128,1,63.75
322,101,202724,2,0,B|359:120|415:34|415:34|377:165|380:263|380:263|418:226|474:244|494:264|492:314|471:344|470:365|445:363|405:363|366:370|366:370|320:346,1,680
190,258,205827,6,0,B|119:246|49:281|49:281|61:220|50:198,1,212.5,2|0,0:0|0:0,0:0:0:0:
134,114,206862,2,0,P|193:102|206:95,1,63.75
276,76,207207,2,0,B|293:134|400:99|400:99|366:141|385:181,1,212.5
459,239,208241,2,0,B|489:273|448:323|448:323|432:277|389:258|357:264|316:264|296:284|269:305|272:351|297:363|355:371|374:335|338:287|317:237|273:273|259:198|259:198|238:239|176:254|171:227|144:284|144:284|98:253|65:305,1,722.5
77,140,211344,5,2,0:0:0:0:
87,121,211430,1,0,0:0:0:0:
101,105,211516,1,0,0:0:0:0:
117,91,211602,1,0,0:0:0:0:
134,79,211688,1,0,0:0:0:0:
154,70,211775,1,0,0:0:0:0:
174,65,211861,1,0,0:0:0:0:
195,62,211947,1,0,0:0:0:0:
215,66,212034,2,0,L|266:74,3,29.7499990921021,2|2|2|0,0:0|0:0|0:0|0:0,0:0:0:0:
202,162,212379,2,0,L|152:172,3,29.7499990921021
284,145,212723,5,2,0:0:0:0:
299,169,212809,1,0,0:0:0:0:
323,188,212895,1,0,0:0:0:0:
351,197,212981,1,0,0:0:0:0:
380,196,213067,1,0,0:0:0:0:
407,191,213154,1,0,0:0:0:0:
443,210,213240,1,0,0:0:0:0:
468,242,213326,1,0,0:0:0:0:
483,275,213413,2,0,L|484:321,3,29.7499990921021,2|2|2|0,0:0|0:0|0:0|0:0,0:0:0:0:
374,319,213758,2,0,L|376:276,3,29.7499990921021
276,352,214103,5,2,0:0:0:0:
241,361,214189,1,0,0:0:0:0:
206,356,214275,1,0,0:0:0:0:
176,338,214361,1,0,0:0:0:0:
155,309,214447,1,0,0:0:0:0:
150,278,214534,1,0,0:0:0:0:
124,249,214620,1,0,0:0:0:0:
89,232,214706,1,0,0:0:0:0:
55,222,214792,2,0,L|1:215,3,29.7499990921021,2|2|2|0,0:0|0:0|0:0|0:0,0:0:0:0:
131,109,215137,2,0,L|173:112,3,29.7499990921021
65,62,215482,5,2,0:0:0:0:
90,29,215568,1,0,0:0:0:0:
126,9,215654,1,0,0:0:0:0:
167,4,215740,1,0,0:0:0:0:
207,14,215826,1,0,0:0:0:0:
241,39,215913,1,0,0:0:0:0:
277,74,215999,1,0,0:0:0:0:
324,90,216085,1,0,0:0:0:0:
375,90,216172,2,0,L|417:84,3,29.7499990921021,2|2|2|0,0:0|0:0|0:0|0:0,0:0:0:0:
311,219,216516,2,0,L|262:215,3,29.7499990921021
422,251,216861,5,2,0:0:0:0:
408,283,216947,1,0,0:0:0:0:
385,310,217033,1,0,0:0:0:0:
354,328,217119,1,0,0:0:0:0:
319,336,217205,1,0,0:0:0:0:
284,332,217292,1,0,0:0:0:0:
251,310,217379,1,0,0:0:0:0:
214,297,217465,1,0,0:0:0:0:
169,298,217551,2,0,L|116:304,3,29.7499990921021,2|2|2|0,0:0|0:0|0:0|0:0,0:0:0:0:
217,157,217896,2,0,L|264:152,3,29.7499990921021
130,64,218241,5,2,0:0:0:0:
92,72,218327,1,0,0:0:0:0:
59,93,218413,1,0,0:0:0:0:
35,123,218499,1,0,0:0:0:0:
26,157,218585,1,0,0:0:0:0:
27,192,218672,1,0,0:0:0:0:
43,220,218758,1,0,0:0:0:0:
55,252,218844,1,0,0:0:0:0:
53,283,218930,2,0,L|44:329,3,29.7499990921021,2|2|2|0,0:0|0:0|0:0|0:0,0:0:0:0:
206,279,219275,2,0,L|211:232,3,29.7499990921021
125,350,219621,6,0,B|172:358|226:325|304:242|221:205|102:232|177:303|194:344|258:372|296:360|347:356|358:291|358:291|374:357|422:361|474:358|419:339|479:310|479:310|418:298|424:250,1,658.75,2|0,0:0|0:0,0:0:0:0:
394,231,222379,6,0,P|396:164|415:108,1,93.5000028533936,8|0,0:0|0:0,0:0:0:0:
481,38,222724,1,0,0:0:0:0:
313,167,222896,2,0,P|261:176|217:158,1,85,8|0,0:0|0:0,0:0:0:0:
272,45,223241,1,0,0:0:0:0:
180,252,223414,2,0,L|89:247,1,85,8|0,0:0|0:0,0:0:0:0:
82,85,223758,6,0,P|143:93|205:73,1,93.5000028533936,8|0,0:0|0:0,0:0:0:0:
74,5,224103,1,0,0:0:0:0:
14,153,224276,2,0,L|15:253,1,85,8|0,0:0|0:0,0:0:0:0:
111,321,224621,1,0,0:0:0:0:
260,157,224793,2,0,B|275:118|275:118|278:47,1,85,8|0,0:0|0:0,0:0:0:0:
180,225,225138,6,0,P|225:263|286:258,1,93.5000028533936,8|0,0:0|0:0,0:0:0:0:
356,183,225483,1,0,0:0:0:0:
173,139,225655,2,0,P|120:158|97:202,1,85,8|0,0:0|0:0,0:0:0:0:
109,307,226000,1,0,0:0:0:0:
305,345,226172,2,0,L|394:299,1,85,8|0,0:0|0:0,0:0:0:0:
173,139,226517,6,0,P|160:191|187:258,2,93.5000028533936,8|0|0,0:0|0:0|0:0,0:0:0:0:
297,66,227034,2,0,L|391:65,2,85,8|0|0,0:0|0:0|0:0,0:0:0:0:
125,59,227552,2,0,B|79:84|79:84|60:192,1,127.5,8|0,0:0|0:0,0:0:0:0:
68,194,227896,6,0,L|84:322,1,93.5000028533936,8|0,0:0|0:0,0:0:0:0:
201,324,228241,1,0,0:0:0:0:
380,245,228414,2,0,B|401:208|401:208|406:145,1,85,8|0,0:0|0:0,0:0:0:0:
295,99,228758,1,0,0:0:0:0:
351,321,228931,2,0,P|396:327|440:303,1,85,8|0,0:0|0:0,0:0:0:0:
253,189,229276,6,0,L|119:215,1,93.5000028533936,8|0,0:0|0:0,0:0:0:0:
202,322,229621,1,0,0:0:0:0:
380,245,229793,2,0,P|432:236|469:200,1,85,8|0,0:0|0:0,0:0:0:0:
337,169,230138,1,0,0:0:0:0:
202,322,230310,2,0,P|132:334|69:304,1,127.5,8|0,0:0|0:0,0:0:0:0:
57,282,230655,6,0,L|41:154,1,93.5000028533936,8|0,0:0|0:0,0:0:0:0:
138,145,231000,1,0,0:0:0:0:
278,283,231172,2,0,P|279:358|253:387,1,85,8|0,0:0|0:0,0:0:0:0:
208,239,231517,1,0,0:0:0:0:
380,245,231690,2,0,L|478:256,1,85,8|0,0:0|0:0,0:0:0:0:
229,151,232034,6,0,P|206:217|221:273,1,93.5000028533936,8|0,0:0|0:0,0:0:0:0:
320,178,232379,1,0,0:0:0:0:
165,71,232552,2,0,L|62:72,1,85,8|0,0:0|0:0,0:0:0:0:
208,239,232896,1,0,0:0:0:0:
364,108,233069,1,8,0:0:0:0:
364,108,233414,6,0,P|400:150|394:210,1,93.5000028533936,8|0,0:0|0:0,0:0:0:0:
271,101,233758,1,0,0:0:0:0:
476,40,233931,2,0,L|482:137,1,85,8|0,0:0|0:0,0:0:0:0:
452,249,234276,1,0,0:0:0:0:
279,183,234448,2,0,B|265:143|265:143|273:84,1,85,8|0,0:0|0:0,0:0:0:0:
392,310,234793,6,0,L|267:307,1,93.5000028533936,8|0,0:0|0:0,0:0:0:0:
190,239,235138,1,0,0:0:0:0:
68,322,235310,2,0,P|47:282|52:211,1,85,8|0,0:0|0:0,0:0:0:0:
104,130,235655,1,0,0:0:0:0:
279,183,235827,2,0,P|351:192|402:159,1,127.5,8|0,0:0|0:0,0:0:0:0:
419,129,236172,6,0,B|434:22,1,93.5000028533936,8|0,0:0|0:0,0:0:0:0:
308,17,236517,1,0,0:0:0:0:
279,183,236690,2,0,P|273:227|291:295,1,85,8|0,0:0|0:0,0:0:0:0:
405,265,237034,1,0,0:0:0:0:
325,114,237207,2,0,P|270:98|222:122,1,85,8|0,0:0|0:0,0:0:0:0:
76,182,237551,6,0,L|69:280,1,85,8|0,0:0|0:0,0:0:0:0:
185,298,237896,1,0,0:0:0:0:
160,146,238068,2,0,P|108:98|57:93,1,85,8|0,0:0|0:0,0:0:0:0:
5,145,238413,1,0,0:0:0:0:
70,267,238586,1,8,0:0:0:0:
160,146,238758,1,0,0:0:0:0:
186,333,238931,6,0,L|295:340,1,93.5000028533936,8|0,0:0|0:0,0:0:0:0:
208,232,239276,1,0,0:0:0:0:
70,267,239448,2,0,P|49:335|59:368,1,85,8|0,0:0|0:0,0:0:0:0:
186,333,239793,1,0,0:0:0:0:
301,207,239965,2,0,L|309:103,1,85,8|0,0:0|0:0,0:0:0:0:
442,265,240310,6,0,L|451:385,1,93.5000028533936,8|0,0:0|0:0,0:0:0:0:
321,353,240655,1,0,0:0:0:0:
397,194,240827,2,0,P|468:184|495:201,1,85,8|0,0:0|0:0,0:0:0:0:
344,271,241172,1,0,0:0:0:0:
396,106,241345,2,0,P|340:66|272:75,1,127.5,8|0,0:0|0:0,0:0:0:0:
265,115,241690,5,8,0:0:0:0:
265,115,241862,1,0,0:0:0:0:
98,93,242034,1,8,0:0:0:0:
98,93,242207,1,0,0:0:0:0:
152,251,242379,1,8,0:0:0:0:
152,251,242552,1,0,0:0:0:0:
194,42,242724,1,8,0:0:0:0:
194,42,242896,1,0,0:0:0:0:
99,167,243068,5,8,0:0:0:0:
71,198,243154,1,0,0:0:0:0:
58,238,243240,1,0,0:0:0:0:
63,280,243326,1,0,0:0:0:0:
85,316,243412,1,8,0:0:0:0:
125,337,243499,1,0,0:0:0:0:
161,336,243585,1,0,0:0:0:0:
198,331,243671,1,0,0:0:0:0:
230,309,243758,5,8,0:0:0:0:
303,208,243930,1,8,0:0:0:0:
438,309,244103,1,8,0:0:0:0:
290,384,244275,1,8,0:0:0:0:
438,309,244448,6,0,L|448:168,1,101.999996887207,14|0,0:0|0:0,0:0:0:0:
309,96,244793,2,0,B|258:85|258:85|188:96,1,101.999996887207,10|0,0:0|0:0,0:0:0:0:
273,270,245138,1,2,0:0:0:0:
409,124,245310,1,2,1:0:0:0:
208,92,245483,1,10,0:0:0:0:
209,323,245655,6,0,P|263:354|350:303,1,152.999995330811,2|0,0:0|0:0,0:0:0:0:
356,278,246000,1,2,0:0:0:0:
113,218,246172,2,0,P|70:262|64:315,1,101.999996887207,10|0,0:0|0:0,0:0:0:0:
271,270,246517,1,2,0:0:0:0:
208,92,246690,1,2,1:0:0:0:
60,300,246862,2,0,L|171:297,1,101.999996887207,10|0,0:0|0:0,0:0:0:0:
390,198,247207,6,0,B|331:177|331:177|193:182,1,152.999995330811,2|2,1:0|0:0,0:0:0:0:
203,200,247551,1,10,0:0:0:0:
26,205,247723,1,2,0:0:0:0:
208,92,247896,1,0,0:0:0:0:
85,64,248069,1,2,1:0:0:0:
26,205,248241,2,0,B|36:257|36:257|69:317,1,101.999996887207,10|0,0:0|0:0,0:0:0:0:
203,200,248586,5,2,1:0:0:0:
208,92,248758,1,0,0:0:0:0:
60,299,248931,1,10,0:0:0:0:
319,311,249103,1,0,0:0:0:0:
203,199,249276,6,0,L|91:192,1,101.999996887207,10|8,0:0|1:0,0:0:0:0:
319,311,249621,1,8,0:0:0:0:
475,163,249965,6,0,P|406:147|339:60,1,152.999995330811,14|0,1:0|0:0,0:0:0:0:
311,58,250310,2,0,L|203:62,1,101.999996887207,10|0,0:0|0:0,0:0:0:0:
287,158,250655,1,2,0:0:0:0:
123,80,250827,1,2,1:0:0:0:
131,253,251000,1,10,0:0:0:0:
342,289,251172,6,0,B|397:290|397:290|446:311|446:311|509:311,1,152.999995330811,2|0,0:0|0:0,0:0:0:0:
496,276,251517,1,2,0:0:0:0:
270,251,251690,2,0,P|263:308|290:351,1,101.999996887207,10|0,0:0|0:0,0:0:0:0:
321,173,252034,1,2,0:0:0:0:
131,253,252207,1,2,1:0:0:0:
66,71,252379,2,0,L|184:73,1,101.999996887207,10|0,0:0|0:0,0:0:0:0:
493,199,252724,6,0,P|433:214|352:166,1,152.999995330811,2|2,1:0|0:0,0:0:0:0:
343,146,253068,1,8,0:0:0:0:
467,91,253241,1,2,0:0:0:0:
344,288,253413,1,2,1:0:0:0:
493,199,253585,1,2,1:0:0:0:
343,146,253758,1,8,0:0:0:0:
223,180,253930,1,2,0:0:0:0:
134,252,254103,6,0,P|98:188|115:112,1,152.999995330811,2|0,1:0|0:0,0:0:0:0:
223,180,254448,2,0,L|223:346,1,152.999995330811,10|0,0:0|0:0,0:0:0:0:
223,368,254793,1,10,0:0:0:0:
134,252,254965,1,8,1:0:0:0:
388,233,255138,1,8,0:0:0:0:
388,233,255483,2,0,P|356:170|431:129,1,152.999995330811,6|0,1:0|0:0,0:0:0:0:
426,152,255827,2,0,L|476:253,1,101.999996887207,10|0,0:0|0:0,0:0:0:0:
287,208,256172,1,2,0:0:0:0:
441,70,256345,1,2,1:0:0:0:
261,28,256517,1,10,0:0:0:0:
209,200,256690,6,0,P|233:269|311:286,1,152.999995330811,2|0,0:0|0:0,0:0:0:0:
340,273,257034,1,2,0:0:0:0:
136,294,257207,1,10,0:0:0:0:
176,114,257379,1,2,0:0:0:0:
136,294,257552,2,0,P|70:294|27:279,1,101.999996887207,2|0,0:0|1:0,0:0:0:0:
76,103,257896,2,0,P|142:103|185:118,1,101.999996887207,10|0,0:0|0:0,0:0:0:0:
355,198,258241,6,0,B|300:129|300:129|295:28,1,152.999995330811,2|2,1:0|0:0,0:0:0:0:
330,42,258585,1,10,0:0:0:0:
454,101,258758,1,2,0:0:0:0:
482,239,258931,1,0,0:0:0:0:
355,198,259103,1,2,1:0:0:0:
330,328,259275,2,0,P|267:306|219:266,1,101.999996887207,8|0,0:0|0:0,0:0:0:0:
176,183,259621,6,0,L|67:183,1,101.999996887207,2|0,1:0|0:0,0:0:0:0:
296,64,259965,2,0,L|405:64,1,101.999996887207,10|0,0:0|0:0,0:0:0:0:
332,228,260310,2,0,P|337:300|319:354,1,101.999996887207,10|8,0:0|1:0,0:0:0:0:
315,213,260655,1,8,0:0:0:0:
315,213,261000,6,0,B|371:213|371:213|414:229|414:229|495:230,1,152.999995330811,14|0,1:0|0:0,0:0:0:0:
465,229,261345,2,0,P|468:291|454:331,1,101.999996887207,10|0,0:0|0:0,0:0:0:0:
330,328,261690,1,2,0:0:0:0:
371,129,261862,1,2,1:0:0:0:
215,247,262034,1,10,0:0:0:0:
371,129,262207,2,0,B|441:155|496:131|496:131|459:101,1,152.999995330811,2|0,0:0|0:0,0:0:0:0:
454,101,262552,5,2,0:0:0:0:
275,67,262724,2,0,L|266:170,1,101.999996887207,10|0,0:0|0:0,0:0:0:0:
49,234,263069,2,0,P|37:173|57:118,1,101.999996887207,2|0,0:0|1:0,0:0:0:0:
215,248,263414,1,8,0:0:0:0:
215,248,263758,6,0,B|291:268|291:268|383:264,1,152.999995330811,2|2,1:0|0:0,0:0:0:0:
391,236,264103,1,10,0:0:0:0:
404,84,264275,1,2,0:0:0:0:
258,130,264448,1,0,0:0:0:0:
236,332,264621,1,2,1:0:0:0:
117,267,264793,2,0,L|116:160,1,101.999996887207,8|2,0:0|0:0,0:0:0:0:
179,28,265137,5,2,0:0:0:0:
258,130,265310,1,10,0:0:0:0:
385,146,265483,2,0,L|400:266,1,101.999996887207,2|0,0:0|0:0,0:0:0:0:
133,146,265827,1,10,0:0:0:0:
339,28,266000,1,0,0:0:0:0:
257,267,266172,1,10,0:0:0:0:
179,28,266345,1,0,0:0:0:0:
334,291,266517,6,0,P|281:345|175:282,1,203.999993774414,14|8,1:0|0:0,0:0:0:0:
369,205,267034,1,0,0:0:0:0:
461,338,267207,2,0,P|486:288|481:231,1,101.999996887207,0|0,0:0|1:0,0:0:0:0:
286,122,267552,2,0,L|388:124,1,101.999996887207,8|0,0:0|0:0,0:0:0:0:
236,198,267896,6,0,B|165:198|165:198|91:217|91:217|34:217,1,203.999993774414,2|8,1:0|0:0,0:0:0:0:
59,348,268414,1,0,0:0:0:0:
78,138,268586,1,2,0:0:0:0:
181,292,268758,1,2,1:0:0:0:
258,124,268931,2,0,P|324:137|417:115,1,152.999995330811,10|0,0:0|0:0,0:0:0:0:
444,93,269275,5,2,1:0:0:0:
482,215,269447,1,0,0:0:0:0:
365,250,269621,1,8,0:0:0:0:
258,124,269793,1,0,0:0:0:0:
182,297,269965,2,0,P|115:319|61:318,1,101.999996887207,0|0,0:0|1:0,0:0:0:0:
1,235,270310,2,0,P|50:169|121:169,1,152.999995330811,8|0,0:0|0:0,0:0:0:0:
135,170,270655,2,0,L|169:68,1,101.999996887207,0|0,1:0|0:0,0:0:0:0:
75,27,271000,1,8,0:0:0:0:
258,124,271172,1,0,0:0:0:0:
179,44,271345,1,8,0:0:0:0:
338,89,271517,5,8,1:0:0:0:
212,292,271690,1,8,0:0:0:0:
212,292,272034,2,0,L|99:288,1,101.999996887207,14|0,1:0|0:0,0:0:0:0:
17,115,272379,2,0,L|130:119,1,101.999996887207,8|0,0:0|0:0,0:0:0:0:
186,35,272724,1,0,0:0:0:0:
178,205,272896,1,0,1:0:0:0:
332,186,273069,2,0,P|346:117|286:58,1,152.999995330811,8|0,0:0|0:0,0:0:0:0:
270,82,273413,6,0,P|250:148|252:187,1,101.999996887207,2|0,1:0|0:0,0:0:0:0:
312,312,273758,1,8,0:0:0:0:
473,197,273931,1,0,0:0:0:0:
450,352,274103,1,2,0:0:0:0:
403,239,274276,1,2,1:0:0:0:
312,312,274447,2,0,P|230:325|185:312,1,101.999996887207,8|0,0:0|0:0,0:0:0:0:
101,243,274793,6,0,B|73:200|73:200|89:97,1,152.999995330811,2|0,1:0|0:0,0:0:0:0:
111,79,275137,2,0,P|178:88|235:74,1,101.999996887207,8|0,0:0|0:0,0:0:0:0:
289,21,275483,1,0,0:0:0:0:
246,169,275655,1,0,1:0:0:0:
374,116,275827,1,8,0:0:0:0:
404,251,275999,1,0,0:0:0:0:
279,265,276172,6,0,P|246:321|207:349,1,101.999996887207,0|0,1:0|0:0,0:0:0:0:
246,169,276517,2,0,P|305:177|364:219,1,101.999996887207,8|0,0:0|0:0,0:0:0:0:
144,215,276862,1,8,0:0:0:0:
49,44,277034,1,8,1:0:0:0:
263,54,277207,1,8,0:0:0:0:
263,54,277552,6,0,L|275:186,1,101.999996887207,14|0,1:0|0:0,0:0:0:0:
401,328,277896,2,0,L|413:196,1,101.999996887207,8|0,0:0|0:0,0:0:0:0:
319,270,278241,1,0,0:0:0:0:
496,284,278414,1,0,1:0:0:0:
416,136,278585,1,8,0:0:0:0:
264,335,278758,6,0,P|201:338|131:241,1,152.999995330811
140,248,279103,1,2,0:0:0:0:
318,135,279276,2,0,B|367:149|367:149|421:135,1,101.999996887207,10|0,0:0|0:0,0:0:0:0:
228,71,279621,2,0,P|206:118|216:177,1,101.999996887207,2|2,0:0|1:0,0:0:0:0:
318,135,279965,1,10,0:0:0:0:
319,17,280138,1,0,0:0:0:0:
138,52,280310,6,0,P|116:123|133:216,1,152.999995330811,0|0,1:0|0:0,0:0:0:0:
148,237,280654,1,8,0:0:0:0:
99,349,280827,1,0,0:0:0:0:
45,242,281000,1,0,0:0:0:0:
204,166,281172,1,0,1:0:0:0:
261,298,281344,2,0,P|296:338|383:375,1,101.999996887207,8|0,0:0|0:0,0:0:0:0:
444,285,281690,6,0,L|451:169,1,101.999996887207,0|0,1:0|0:0,0:0:0:0:
261,298,282034,2,0,L|139:302,1,101.999996887207,8|0,0:0|0:0,0:0:0:0:
75,169,282379,1,8,0:0:0:0:
279,119,282552,1,8,1:0:0:0:
159,301,282723,1,8,0:0:0:0:
159,301,283069,6,0,L|163:156,1,101.999996887207,14|0,1:0|0:0,0:0:0:0:
196,104,283414,1,8,0:0:0:0:
45,242,283586,1,0,0:0:0:0:
317,222,283758,2,0,L|322:110,1,101.999996887207,0|0,0:0|1:0,0:0:0:0:
196,104,284103,1,8,0:0:0:0:
308,303,284276,6,0,P|369:288|392:195,1,152.999995330811
400,181,284621,1,2,0:0:0:0:
225,217,284793,1,10,0:0:0:0:
414,359,284965,2,0,P|463:308|475:265,1,101.999996887207,0|2,0:0|0:0,0:0:0:0:
315,221,285310,1,2,1:0:0:0:
446,94,285483,2,0,L|343:89,1,101.999996887207,8|0,0:0|0:0,0:0:0:0:
167,90,285827,1,2,1:0:0:0:
167,90,286172,5,8,0:0:0:0:
345,90,286344,1,0,1:0:0:0:
123,115,286517,1,8,0:0:0:0:
389,115,286689,1,0,1:0:0:0:
80,147,286862,1,8,0:0:0:0:
432,147,287034,1,0,1:0:0:0:
257,37,287207,5,8,0:0:0:0:
155,214,287379,1,0,1:0:0:0:
345,90,287552,1,8,0:0:0:0:
238,272,287724,1,0,1:0:0:0:
149,88,287896,1,8,0:0:0:0:
355,245,288069,1,8,0:0:0:0:
85,298,288241,1,8,0:0:0:0:
249,119,288414,1,8,0:0:0:0:
311,332,288586,6,0,B|346:358|346:358|477:349,1,170,14|2,0:0|0:0,0:0:0:0:
355,245,289103,1,0,1:0:0:0:
205,252,289276,2,0,P|121:250|54:196,1,170,10|0,0:0|0:0,0:0:0:0:
168,125,289793,1,2,1:0:0:0:
398,184,289965,6,0,P|465:129|452:59,1,127.5,0|0,1:0|0:0,0:0:0:0:
445,71,290310,2,0,L|346:65,1,85,0|0,1:0|1:0,0:0:0:0:
236,49,290655,5,10,0:0:0:0:
77,61,290827,1,0,0:0:0:0:
245,49,291000,1,0,0:0:0:0:
68,62,291172,1,0,0:0:0:0:
157,207,291345,6,0,P|172:162|160:104,1,85,2|0,1:0|0:0,0:0:0:0:
233,272,291690,2,0,P|259:232|266:177,1,85,2|0,0:0|1:0,0:0:0:0:
162,326,292034,2,0,P|214:361|308:323,1,170,10|0,0:0|0:0,0:0:0:0:
377,231,292552,1,2,1:0:0:0:
233,272,292724,2,0,B|89:275,1,127.5,0|0,1:0|0:0,0:0:0:0:
96,272,293069,2,0,L|72:152,1,85,0|0,1:0|1:0,0:0:0:0:
151,98,293414,1,10,0:0:0:0:
151,98,293758,5,8,0:0:0:0:
267,196,293931,1,8,0:0:0:0:
194,30,294103,2,0,P|103:29|69:92,1,170,14|2,1:0|0:0,0:0:0:0:
146,219,294621,1,0,1:0:0:0:
378,193,294793,2,0,B|409:166|409:166|441:32,1,170,10|0,0:0|0:0,0:0:0:0:
502,177,295310,5,2,1:0:0:0:
490,324,295482,2,0,P|441:287|372:275,1,127.5,0|0,1:0|0:0,0:0:0:0:
355,276,295827,2,0,L|258:279,1,85,0|0,1:0|1:0,0:0:0:0:
178,338,296172,1,10,0:0:0:0:
108,177,296345,1,0,0:0:0:0:
59,300,296517,1,0,0:0:0:0:
225,148,296690,1,0,0:0:0:0:
19,103,296862,5,2,1:0:0:0:
19,103,297207,2,0,L|96:85,1,68,2|0,0:0|1:0,0:0:0:0:
181,55,297552,2,0,P|273:71|334:45,1,136,10|0,0:0|0:0,0:0:0:0:
411,31,298069,1,2,1:0:0:0:
418,136,298241,2,0,L|414:219,1,68,0|0,1:0|0:0,0:0:0:0:
322,232,298586,2,0,L|317:330,1,68,0|0,1:0|1:0,0:0:0:0:
219,324,298931,1,10,0:0:0:0:
219,324,299276,5,8,0:0:0:0:
158,167,299448,1,8,0:0:0:0:
287,132,299621,2,0,L|383:120,1,85,14|0,1:0|0:0,0:0:0:0:
181,77,299965,2,0,L|85:65,1,85,2|0,0:0|1:0,0:0:0:0:
94,224,300310,2,0,P|177:251|236:198,1,170,10|0,0:0|0:0,0:0:0:0:
158,167,300827,5,2,1:0:0:0:
118,339,301000,2,0,L|249:339,1,127.5,0|0,1:0|0:0,0:0:0:0:
273,323,301345,2,0,L|392:323,1,85,0|0,1:0|1:0,0:0:0:0:
463,345,301690,1,10,0:0:0:0:
449,224,301862,1,0,0:0:0:0:
358,323,302034,1,0,0:0:0:0:
446,197,302207,1,0,0:0:0:0:
261,139,302379,5,2,1:0:0:0:
261,139,302724,2,0,L|249:127|226:85|223:12,1,85,2|0,0:0|1:0,0:0:0:0:
261,139,303069,2,0,P|183:159|89:134,1,170,10|0,0:0|0:0,0:0:0:0:
22,56,303586,1,2,1:0:0:0:
27,196,303758,2,0,L|29:285,1,85,0|0,1:0|0:0,0:0:0:0:
189,345,304103,2,0,P|201:287|185:238,1,85,0|0,1:0|1:0,0:0:0:0:
107,239,304448,2,0,P|167:261|275:228,1,170,10|8,0:0|0:0,0:0:0:0:
261,139,304965,5,8,0:0:0:0:
378,310,305138,2,0,L|383:194,1,85,14|0,1:0|0:0,0:0:0:0:
456,86,305483,2,0,P|458:148|433:185,1,85,2|0,0:0|1:0,0:0:0:0:
221,58,305827,2,0,B|254:38|254:38|399:38,1,170,10|0,0:0|0:0,0:0:0:0:
264,141,306345,1,2,1:0:0:0:
139,62,306517,6,0,L|18:107,1,127.5,0|0,1:0|0:0,0:0:0:0:
21,127,306862,2,0,L|19:217,1,85,0|0,1:0|1:0,0:0:0:0:
108,283,307207,2,0,P|189:300|290:283,1,170,10|0,0:0|0:0,0:0:0:0:
336,217,307724,5,0,0:0:0:0:
411,286,307896,2,0,P|437:236|425:183,1,85,2|0,1:0|0:0,0:0:0:0:
305,120,308241,2,0,L|415:121,1,85,2|0,0:0|1:0,0:0:0:0:
254,40,308586,2,0,L|85:40,1,170,10|0,0:0|0:0,0:0:0:0:
114,181,309103,5,2,1:0:0:0:
299,197,309276,1,0,0:0:0:0:
195,290,309448,1,8,0:0:0:0:
211,103,309621,5,10,1:0:0:0:
114,181,309793,1,0,1:0:0:0:
299,197,309965,1,10,0:0:0:0:
299,197,310310,5,10,1:0:0:0:
400,304,310483,1,0,0:0:0:0:
452,80,310655,1,14,1:0:0:0:
256,192,310741,12,0,312034,0:0:0:0:
