osu file format v14

[General]
AudioFilename: immunize.mp3
AudioLeadIn: 0
PreviewTime: 156882
Countdown: 0
SampleSet: Soft
StackLeniency: 0.7
Mode: 0
LetterboxInBreaks: 0
WidescreenStoryboard: 0

[Editor]
DistanceSpacing: 1
BeatDivisor: 4
GridSize: 4
TimelineZoom: 1

[Metadata]
Title:Immunize (feat. Liam Howlett)
TitleUnicode:Immunize (feat. Liam Howlett)
Artist:Pendulum
ArtistUnicode:Pendulum
Creator:alacat
Version:Normal
Source:
Tags:immersion the prodigy Vass_Bass Reiji-RJ La Cataline iyasine dnb drum and bass drumstep
BeatmapID:724285
BeatmapSetID:323396

[Difficulty]
HPDrainRate:3
CircleSize:3
OverallDifficulty:3
ApproachRate:4
SliderMultiplier:1
SliderTickRate:1

[Events]
//Background and Video events
0,0,"bg.png",0,0
//Break Periods
2,21910,23148
2,43979,45217
2,112944,121080
//Storyboard Layer 0 (Background)
//Storyboard Layer 1 (Fail)
//Storyboard Layer 2 (Pass)
//Storyboard Layer 3 (Foreground)
//Storyboard Layer 4 (Overlay)
//Storyboard Sound Samples

[TimingPoints]
2400,344.827586206897,4,2,1,60,1,0
24468,-100,4,1,1,60,0,0
68606,-100,4,1,1,80,0,1
89296,-100,4,1,1,60,0,0
90675,-100,4,1,1,80,0,1
112744,-100,4,1,1,60,0,0
158262,-100,4,1,1,80,0,1
177572,-100,4,1,1,60,0,0
178951,-100,4,1,1,80,0,1
198262,-100,4,1,1,60,0,0

[Colours]
Combo1 : 0,128,128
Combo2 : 128,193,62
Combo3 : 223,40,100

[HitObjects]
96,228,2400,6,0,P|160:364|184:216,1,400
64,52,4468,2,0,L|164:68,1,100,0|0,0:0|0:0,0:0:0:0:
244,124,5158,6,0,B|440:80|440:80|472:116|468:176,1,300,0|0,0:0|0:0,0:0:0:0:
392,236,6537,2,0,P|296:216|196:232,1,200,0|0,0:0|0:0,0:0:0:0:
140,316,7572,1,0,0:0:0:0:
52,264,7917,6,0,L|76:64,2,200,0|0|0,0:0|0:0|0:0,0:0:0:0:
224,164,9986,2,0,L|236:264,1,100,0|0,0:0|0:0,0:0:0:0:
252,364,10675,6,0,P|352:364|352:116,1,400,0|0,0:0|0:0,0:0:0:0:
184,48,12744,2,0,P|168:100|168:152,1,100,0|0,0:0|0:0,0:0:0:0:
236,220,13434,6,0,P|84:240|104:352,1,300,0|0,0:0|0:0,0:0:0:0:
200,336,14813,2,0,P|300:328|396:360,1,200,0|0,0:0|0:0,0:0:0:0:
488,324,15848,1,0,0:0:0:0:
408,260,16193,6,0,P|384:156|416:68,2,200,0|0|0,0:0|0:0|0:0,0:0:0:0:
268,116,18262,2,0,L|168:128,1,100,0|0,0:0|0:0,0:0:0:0:
80,172,18951,6,0,P|52:324|168:224,1,400,0|0,0:0|0:0,0:0:0:0:
88,44,21020,2,0,L|188:28,1,100,0|0,0:0|0:0,0:0:0:0:
276,76,21710,5,0,0:0:0:0:
472,356,24468,6,0,P|456:308|456:260,1,100,0|0,0:0|0:0,0:0:0:0:
492,164,25158,2,0,L|392:180,1,100,0|0,0:0|0:0,0:0:0:0:
300,144,25848,1,0,0:0:0:0:
380,88,26193,1,0,0:0:0:0:
288,44,26537,2,0,L|188:28,1,100,0|0,0:0|0:0,0:0:0:0:
128,108,27227,6,0,L|164:202,1,100,0|0,0:0|0:0,0:0:0:0:
236,272,27917,2,0,P|190:292|141:295,1,100,0|0,0:0|0:0,0:0:0:0:
64,232,28606,1,0,0:0:0:0:
32,136,28951,2,0,B|32:84|32:84|4:44,2,100,0|0|0,0:0|0:0|0:0,0:0:0:0:
128,108,29986,5,0,0:0:0:0:
212,164,30331,1,0,0:0:0:0:
276,88,30675,2,0,P|328:96|372:120,1,100,0|0,0:0|0:0,0:0:0:0:
404,212,31365,2,0,L|396:312,2,100,0|0|0,0:0|0:0|0:0,0:0:0:0:
468,136,32400,1,0,0:0:0:0:
432,44,32744,5,0,0:0:0:0:
332,24,33089,2,0,P|280:24|232:44,1,100,0|0,0:0|0:0,0:0:0:0:
172,120,33779,1,0,0:0:0:0:
212,212,34124,1,0,0:0:0:0:
140,284,34468,1,0,0:0:0:0:
208,356,34813,2,0,P|256:348|316:352,1,100,0|0,0:0|0:0,0:0:0:0:
368,268,35503,6,0,P|417:270|467:262,1,100,0|0,0:0|0:0,0:0:0:0:
508,172,36193,2,0,B|508:120|508:120|484:76,1,100,0|0,0:0|0:0,0:0:0:0:
392,44,36882,1,0,0:0:0:0:
316,108,37227,1,0,0:0:0:0:
220,76,37572,2,0,B|168:76|168:76|124:100,1,100,0|0,0:0|0:0,0:0:0:0:
84,192,38262,5,0,0:0:0:0:
125,285,38606,2,0,B|168:308|168:308|220:308,1,100,0|0,0:0|0:0,0:0:0:0:
308,264,39296,1,0,0:0:0:0:
224,212,39641,2,0,L|224:112,1,100,0|0,0:0|0:0,0:0:0:0:
156,40,40331,1,0,0:0:0:0:
68,88,40675,1,0,0:0:0:0:
20,176,41020,6,0,P|16:232|24:276,1,100,0|0,0:0|0:0,0:0:0:0:
104,336,41710,2,0,L|204:324,1,100,0|0,0:0|0:0,0:0:0:0:
256,236,42400,1,0,0:0:0:0:
196,156,42744,1,0,0:0:0:0:
244,68,43089,2,0,P|292:60|348:64,1,100,0|0,0:0|0:0,0:0:0:0:
432,112,43779,5,0,0:0:0:0:
336,332,46537,6,0,P|432:336|472:248,2,200,0|0|0,0:0|0:0|0:0,0:0:0:0:
256,148,48606,1,0,0:0:0:0:
176,332,49296,6,0,P|80:336|40:248,2,200,0|0|0,0:0|0:0|0:0,0:0:0:0:
344,220,51365,1,0,0:0:0:0:
212,68,52055,6,0,B|180:164|180:164|208:264,1,200,0|0,0:0|0:0,0:0:0:0:
392,340,53434,2,0,B|424:244|424:244|396:144,1,200,0|0,0:0|0:0,0:0:0:0:
212,72,54813,6,0,L|12:100,1,200,0|0,0:0|0:0,0:0:0:0:
136,256,56193,2,0,L|336:284,1,200,0|0,0:0|0:0,0:0:0:0:
504,176,57572,6,0,P|456:92|360:84,1,200,0|0,0:0|0:0,0:0:0:0:
276,140,58606,1,0,0:0:0:0:
180,108,58951,2,0,L|80:136,1,100,0|0,0:0|0:0,0:0:0:0:
24,216,59641,2,0,P|24:268|48:316,1,100,0|0,0:0|0:0,0:0:0:0:
136,352,60331,6,0,P|184:336|236:336,1,100,0|0,0:0|0:0,0:0:0:0:
324,372,61020,1,0,0:0:0:0:
416,336,61365,1,0,0:0:0:0:
336,276,61710,2,0,L|352:176,1,100,0|0,0:0|0:0,0:0:0:0:
421,106,62400,2,0,P|377:83|328:80,1,100,0|0,0:0|0:0,0:0:0:0:
256,148,63089,5,0,0:0:0:0:
224,52,63434,1,0,0:0:0:0:
152,124,63779,2,0,L|52:124,1,100,0|0,0:0|0:0,0:0:0:0:
20,220,64468,2,0,L|120:220,1,100,0|0,0:0|0:0,0:0:0:0:
208,268,65158,1,0,0:0:0:0:
120,320,65503,1,0,0:0:0:0:
208,368,65848,6,0,B|256:356|256:356|292:320,1,100,0|0,0:0|0:0,0:0:0:0:
332,228,66537,2,0,L|312:128,1,100,0|0,0:0|0:0,0:0:0:0:
232,68,67227,1,0,0:0:0:0:
324,24,67572,1,0,0:0:0:0:
404,84,67917,2,0,B|456:88|456:88|496:116,1,100,0|0,0:0|0:0,0:0:0:0:
468,212,68606,6,0,L|484:316,1,100,0|0,0:0|0:0,0:0:0:0:
392,356,69296,2,0,B|344:340|344:340|296:348,1,100,0|0,0:0|0:0,0:0:0:0:
212,296,69986,2,0,L|112:316,1,100,0|0,0:0|0:0,0:0:0:0:
32,256,70675,1,0,0:0:0:0:
76,168,71020,1,0,0:0:0:0:
172,200,71365,6,0,B|228:208|228:208|272:192,2,100,0|0|0,0:0|0:0|0:0,0:0:0:0:
76,168,72400,1,0,0:0:0:0:
68,68,72744,1,0,0:0:0:0:
160,28,73089,1,0,0:0:0:0:
228,100,73434,2,0,L|324:72,1,100,0|0,0:0|0:0,0:0:0:0:
416,116,74124,6,0,P|432:164|428:216,1,100,0|0,0:0|0:0,0:0:0:0:
360,284,74813,2,0,L|256:284,1,100,0|0,0:0|0:0,0:0:0:0:
184,220,75503,1,0,0:0:0:0:
96,264,75848,2,0,P|80:312|80:360,2,100,0|0|0,0:0|0:0|0:0,0:0:0:0:
184,220,76882,6,0,P|200:172|200:124,1,100,0|0,0:0|0:0,0:0:0:0:
120,64,77572,2,0,L|20:64,2,100,0|0|0,0:0|0:0|0:0,0:0:0:0:
212,24,78606,1,0,0:0:0:0:
292,80,78951,2,0,L|392:80,1,100,0|0,0:0|0:0,0:0:0:0:
484,120,79641,5,0,0:0:0:0:
404,180,79986,1,0,0:0:0:0:
496,220,80331,2,0,B|512:272|512:272|504:320,1,100,0|0,0:0|0:0,0:0:0:0:
420,372,81021,2,0,P|368:372|320:352,1,100,0|0,0:0|0:0,0:0:0:0:
264,276,81710,1,0,0:0:0:0:
304,184,82055,1,0,0:0:0:0:
252,100,82400,5,0,0:0:0:0:
164,152,82744,2,0,L|156:256,2,100,0|0|0,0:0|0:0|0:0,0:0:0:0:
96,80,83779,2,0,P|72:128|68:176,1,100,0|0,0:0|0:0,0:0:0:0:
28,264,84468,1,0,0:0:0:0:
100,336,84813,1,0,0:0:0:0:
200,348,85158,5,0,0:0:0:0:
284,292,85503,2,0,P|336:296|384:312,2,100,0|0|0,0:0|0:0|0:0,0:0:0:0:
248,200,86538,1,0,0:0:0:0:
216,104,86882,2,0,P|164:100|116:84,2,100,0|0|0,0:0|0:0|0:0,0:0:0:0:
300,48,87917,6,0,P|348:28|396:28,1,100,0|0,0:0|0:0,0:0:0:0:
464,100,88606,2,0,P|416:120|368:120,1,100,0|0,0:0|0:0,0:0:0:0:
308,200,89296,2,0,P|288:296|352:368,1,200,0|0,0:0|0:0,0:0:0:0:
156,316,90675,6,0,P|104:320|56:336,1,100,0|0,0:0|0:0,0:0:0:0:
16,244,91365,2,0,B|8:196|8:196|24:148,1,100,0|0,0:0|0:0,0:0:0:0:
108,92,92055,2,0,L|208:112,1,100,0|0,0:0|0:0,0:0:0:0:
272,188,92744,1,0,0:0:0:0:
356,136,93089,1,0,0:0:0:0:
452,164,93434,6,0,B|444:108|444:108|460:64,2,100,0|0|0,0:0|0:0|0:0,0:0:0:0:
472,264,94469,1,0,0:0:0:0:
420,348,94813,1,0,0:0:0:0:
328,304,95158,1,0,0:0:0:0:
256,372,95503,2,0,L|152:360,1,100,0|0,0:0|0:0,0:0:0:0:
96,280,96193,6,0,P|93:230|108:183,1,100,0|0,0:0|0:0,0:0:0:0:
48,104,96882,2,0,P|72:60|111:29,1,100,0|0,0:0|0:0,0:0:0:0:
204,64,97572,1,0,0:0:0:0:
300,36,97917,2,0,L|404:36,2,100,0|0|0,0:0|0:0|0:0,0:0:0:0:
280,136,98951,6,0,P|264:184|264:232,1,100,0|0,0:0|0:0,0:0:0:0:
208,316,99641,2,0,L|108:316,2,100,0|0|0,0:0|0:0|0:0,0:0:0:0:
284,380,100675,1,0,0:0:0:0:
372,336,101020,2,0,P|372:286|356:239,1,100,0|0,0:0|0:0,0:0:0:0:
380,140,101710,5,0,0:0:0:0:
472,176,102055,1,0,0:0:0:0:
460,76,102400,2,0,B|416:48|416:48|368:44,1,100,0|0,0:0|0:0,0:0:0:0:
288,104,103090,2,0,P|241:121|191:121,1,100,0|0,0:0|0:0,0:0:0:0:
132,40,103779,1,0,0:0:0:0:
40,76,104124,1,0,0:0:0:0:
52,176,104469,5,0,0:0:0:0:
144,212,104813,2,0,L|152:316,1,100,0|0,0:0|0:0,0:0:0:0:
236,364,105503,1,0,0:0:0:0:
304,288,105848,2,0,P|352:264|400:260,1,100,0|0,0:0|0:0,0:0:0:0:
492,296,106537,1,0,0:0:0:0:
476,196,106882,1,0,0:0:0:0:
384,160,107227,5,0,0:0:0:0:
288,132,107572,2,0,P|284:80|268:32,2,100,0|0|0,0:0|0:0|0:0,0:0:0:0:
236,216,108607,1,0,0:0:0:0:
144,180,108951,2,0,P|92:184|44:200,2,100,0|0|0,0:0|0:0|0:0,0:0:0:0:
236,216,109986,6,0,L|248:316,1,100,0|0,0:0|0:0,0:0:0:0:
344,340,110675,2,0,L|332:240,1,100,0|0,0:0|0:0,0:0:0:0:
388,156,111365,2,0,L|400:56,2,100,0|0|0,0:0|0:0|0:0,0:0:0:0:
468,216,112400,1,0,0:0:0:0:
456,316,112744,5,0,0:0:0:0:
152,256,122400,6,0,P|96:344|92:192,1,400,0|0,0:0|0:0,0:0:0:0:
484,108,125158,6,0,P|428:20|424:172,1,400,0|0,0:0|0:0,0:0:0:0:
32,100,127917,6,0,P|88:188|92:36,1,400,0|0,0:0|0:0,0:0:0:0:
456,204,130675,6,0,P|400:116|376:240,1,300,0|0,0:0|0:0,0:0:0:0:
256,192,132055,12,0,134813,0:0:0:0:
56,356,136193,6,0,P|148:340|168:244,1,200,0|0,0:0|0:0,0:0:0:0:
76,72,137572,6,0,B|140:96|224:76|260:28|260:28|316:36|332:88,1,300,0|0,0:0|0:0,0:0:0:0:
284,176,138951,2,0,P|336:256|424:224,1,200,0|0,0:0|0:0,0:0:0:0:
488,36,140331,6,0,P|452:192|512:312,1,300,0|0,0:0|0:0,0:0:0:0:
424,360,141710,2,0,P|324:336|224:336,1,200,0|0,0:0|0:0,0:0:0:0:
36,272,143089,6,0,B|112:84|112:84|156:176,1,300,0|0,0:0|0:0,0:0:0:0:
228,240,144468,2,0,P|318:202|336:108,1,200,0|0,0:0|0:0,0:0:0:0:
144,52,145848,6,0,B|52:96|52:96|16:192,1,200,0|0,0:0|0:0,0:0:0:0:
44,284,146882,1,0,0:0:0:0:
124,224,147227,2,0,P|224:232|300:292,1,200,0|0,0:0|0:0,0:0:0:0:
488,364,148606,6,0,B|440:264|504:264|468:168,1,200,0|0,0:0|0:0,0:0:0:0:
392,108,149641,1,0,0:0:0:0:
308,164,149986,2,0,B|221:147|221:147|205:127|205:127|118:110,1,200,0|0,0:0|0:0,0:0:0:0:
20,284,151365,6,0,L|216:328,1,200,0|0,0:0|0:0,0:0:0:0:
304,372,152400,1,0,0:0:0:0:
392,328,152744,2,0,P|420:232|392:136,1,200,0|0,0:0|0:0,0:0:0:0:
208,64,154124,6,0,L|224:168,1,100,0|0,0:0|0:0,0:0:0:0:
156,236,154813,2,0,L|52:220,2,100,0|0|0,0:0|0:0|0:0,0:0:0:0:
256,256,155848,1,0,0:0:0:0:
328,184,156193,2,0,L|428:200,1,100,0|0,0:0|0:0,0:0:0:0:
504,260,156882,5,0,0:0:0:0:
220,352,157917,1,0,0:0:0:0:
132,304,158262,6,0,P|112:260|112:208,1,100,0|0,0:0|0:0,0:0:0:0:
172,128,158951,1,0,0:0:0:0:
256,184,159296,1,0,0:0:0:0:
348,144,159641,6,0,B|356:200|356:200|340:244,2,100,0|0|0,0:0|0:0|0:0,0:0:0:0:
264,88,160676,1,0,0:0:0:0:
172,128,161020,1,0,0:0:0:0:
100,60,161365,1,0,0:0:0:0:
8,104,161710,2,0,L|20:204,1,100,0|0,0:0|0:0,0:0:0:0:
92,276,162400,6,0,P|140:260|192:264,1,100,0|0,0:0|0:0,0:0:0:0:
260,336,163089,2,0,L|364:336,1,100,0|0,0:0|0:0,0:0:0:0:
452,372,163779,1,0,0:0:0:0:
500,284,164124,1,0,0:0:0:0:
412,240,164468,2,0,L|312:240,1,100,0|0,0:0|0:0,0:0:0:0:
240,168,165158,6,0,P|239:118|255:71,1,100,0|0,0:0|0:0,0:0:0:0:
340,16,165848,1,0,0:0:0:0:
432,56,166193,1,0,0:0:0:0:
488,140,166537,2,0,P|488:189|472:236,1,100,0|0,0:0|0:0,0:0:0:0:
388,292,167227,2,0,L|288:292,1,100,0|0,0:0|0:0,0:0:0:0:
208,232,167917,5,0,0:0:0:0:
192,332,168262,1,0,0:0:0:0:
112,272,168607,2,0,B|96:220|96:220|104:172,1,100,0|0,0:0|0:0,0:0:0:0:
140,80,169297,2,0,L|240:68,1,100,0|0,0:0|0:0,0:0:0:0:
324,12,169986,1,0,0:0:0:0:
388,88,170331,1,0,0:0:0:0:
308,148,170676,5,0,0:0:0:0:
396,196,171020,2,0,L|500:188,2,100,0|0|0,0:0|0:0|0:0,0:0:0:0:
308,248,172055,2,0,P|260:224|212:220,1,100,0|0,0:0|0:0,0:0:0:0:
144,292,172744,1,0,0:0:0:0:
48,264,173089,1,0,0:0:0:0:
48,164,173434,5,0,0:0:0:0:
140,124,173779,2,0,P|187:108|237:105,1,100,0|0,0:0|0:0,0:0:0:0:
328,148,174468,1,0,0:0:0:0:
424,120,174813,2,0,P|462:152|491:192,1,100,0|0,0:0|0:0,0:0:0:0:
496,292,175503,2,0,P|463:330|423:359,1,100,0|0,0:0|0:0,0:0:0:0:
328,328,176193,6,0,L|228:340,1,100,0|0,0:0|0:0,0:0:0:0:
188,248,176882,2,0,L|288:236,1,100,0|0,0:0|0:0,0:0:0:0:
388,220,177572,2,0,P|408:124|344:52,1,200,0|0,0:0|0:0,0:0:0:0:
144,44,178951,6,0,P|92:48|44:64,1,100,0|0,0:0|0:0,0:0:0:0:
16,156,179641,2,0,B|32:256,1,100,0|0,0:0|0:0,0:0:0:0:
104,324,180331,1,0,0:0:0:0:
192,280,180675,1,0,0:0:0:0:
272,340,181020,2,0,P|328:344|376:336,1,100,0|0,0:0|0:0,0:0:0:0:
452,280,181710,5,0,0:0:0:0:
416,188,182055,1,0,0:0:0:0:
316,200,182400,2,0,P|264:196|216:184,1,100,0|0,0:0|0:0,0:0:0:0:
172,96,183089,1,0,0:0:0:0:
240,24,183434,1,0,0:0:0:0:
328,68,183779,2,0,L|432:56,1,100,0|0,0:0|0:0,0:0:0:0:
496,132,184469,6,0,P|499:182|484:229,1,100,0|0,0:0|0:0,0:0:0:0:
384,224,185158,2,0,P|340:248|309:287,1,100,0|0,0:0|0:0,0:0:0:0:
256,372,185848,1,0,0:0:0:0:
164,328,186193,2,0,L|60:328,2,100,0|0|0,0:0|0:0|0:0,0:0:0:0:
220,248,187227,6,0,P|236:200|236:152,1,100,0|0,0:0|0:0,0:0:0:0:
316,92,187917,2,0,L|416:92,2,100,0|0|0,0:0|0:0|0:0,0:0:0:0:
224,52,188951,1,0,0:0:0:0:
144,112,189296,1,0,0:0:0:0:
48,80,189641,1,0,0:0:0:0:
64,180,189986,6,0,L|48:280,1,100,0|0,0:0|0:0,0:0:0:0:
116,352,190675,2,0,L|210:315,1,100,0|0,0:0|0:0,0:0:0:0:
240,220,191366,2,0,P|287:203|337:203,1,100,0|0,0:0|0:0,0:0:0:0:
424,252,192055,1,0,0:0:0:0:
468,344,192400,1,0,0:0:0:0:
368,332,192745,5,0,0:0:0:0:
276,368,193089,2,0,L|172:360,1,100,0|0,0:0|0:0,0:0:0:0:
104,292,193779,1,0,0:0:0:0:
168,216,194124,2,0,P|216:240|264:244,1,100,0|0,0:0|0:0,0:0:0:0:
352,200,194813,1,0,0:0:0:0:
312,108,195158,1,0,0:0:0:0:
388,44,195503,5,0,0:0:0:0:
472,100,195848,2,0,P|487:147|490:197,2,100,0|0|0,0:0|0:0|0:0,0:0:0:0:
388,44,196883,1,0,0:0:0:0:
312,108,197227,2,0,P|260:104|212:88,1,100,0|0,0:0|0:0,0:0:0:0:
136,28,197917,1,0,0:0:0:0:
56,84,198262,6,0,L|68:184,1,100,0|0,0:0|0:0,0:0:0:0:
156,228,198951,2,0,L|168:328,1,100,0|0,0:0|0:0,0:0:0:0:
260,284,199641,2,0,P|312:280|360:288,1,100,0|0,0:0|0:0,0:0:0:0:
452,324,200331,2,0,P|444:274|448:225,1,100,0|0,0:0|0:0,0:0:0:0:
488,132,201020,5,0,0:0:0:0:
