osu file format v14

[General]
AudioFilename: immunize.mp3
AudioLeadIn: 0
PreviewTime: 156882
Countdown: 0
SampleSet: None
StackLeniency: 0.7
Mode: 0
LetterboxInBreaks: 0
WidescreenStoryboard: 0

[Editor]
DistanceSpacing: 1.6
BeatDivisor: 4
GridSize: 4
TimelineZoom: 1

[Metadata]
Title:Immunize (feat. Liam Howlett)
TitleUnicode:Immunize (feat. Liam Howlett)
Artist:Pendulum
ArtistUnicode:Pendulum
Creator:alacat
Version:Infection
Source:
Tags:immersion the prodigy Vass_Bass Reiji-RJ La Cataline iyasine dnb drum and bass drumstep
BeatmapID:3062906
BeatmapSetID:323396

[Difficulty]
HPDrainRate:6
CircleSize:4
OverallDifficulty:8.4
ApproachRate:9
SliderMultiplier:1.8
SliderTickRate:1

[Events]
//Background and Video events
0,0,"bg.png",0,0
//Break Periods
//Storyboard Layer 0 (Background)
//Storyboard Layer 1 (Fail)
//Storyboard Layer 2 (Pass)
//Storyboard Layer 3 (Foreground)
//Storyboard Layer 4 (Overlay)
//Storyboard Sound Samples

[TimingPoints]
2400,344.827586206897,4,2,1,60,1,0
2400,-166.666666666667,4,2,1,60,0,0
4296,-125,4,2,1,60,0,0
24124,-100,4,2,1,60,0,0
24468,-100,4,1,1,60,0,0
68606,-100,4,1,1,80,0,1
89296,-100,4,1,1,60,0,0
90675,-100,4,1,1,80,0,1
112744,-100,4,1,1,60,0,0
158262,-100,4,1,1,80,0,1
177572,-100,4,1,1,60,0,0
178951,-100,4,1,1,80,0,1
198262,-100,4,1,1,60,0,0

[Colours]
Combo1 : 0,128,128
Combo2 : 128,193,62
Combo3 : 223,40,100

[HitObjects]
128,352,2400,6,0,B|104:272|104:272|236:304|236:304|340:284|340:284|444:304,1,431.999986816407
232,172,4296,6,0,L|228:212,2,36
312,196,4641,1,0,0:0:0:0:
148,168,4813,1,0,0:0:0:0:
149,153,4900,1,0,0:0:0:0:
151,138,4986,1,0,0:0:0:0:
380,84,5158,6,0,B|356:116|356:116|428:196|428:196|428:264,1,216
344,272,5848,2,0,L|344:344,1,72
260,248,6193,2,0,L|260:320,1,72
176,220,6537,5,0,0:0:0:0:
176,220,7055,2,0,L|176:264,2,36
92,196,7400,1,0,0:0:0:0:
260,248,7572,1,0,0:0:0:0:
260,233,7658,1,0,0:0:0:0:
260,218,7744,1,0,0:0:0:0:
128,104,7917,6,0,B|128:64|128:64|212:128,1,144
96,288,8434,1,0,0:0:0:0:
96,288,8606,2,0,P|60:284|24:284,1,72
236,352,8951,2,0,P|200:348|164:348,1,72
128,200,9296,5,0,0:0:0:0:
128,200,9813,1,0,0:0:0:0:
148,208,9900,1,0,0:0:0:0:
168,208,9986,1,0,0:0:0:0:
284,128,10158,1,0,0:0:0:0:
204,240,10331,1,0,0:0:0:0:
224,232,10418,1,0,0:0:0:0:
244,232,10504,1,0,0:0:0:0:
372,336,10675,6,0,L|300:364,1,72
420,260,11020,2,0,L|480:308,1,72
340,324,11365,2,0,L|268:352,1,72
448,180,11710,2,0,L|508:228,1,72
372,336,12055,5,0,0:0:0:0:
372,336,12573,1,0,0:0:0:0:
372,336,12659,1,0,0:0:0:0:
372,336,12745,1,0,0:0:0:0:
448,180,12917,1,0,0:0:0:0:
308,288,13089,1,0,0:0:0:0:
288,296,13176,1,0,0:0:0:0:
268,296,13262,1,0,0:0:0:0:
276,108,13434,5,0,0:0:0:0:
260,184,13606,1,0,0:0:0:0:
204,240,13779,1,0,0:0:0:0:
188,316,13951,1,0,0:0:0:0:
276,108,14124,1,0,0:0:0:0:
260,184,14296,1,0,0:0:0:0:
132,232,14468,2,0,L|204:240,1,72
440,248,14813,6,0,P|368:260|312:300,1,144
152,152,15331,1,0,0:0:0:0:
152,152,15417,1,0,0:0:0:0:
152,152,15503,2,0,L|80:160,1,72
203,239,15848,2,0,L|243:243,2,36
308,128,16193,6,0,L|300:56,1,72
320,216,16537,2,0,L|328:144,1,72
396,264,16882,2,0,L|404:192,1,72
420,64,17227,1,0,0:0:0:0:
420,64,17400,1,0,0:0:0:0:
211,214,17572,6,0,P|208:178|216:144,2,72
312,188,18089,1,0,0:0:0:0:
312,188,18175,1,0,0:0:0:0:
312,188,18262,1,0,0:0:0:0:
192,40,18434,1,0,0:0:0:0:
328,160,18606,1,0,0:0:0:0:
328,140,18692,1,0,0:0:0:0:
320,120,18779,1,0,0:0:0:0:
52,80,18951,6,0,P|88:84|132:96,1,72
244,148,19296,2,0,P|208:152|164:164,1,72
124,240,19641,1,0,0:0:0:0:
16,156,19813,1,0,0:0:0:0:
124,240,19986,2,0,P|160:244|204:256,1,72
400,208,20331,6,0,P|344:240|332:180,1,144
324,164,20848,1,0,0:0:0:0:
324,164,20934,1,0,0:0:0:0:
324,164,21020,1,0,0:0:0:0:
236,200,21193,1,0,0:0:0:0:
360,80,21365,1,0,0:0:0:0:
360,80,21451,1,0,0:0:0:0:
360,80,21537,1,0,0:0:0:0:
504,188,21710,5,0,0:0:0:0:
336,260,21882,1,0,0:0:0:0:
236,200,22055,1,0,0:0:0:0:
124,224,22227,1,0,0:0:0:0:
48,56,22400,5,0,0:0:0:0:
212,112,22572,1,0,0:0:0:0:
32,168,22744,1,0,0:0:0:0:
236,200,22916,1,0,0:0:0:0:
392,68,23089,5,0,0:0:0:0:
256,24,23262,1,0,0:0:0:0:
188,272,23434,1,0,0:0:0:0:
324,316,23606,1,0,0:0:0:0:
304,128,23779,5,0,0:0:0:0:
120,188,23951,1,0,0:0:0:0:
376,252,24124,2,0,P|440:236|512:232,1,135
484,368,24468,6,0,L|392:360,1,90
236,200,24813,1,0,0:0:0:0:
236,200,25158,1,0,0:0:0:0:
64,176,25331,1,0,0:0:0:0:
264,344,25503,1,0,0:0:0:0:
156,140,25675,5,0,0:0:0:0:
156,140,25762,1,0,0:0:0:0:
156,140,25848,2,0,L|148:232,1,90
296,76,26193,1,0,0:0:0:0:
