osu file format v14

[General]
AudioFilename: audio.mp3
AudioLeadIn: 0
PreviewTime: 68328
Countdown: 0
SampleSet: Soft
StackLeniency: 0.7
Mode: 0
LetterboxInBreaks: 0
WidescreenStoryboard: 1

[Editor]
Bookmarks: 2122,13156,24190,35225,46259,57294,68328,79363,90397,101432,112466,123547,134581
DistanceSpacing: 0.9
BeatDivisor: 4
GridSize: 8
TimelineZoom: 1

[Metadata]
Title:Immunize (feat. Liam Howlett) (Cut Ver.)
TitleUnicode:Immunize (feat. Liam Howlett) (Cut Ver.)
Artist:Pendulum
ArtistUnicode:Pendulum
Creator:Embo
Version:Normal
Source:
Tags:the prodigy immersion dnb drum & and bass electronic english instrumental
BeatmapID:3742585
BeatmapSetID:1823934

[Difficulty]
HPDrainRate:4
CircleSize:3.2
OverallDifficulty:4
ApproachRate:5
SliderMultiplier:1.2
SliderTickRate:1

[Events]
//Background and Video events
0,0,"Pixiv.Fantasia.T.full.1893022.jpg",0,0
//Break Periods
//Storyboard Layer 0 (Background)
//Storyboard Layer 1 (Fail)
//Storyboard Layer 2 (Pass)
//Storyboard Layer 3 (Foreground)
//Storyboard Layer 4 (Overlay)
//Storyboard Sound Samples

[TimingPoints]
2168,344.827586206897,4,2,1,60,1,0
46305,-111.111111111111,4,2,1,60,0,0
46478,-111.111111111111,4,2,2,60,0,0
52685,-111.111111111111,4,2,1,60,0,0
57340,-111.111111111111,4,2,1,70,0,0
57512,-111.111111111111,4,2,2,70,0,0
63719,-111.111111111111,4,2,1,70,0,0
65616,-111.111111111111,4,2,3,70,0,0
65789,-111.111111111111,4,2,1,70,0,0
68374,-100,4,2,4,80,0,0
68718,-100,4,2,2,80,0,0
68892,-100,4,2,4,80,0,0
69064,-100,4,2,5,80,0,0
69236,-100,4,2,6,80,0,0
69754,-100,4,2,7,80,0,0
70788,-100,4,2,8,80,0,0
70961,-100,4,2,6,80,0,0
71133,-100,4,2,7,80,0,0
71650,-100,4,2,6,80,0,0
71823,-100,4,2,7,80,0,0
72168,-100,4,2,9,80,0,0
72512,-100,4,2,10,80,0,0
72685,-100,4,2,1,80,0,0
72858,-100,4,2,10,80,0,0
73030,-100,4,2,9,80,0,0
73115,-100,4,2,1,80,0,0
73203,-100,4,2,10,80,0,0
73374,-100,4,2,11,80,0,0
73547,-100,4,2,10,80,0,0
73720,-100,4,2,6,80,0,0
73892,-100,4,2,4,80,0,0
74236,-100,4,2,2,80,0,0
74409,-100,4,2,4,80,0,0
74581,-100,4,2,5,80,0,0
74753,-100,4,2,6,80,0,0
75271,-100,4,2,7,80,0,0
76650,-100,4,2,1,80,0,0
76994,-100,4,2,3,80,0,0
77512,-100,4,2,1,80,0,0
77685,-100,4,2,3,80,0,0
78202,-100,4,2,1,80,0,0
78375,-100,4,2,3,80,0,0
78719,-100,4,2,1,80,0,0
79063,-100,4,2,3,80,0,0
79409,-100,4,2,4,80,0,0
79753,-100,4,2,2,80,0,0
79926,-100,4,2,4,80,0,0
80099,-100,4,2,5,80,0,0
80271,-100,4,2,6,80,0,0
80788,-100,4,2,7,80,0,0
81823,-100,4,2,8,80,0,0
81995,-100,4,2,6,80,0,0
82168,-100,4,2,7,80,0,0
82685,-100,4,2,6,80,0,0
82857,-100,4,2,7,80,0,0
83202,-100,4,2,9,80,0,0
83547,-100,4,2,10,80,0,0
83720,-100,4,2,1,80,0,0
83892,-100,4,2,10,80,0,0
84065,-100,4,2,9,80,0,0
84150,-100,4,2,1,80,0,0
84237,-100,4,2,10,80,0,0
84409,-100,4,2,11,80,0,0
84581,-100,4,2,10,80,0,0
84754,-100,4,2,6,80,0,0
84926,-100,4,2,4,80,0,0
85270,-100,4,2,2,80,0,0
85443,-100,4,2,4,80,0,0
85616,-100,4,2,5,80,0,0
85788,-100,4,2,6,80,0,0
86305,-100,4,2,7,80,0,0
87685,-100,4,2,1,80,0,0
88029,-100,4,2,3,80,0,0
88547,-100,4,2,1,80,0,0
88719,-100,4,2,3,80,0,0
89064,-100,4,2,3,60,0,0
90272,-100,4,2,12,80,0,0
90443,-100,4,2,2,80,0,0
93202,-100,4,2,1,80,0,0
93546,-100,4,2,3,80,0,0
94064,-100,4,2,1,80,0,0
94236,-100,4,2,3,80,0,0
94754,-100,4,2,1,80,0,0
94926,-100,4,2,3,80,0,0
95184,-100,4,2,1,80,0,0
95616,-100,4,2,3,80,0,0
95789,-100,4,2,1,80,0,0
95961,-100,4,2,2,80,0,0
98719,-100,4,2,1,80,0,0
99063,-100,4,2,3,80,0,0
99581,-100,4,2,1,80,0,0
99754,-100,4,2,3,80,0,0
100271,-100,4,2,1,80,0,0
100443,-100,4,2,3,80,0,0
100788,-100,4,2,1,80,0,0
101132,-100,4,2,3,80,0,0
101478,-100,4,2,2,80,0,0
104236,-100,4,2,1,80,0,0
104580,-100,4,2,3,80,0,0
105099,-100,4,2,1,80,0,0
105271,-100,4,2,3,80,0,0
105788,-100,4,2,1,80,0,0
105961,-100,4,2,3,80,0,0
106219,-100,4,2,1,80,0,0
106650,-100,4,2,3,80,0,0
106823,-100,4,2,1,80,0,0
106995,-100,4,2,1,80,0,0
107168,-100,4,2,2,80,0,0
109754,-100,4,2,1,80,0,0
110098,-100,4,2,3,80,0,0
110272,-100,4,2,1,80,0,0
110788,-100,4,2,3,80,0,0
110961,-100,4,2,1,80,0,0
111478,-100,4,2,3,80,0,0
111651,-100,4,2,1,80,0,0
111823,-100,4,2,1,80,0,0
112167,-100,4,2,3,80,0,0
112512,-100,4,2,4,80,0,0
112856,-100,4,2,2,80,0,0
113030,-100,4,2,4,80,0,0
113202,-100,4,2,5,80,0,0
113374,-100,4,2,6,80,0,0
113892,-100,4,2,7,80,0,0
114926,-100,4,2,8,80,0,0
115099,-100,4,2,6,80,0,0
115271,-100,4,2,7,80,0,0
115788,-100,4,2,6,80,0,0
115961,-100,4,2,7,80,0,0
116305,-100,4,2,9,80,0,0
116650,-100,4,2,10,80,0,0
116823,-100,4,2,1,80,0,0
116996,-100,4,2,10,80,0,0
117168,-100,4,2,9,80,0,0
117253,-100,4,2,1,80,0,0
117341,-100,4,2,10,80,0,0
117512,-100,4,2,11,80,0,0
117685,-100,4,2,10,80,0,0
117858,-100,4,2,6,80,0,0
118030,-100,4,2,4,80,0,0
118374,-100,4,2,2,80,0,0
118547,-100,4,2,4,80,0,0
118719,-100,4,2,5,80,0,0
118891,-100,4,2,6,80,0,0
119409,-100,4,2,7,80,0,0
120788,-100,4,2,1,80,0,0
121132,-100,4,2,3,80,0,0
121650,-100,4,2,1,80,0,0
121823,-100,4,2,3,80,0,0
122340,-100,4,2,1,80,0,0
122513,-100,4,2,3,80,0,0
122857,-100,4,2,1,80,0,0
123201,-100,4,2,3,80,0,0
123547,-100,4,2,4,80,0,0
123891,-100,4,2,2,80,0,0
124064,-100,4,2,4,80,0,0
124236,-100,4,2,5,80,0,0
124408,-100,4,2,6,80,0,0
124926,-100,4,2,7,80,0,0
125961,-100,4,2,8,80,0,0
126133,-100,4,2,6,80,0,0
126305,-100,4,2,7,80,0,0
126823,-100,4,2,6,80,0,0
126995,-100,4,2,7,80,0,0
127340,-100,4,2,9,80,0,0
127685,-100,4,2,10,80,0,0
127858,-100,4,2,1,80,0,0
128030,-100,4,2,10,80,0,0
128203,-100,4,2,9,80,0,0
128288,-100,4,2,1,80,0,0
128375,-100,4,2,10,80,0,0
128547,-100,4,2,11,80,0,0
128719,-100,4,2,10,80,0,0
128892,-100,4,2,6,80,0,0
129064,-100,4,2,4,80,0,0
129408,-100,4,2,2,80,0,0
129581,-100,4,2,4,80,0,0
129754,-100,4,2,5,80,0,0
129926,-100,4,2,6,80,0,0
130443,-100,4,2,7,80,0,0
131823,-100,4,2,1,60,0,0
134581,-100,4,2,1,60,0,0

[Colours]
Combo1 : 173,167,177
Combo2 : 104,158,179
Combo3 : 192,99,203
Combo4 : 117,102,179

[HitObjects]
53,165,24236,5,0,1:1:0:0:
86,62,24581,2,0,P|134:26|205:51,2,120,0|0|8,1:1|0:0|2:2,0:0:0:0:
155,144,25616,5,0,1:1:0:0:
122,247,25961,2,0,L|107:380,2,120,0|0|8,1:1|0:0|2:2,0:0:0:0:
204,317,26995,5,0,1:1:0:0:
259,224,27340,2,0,B|306:186|306:186|377:207,1,120,0|0,1:1|0:0,0:0:0:0:
401,241,27857,2,0,L|414:317,1,60,0|8,1:1|2:2,0:0:0:0:
499,362,28374,5,0,1:1:0:0:
499,253,28719,2,0,L|486:175,1,60,0|0,1:1|0:0,0:0:0:0:
449,156,29064,2,0,L|458:96,2,60,0|0|8,1:1|1:1|2:2,0:0:0:0:
355,101,29754,5,0,1:1:0:0:
355,209,30099,2,0,B|300:198|300:198|258:140,2,120,0|0|8,1:1|1:1|2:2,0:0:0:0:
449,156,31133,5,0,1:1:0:0:
487,256,31478,2,0,L|467:394,2,120,0|0|8,1:1|0:0|2:2,0:0:0:0:
387,298,32512,5,0,1:1:0:0:
302,365,32857,2,0,B|258:322|258:322|186:340,1,120,0|0,1:1|1:1,0:0:0:0:
159,371,33374,2,0,L|97:359,1,60,0|8,1:1|2:2,0:0:0:0:
27,279,33892,5,0,1:1:0:0:
54,174,34236,2,0,P|103:142|163:142,1,120,0|0,1:1|0:0,0:0:0:0:
207,183,34754,1,0,1:1:0:0:
207,183,34926,1,8,2:2:0:0:
288,112,35271,5,0,1:1:0:0:
327,11,35616,1,0,1:1:0:0:
427,50,35961,2,0,P|450:102|408:154,1,120,0|8,0:0|2:2,0:0:0:0:
313,216,36650,5,0,1:1:0:0:
374,304,36995,1,0,1:1:0:0:
287,368,37340,2,0,L|159:353,1,120,0|8,0:0|2:2,0:0:0:0:
84,284,38030,5,0,1:1:0:0:
131,187,38374,1,0,1:1:0:0:
40,138,38719,1,0,0:0:0:0:
40,138,38892,2,0,L|51:71,1,60,0|8,1:1|2:2,0:0:0:0:
136,13,39409,5,0,1:1:0:0:
227,70,39754,2,0,P|249:108|253:143,1,60,0|0,1:1|0:0,0:0:0:0:
220,167,40099,2,0,L|147:158,2,60,0|0|8,1:1|1:1|2:2,0:0:0:0:
293,246,40788,5,0,1:1:0:0:
387,193,41133,1,0,1:1:0:0:
483,240,41478,2,0,P|506:192|507:114,1,120,0|8,1:1|2:2,0:0:0:0:
448,36,42168,5,0,1:1:0:0:
340,36,42512,1,0,1:1:0:0:
286,129,42857,2,0,P|238:106|160:105,1,120,0|8,0:0|2:2,0:0:0:0:
105,187,43547,5,4,2:2:0:0:
451,355,46305,6,0,B|462:300|462:300|438:254|438:254|463:146|463:146|382:81|382:81|354:193,1,431.999986816407,4|0,1:2|0:0,0:0:0:0:
137,351,49064,6,0,B|121:246|121:246|227:230|227:230|211:124|211:124|89:137,1,431.999986816407,2|2,1:2|2:2,0:0:0:0:
348,37,51823,6,0,B|357:113|357:113|434:141|434:141|450:227|450:227|390:291|390:291|296:252,1,431.999986816407,0|2,1:1|2:2,0:0:0:0:
159,50,54581,6,0,B|67:12|67:12|7:76|7:76|23:162|23:162|100:189|100:189|110:265,1,431.999986816407,0|2,1:1|2:2,0:0:0:0:
263,128,57340,5,4,1:2:0:0:
235,87,57512,1,2,2:2:0:0:
256,43,57685,2,0,L|367:20,1,107.999996704102,2|2,3:2|2:2,0:0:0:0:
455,61,58374,1,2,3:2:0:0:
455,61,58547,2,0,P|497:105|494:161,1,107.999996704102,2|2,2:2|2:2,0:0:0:0:
466,186,59064,2,0,P|371:213|275:282,1,215.999993408203,2|0,3:2|3:3,0:0:0:0:
193,331,60099,6,0,L|176:212,1,107.999996704102,2|2,1:2|3:2,0:0:0:0:
237,147,60788,2,0,L|250:80,1,53.9999983520508,2|2,2:2|2:2,0:0:0:0:
226,49,61133,2,0,L|154:33,1,53.9999983520508,2|2,3:2|2:2,0:0:0:0:
129,59,61478,2,0,P|120:33|103:12,2,53.9999983520508,2|2|2,2:2|2:2|3:2,0:0:0:0:
92,90,61995,2,0,P|56:160|53:256,1,161.999995056153,2|0,3:2|3:3,0:0:0:0:
112,316,62857,6,0,B|164:260|164:260|313:283,1,215.999993408203,0|0,1:1|0:0,0:0:0:0:
335,316,63719,1,2,2:2:0:0:
335,316,63892,2,0,L|401:306,1,53.9999983520508,2|0,3:2|0:0,0:0:0:0:
422,273,64236,1,2,2:2:0:0:
422,273,64409,1,2,2:2:0:0:
362,196,64754,1,2,3:2:0:0:
362,196,64926,2,0,L|351:130,1,53.9999983520508,2|0,2:2|0:0,0:0:0:0:
385,106,65271,2,0,L|396:40,1,53.9999983520508,2|0,3:2|3:3,0:0:0:0:
256,192,65616,12,2,67685,3:2:0:0:
114,320,68374,6,0,L|94:197,1,120,6|8,1:2|2:2,0:0:0:0:
57,169,68892,1,2,2:2:0:0:
57,169,69064,2,0,L|65:94,1,60,2|0,2:2|1:1,0:0:0:0:
102,72,69409,1,10,2:2:0:0:
181,145,69754,2,0,P|210:133|247:127,2,60,2|0|8,2:2|1:1|2:2,0:0:0:0:
130,237,70443,2,0,L|120:311,1,60,2|0,2:2|1:1,0:0:0:0:
161,333,70788,1,10,2:2:0:0:
161,333,70961,1,10,2:2:0:0:
161,333,71133,6,0,P|207:303|280:287,1,120,2|8,1:2|2:2,0:0:0:0:
318,311,71650,1,2,2:2:0:0:
318,311,71823,2,0,L|334:376,1,60,2|0,2:2|1:1,0:0:0:0:
384,384,72168,1,10,2:2:0:0:
468,316,72512,1,2,2:2:0:0:
421,218,72857,2,0,P|385:188|319:197,2,90,10|0|2,2:2|1:1|1:2,0:0:0:0:
469,194,73547,1,10,2:2:0:0:
509,94,73892,6,0,P|469:85|383:47,1,120,2|8,1:2|2:2,0:0:0:0:
355,18,74409,1,2,2:2:0:0:
355,18,74581,2,0,P|323:19|280:33,1,60,2|0,2:2|1:1,0:0:0:0:
262,68,74926,1,10,2:2:0:0:
313,163,75271,2,0,P|332:213|292:277,1,120,2|8,2:2|2:2,0:0:0:0:
259,300,75788,2,0,L|246:376,2,60,2|2|2,2:2|2:2|1:2,0:0:0:0:
217,265,76305,2,0,L|141:252,1,60,10|2,2:2|2:2,0:0:0:0:
121,295,76650,6,0,P|102:264|83:178,1,120,2|10,1:2|2:2,0:0:0:0:
118,142,77168,1,10,2:2:0:0:
36,80,77512,1,2,1:2:0:0:
36,80,77685,2,0,L|48:11,1,60,10|10,2:2|2:2,0:0:0:0:
157,14,78202,1,2,1:2:0:0:
157,14,78375,2,0,P|187:19|220:41,1,60,10|10,2:2|2:2,0:0:0:0:
247,74,78719,2,0,L|319:66,2,60,2|2|10,1:2|1:2|2:2,0:0:0:0:
156,133,79409,6,0,P|126:186|155:263,1,120,6|8,1:2|2:2,0:0:0:0:
189,269,79926,1,2,2:2:0:0:
189,269,80099,2,0,P|220:258|252:252,1,60,2|0,2:2|1:1,0:0:0:0:
260,200,80443,1,10,2:2:0:0:
347,263,80788,2,0,P|358:294|364:326,2,60,2|0|8,2:2|1:1|2:2,0:0:0:0:
425,188,81478,2,0,P|436:148|449:117,1,60,2|0,2:2|1:1,0:0:0:0:
491,106,81823,1,10,2:2:0:0:
491,106,81995,1,10,2:2:0:0:
491,106,82168,6,0,L|354:80,1,120,2|8,1:2|2:2,0:0:0:0:
338,49,82685,1,2,2:2:0:0:
338,49,82857,2,0,L|263:61,1,60,2|0,2:2|1:1,0:0:0:0:
254,106,83202,1,10,2:2:0:0:
169,38,83547,1,2,2:2:0:0:
102,123,83892,2,0,P|64:96|4:95,2,90,10|0|2,2:2|1:1|1:2,0:0:0:0:
113,175,84581,1,10,2:2:0:0:
20,230,84926,6,0,P|31:276|46:354,1,120,2|8,1:2|2:2,0:0:0:0:
97,361,85443,1,2,2:2:0:0:
97,361,85616,2,0,L|161:348,1,60,2|0,2:2|1:1,0:0:0:0:
183,302,85961,1,10,2:2:0:0:
277,352,86305,2,0,P|288:293|301:234,1,120,2|8,2:2|2:2,0:0:0:0:
354,217,86823,2,0,L|341:148,2,60,2|2|2,2:2|2:2|1:2,0:0:0:0:
393,253,87340,2,0,L|463:262,1,60,10|2,2:2|2:2,0:0:0:0:
494,226,87685,6,0,P|514:194|516:104,1,120,2|10,1:2|2:2,0:0:0:0:
471,87,88202,1,10,2:2:0:0:
366,57,88547,2,0,L|383:-12,2,60,2|10|10,1:2|2:2|2:2,0:0:0:0:
329,97,89064,1,2,2:2:0:0:
41,84,90443,6,0,P|73:67|102:57,1,60,6|2,1:2|2:2,0:0:0:0:
141,30,90788,2,0,P|167:55|185:79,1,60,10|2,2:2|2:2,0:0:0:0:
229,99,91133,2,0,L|215:227,1,120,2|10,2:2|2:2,0:0:0:0:
171,249,91650,1,2,2:2:0:0:
171,249,91823,2,0,P|135:231|106:229,2,60,2|2|10,2:2|1:2|2:2,0:0:0:0:
180,302,92340,1,2,2:2:0:0:
270,361,92685,1,0,1:1:0:0:
270,361,92857,2,0,L|281:295,1,60,8|8,2:2|2:2,0:0:0:0:
324,271,93202,6,0,L|425:249,2,90,2|2|2,1:2|2:2|2:2,0:0:0:0:
253,197,94064,1,0,1:1:0:0:
253,197,94236,2,0,P|215:157|235:79,1,120,10|2,2:2|2:2,0:0:0:0:
261,59,94754,1,0,1:1:0:0:
261,59,94926,1,8,2:2:0:0:
359,13,95271,2,0,L|431:26,1,60,2|2,2:2|1:2,0:0:0:0:
463,53,95616,1,10,2:2:0:0:
444,159,95961,6,0,P|450:188|451:218,1,60,2|2,1:2|2:2,0:0:0:0:
472,267,96305,2,0,P|455:292|435:314,1,60,10|2,2:2|2:2,0:0:0:0:
381,304,96650,2,0,L|254:287,1,120,2|10,2:2|2:2,0:0:0:0:
211,307,97168,1,2,2:2:0:0:
211,307,97340,2,0,L|204:374,2,60,2|2|10,2:2|1:2|2:2,0:0:0:0:
169,271,97857,2,0,P|140:223|141:136,1,120,2|0,2:2|1:1,0:0:0:0:
170,119,98374,1,8,2:2:0:0:
259,179,98719,6,0,P|315:188|396:214,1,120,2|10,1:2|2:2,0:0:0:0:
422,179,99236,1,10,2:2:0:0:
389,76,99581,1,2,1:2:0:0:
389,76,99754,2,0,P|391:46|398:10,1,60,10|10,2:2|2:2,0:0:0:0:
293,37,100271,1,0,1:1:0:0:
293,37,100443,2,0,P|298:66|300:96,1,60,10|10,2:2|2:2,0:0:0:0:
260,133,100788,2,0,L|186:123,2,60,2|2|10,1:2|1:2|2:2,0:0:0:0:
354,186,101478,6,0,P|346:224|342:256,1,60,6|2,1:2|2:2,0:0:0:0:
390,270,101823,2,0,P|398:308|402:340,1,60,10|2,2:2|2:2,0:0:0:0:
363,368,102168,2,0,P|324:351|239:340,1,120,2|10,2:2|2:2,0:0:0:0:
212,306,102685,1,2,2:2:0:0:
212,305,102857,2,0,B|200:279|201:237,2,60,2|2|10,2:2|1:2|2:2,0:0:0:0:
164,330,103374,1,2,2:2:0:0:
73,384,103719,1,0,1:1:0:0:
73,384,103892,2,0,L|-3:377,1,60,8|8,2:2|2:2,0:0:0:0:
9,324,104236,6,0,B|-14:286|-14:286|1:233,2,90,2|2|2,1:2|2:2|2:2,0:0:0:0:
100,264,105099,1,0,1:1:0:0:
100,264,105271,2,0,L|81:128,1,120,10|2,2:2|2:2,0:0:0:0:
50,109,105788,1,0,1:1:0:0:
50,109,105961,1,8,2:2:0:0:
120,27,106305,2,0,L|184:19,1,60,2|2,2:2|1:2,0:0:0:0:
222,52,106650,1,10,2:2:0:0:
284,140,106995,5,0,1:1:0:0:
323,179,107168,1,2,2:2:0:0:
306,231,107340,2,0,L|243:247,1,60,10|0,2:2|0:0,0:0:0:0:
216,289,107685,2,0,L|153:273,1,60,2|0,2:2|1:1,0:0:0:0:
111,238,108030,1,10,2:2:0:0:
111,238,108202,2,0,P|87:274|100:351,1,120,2|2,2:2|1:2,0:0:0:0:
141,380,108719,1,10,2:2:0:0:
301,341,109236,1,0,1:1:0:0:
301,341,109409,1,8,2:2:0:0:
256,192,109754,12,2,111823,2:2:0:0:
412,361,112512,6,0,P|402:310|367:225,1,120,6|8,1:2|2:2,0:0:0:0:
412,204,113030,1,2,2:2:0:0:
412,204,113202,2,0,P|443:200|479:189,1,60,2|0,2:2|1:1,0:0:0:0:
491,142,113547,1,10,2:2:0:0:
404,76,113892,2,0,L|392:16,2,60,2|0|8,2:2|1:1|2:2,0:0:0:0:
325,149,114581,2,0,L|315:216,1,60,2|0,2:2|1:1,0:0:0:0:
343,255,114926,1,10,2:2:0:0:
343,255,115099,1,10,2:2:0:0:
343,255,115271,6,0,P|291:234|215:226,1,120,2|8,1:2|2:2,0:0:0:0:
193,183,115788,1,2,2:2:0:0:
193,183,115961,2,0,P|163:202|131:209,1,60,2|0,2:2|1:1,0:0:0:0:
104,249,116305,1,10,2:2:0:0:
28,171,116650,1,2,2:2:0:0:
81,76,116995,2,0,B|87:31|87:31|48:-11,2,90,10|0|2,2:2|1:1|1:2,0:0:0:0:
121,112,117685,1,10,2:2:0:0:
209,50,118030,6,0,P|262:52|324:85,1,120,2|8,1:2|2:2,0:0:0:0:
338,133,118547,1,2,2:2:0:0:
338,133,118719,2,0,L|408:124,1,60,2|0,2:2|1:1,0:0:0:0:
431,83,119064,1,10,2:2:0:0:
489,174,119409,2,0,P|442:235|428:281,1,120,2|8,2:2|2:2,0:0:0:0:
381,301,119926,2,0,P|373:333|370:367,2,60,2|2|2,2:2|2:2|1:2,0:0:0:0:
348,257,120443,2,0,P|318:253|289:246,1,60,10|2,2:2|2:2,0:0:0:0:
244,276,120788,6,0,P|184:295|131:335,1,120,2|10,1:2|2:2,0:0:0:0:
118,378,121305,1,10,2:2:0:0:
43,308,121650,1,2,1:2:0:0:
43,308,121823,2,0,L|33:239,1,60,10|10,2:2|2:2,0:0:0:0:
125,188,122340,1,2,1:2:0:0:
125,188,122513,2,0,L|135:119,1,60,10|10,2:2|2:2,0:0:0:0:
100,85,122857,2,0,P|68:66|35:59,2,60,2|2|10,1:2|1:2|2:2,0:0:0:0:
198,39,123547,6,0,B|225:13|225:13|318:6,1,120,6|8,1:2|2:2,0:0:0:0:
349,41,124064,1,2,2:2:0:0:
349,41,124236,2,0,L|360:105,1,60,2|0,2:2|1:1,0:0:0:0:
329,145,124581,1,10,2:2:0:0:
229,186,124926,2,0,P|199:171|170:163,2,60,2|0|8,2:2|1:1|2:2,0:0:0:0:
287,277,125616,2,0,P|315:268|342:254,1,60,2|0,2:2|1:1,0:0:0:0:
385,222,125961,1,10,2:2:0:0:
385,222,126133,1,10,2:2:0:0:
385,222,126305,6,0,P|373:282|364:364,1,120,2|8,1:2|2:2,0:0:0:0:
410,371,126823,1,2,2:2:0:0:
410,371,126995,2,0,L|480:362,1,60,2|0,2:2|1:1,0:0:0:0:
499,318,127340,1,10,2:2:0:0:
481,211,127685,1,2,2:2:0:0:
464,104,128030,2,0,P|471:59|488:13,2,90,10|0|2,2:2|1:1|1:2,0:0:0:0:
417,131,128719,1,10,2:2:0:0:
342,53,129064,6,0,P|306:73|223:88,1,120,2|8,1:2|2:2,0:0:0:0:
187,54,129581,1,2,2:2:0:0:
187,54,129754,2,0,P|159:44|111:39,1,60,2|0,2:2|1:1,0:0:0:0:
88,75,130099,1,10,2:2:0:0:
21,159,130443,2,0,P|73:179|130:225,1,120,2|8,2:2|2:2,0:0:0:0:
171,243,130961,2,0,L|183:307,2,60,2|2|2,2:2|2:2|1:2,0:0:0:0:
211,206,131478,2,0,L|279:194,1,60,10|2,2:2|2:2,0:0:0:0:
256,192,131823,12,4,134581,2:2:0:0:
