osu file format v14

[General]
AudioFilename: audio.mp3
AudioLeadIn: 0
PreviewTime: 197036
Countdown: 0
SampleSet: Soft
StackLeniency: 0.7
Mode: 0
LetterboxInBreaks: 0
WidescreenStoryboard: 1

[Editor]
Bookmarks: 6088,43847,48502,230571
DistanceSpacing: 1
BeatDivisor: 4
GridSize: 32
TimelineZoom: 2.3

[Metadata]
Title:Granite (Original Mix)
TitleUnicode:Granite (Original Mix)
Artist:Pendulum
ArtistUnicode:Pendulum
Creator:Zetera
Version:Sane
Source:
Tags:drum and bass dnb electronic english in silico rob swire need for speed undercover pure original mix
BeatmapID:4026577
BeatmapSetID:1847112

[Difficulty]
HPDrainRate:5.5
CircleSize:4
OverallDifficulty:8
ApproachRate:9
SliderMultiplier:2.2
SliderTickRate:1

[Events]
//Background and Video events
0,0,"BG_granite.png",0,0
//Break Periods
2,186633,191350
//Storyboard Layer 0 (Background)
//Storyboard Layer 1 (Fail)
//Storyboard Layer 2 (Pass)
//Storyboard Layer 3 (Foreground)
//Storyboard Layer 4 (Overlay)
//Storyboard Sound Samples

[TimingPoints]
2985,344.827586206897,4,2,0,60,1,0
4364,-250.000000000001,4,2,0,60,0,0
26433,-166.666666666667,4,2,0,60,0,0
27812,-166.666666666667,4,2,0,70,0,0
36088,-166.666666666667,4,2,0,80,0,0
47122,-166.666666666667,4,2,0,90,0,0
48502,-142.857142857143,4,2,0,100,0,1
50829,-142.857142857143,4,2,0,5,0,1
50916,-142.857142857143,4,2,0,100,0,1
56346,-142.857142857143,4,2,0,5,0,1
56433,-142.857142857143,4,2,0,100,0,1
59449,-142.857142857143,4,2,0,5,0,1
59536,-142.857142857143,4,2,0,100,0,1
61863,-142.857142857143,4,2,0,5,0,1
61950,-142.857142857143,4,2,0,100,0,1
67380,-142.857142857143,4,2,0,5,0,1
67467,-142.857142857143,4,2,0,100,0,1
70571,-142.857142857143,4,2,0,90,0,0
72725,-142.857142857143,4,2,0,5,0,0
72812,-142.857142857143,4,2,0,90,0,0
81518,-142.857142857143,4,2,0,5,0,0
81605,-142.857142857143,4,2,0,90,0,0
84277,-142.857142857143,4,2,0,5,0,0
84364,-142.857142857143,4,2,0,90,0,0
98070,-142.857142857143,4,2,0,5,0,0
98157,-142.857142857143,4,2,0,95,0,0
100829,-142.857142857143,4,2,0,5,0,0
100916,-142.857142857143,4,2,0,90,0,0
102640,-125,4,2,0,90,0,0
102985,-111.111111111111,4,2,0,90,0,0
103329,-100,4,2,0,90,0,0
103674,-100,4,2,0,100,0,0
104019,-133.333333333333,4,2,0,100,0,0
111174,-133.333333333333,4,2,0,5,0,0
111260,-133.333333333333,4,2,0,100,0,0
120139,-133.333333333333,4,2,0,5,0,0
120226,-133.333333333333,4,2,0,100,0,0
126088,-133.333333333333,4,2,0,100,0,1
128070,-133.333333333333,4,2,0,5,0,1
128157,-133.333333333333,4,2,0,100,0,1
133587,-133.333333333333,4,2,0,5,0,1
133674,-133.333333333333,4,2,0,100,0,1
136691,-133.333333333333,4,2,0,5,0,1
136778,-133.333333333333,4,2,0,100,0,1
139105,-133.333333333333,4,2,0,5,0,1
139191,-133.333333333333,4,2,0,100,0,1
144622,-133.333333333333,4,2,0,5,0,1
144709,-133.333333333333,4,2,0,100,0,1
144881,-133.333333333333,4,2,0,5,0,1
145053,-133.333333333333,4,2,0,100,0,1
146260,-133.333333333333,4,2,0,5,0,1
146433,-133.333333333333,4,2,0,100,0,1
147812,-133.333333333333,4,2,0,90,0,0
149019,-133.333333333333,4,2,0,5,0,0
149191,-133.333333333333,4,2,0,90,0,0
156691,-133.333333333333,4,2,0,5,0,0
156778,-133.333333333333,4,2,0,90,0,0
161518,-133.333333333333,4,2,0,5,0,0
161605,-133.333333333333,4,2,0,90,0,0
164881,-133.333333333333,4,2,0,5,0,0
165053,-133.333333333333,4,2,0,90,0,0
166518,-133.333333333333,4,2,0,5,0,0
166605,-133.333333333333,4,2,0,90,0,0
175398,-133.333333333333,4,2,0,95,0,0
180139,-133.333333333333,4,2,0,5,0,0
180226,-133.333333333333,4,2,0,95,0,0
183070,-133.333333333333,4,2,0,5,0,0
183157,-133.333333333333,4,2,0,90,0,0
184364,-133.333333333333,4,2,0,80,0,0
184709,-133.333333333333,4,2,0,70,0,0
185053,-133.333333333333,4,2,0,60,0,0
185398,-133.333333333333,4,2,0,50,0,0
185743,-133.333333333333,4,2,0,40,0,0
186433,-133.333333333333,4,2,0,60,0,0
191950,-181.818181818181,4,2,0,60,0,0
197984,-181.818181818181,4,2,0,5,0,0
198157,-181.818181818181,4,2,0,60,0,0
198329,-181.818181818181,4,2,0,5,0,0
198502,-181.818181818181,4,2,0,60,0,0
200743,-181.818181818181,4,2,0,5,0,0
200916,-181.818181818181,4,2,0,60,0,0
201088,-181.818181818181,4,2,0,5,0,0
201260,-181.818181818181,4,2,0,60,0,0
207295,-181.818181818181,4,2,0,100,0,0
208502,-117.647058823529,4,2,0,100,0,0
209967,-117.647058823529,4,2,0,5,0,0
210053,-117.647058823529,4,2,0,100,0,0
212725,-117.647058823529,4,2,0,5,0,0
212812,-117.647058823529,4,2,0,100,0,0
218243,-117.647058823529,4,2,0,5,0,0
218329,-117.647058823529,4,2,0,100,0,0
221001,-117.647058823529,4,2,0,5,0,0
221088,-117.647058823529,4,2,0,100,0,0
223760,-117.647058823529,4,2,0,5,0,0
223847,-117.647058823529,4,2,0,100,0,0
230571,-117.647058823529,4,2,0,100,0,1
232122,-117.647058823529,4,2,0,5,0,1
232295,-117.647058823529,4,2,0,100,0,1
234881,-117.647058823529,4,2,0,5,0,1
235053,-117.647058823529,4,2,0,100,0,1
239019,-117.647058823529,4,2,0,5,0,1
239191,-117.647058823529,4,2,0,100,0,1
240829,-117.647058823529,4,2,0,5,0,1
240916,-117.647058823529,4,2,0,100,0,1
243587,-117.647058823529,4,2,0,5,0,1
243674,-117.647058823529,4,2,0,100,0,1
252640,-117.647058823529,4,2,0,100,0,0
252726,-117.647058823529,4,2,0,10,0,0

[Colours]
Combo1 : 14,216,160
Combo2 : 114,116,141
Combo3 : 71,131,128
Combo4 : 0,128,192
Combo5 : 0,232,232
Combo6 : 185,79,249

[HitObjects]
41,263,4364,6,0,P|58:311|67:357,2,88,4|2|8,1:0|1:2|0:2,0:0:0:0:
185,250,5398,2,0,P|170:284|165:307,1,44,2|0,0:0|0:0,0:0:0:0:
146,367,5743,1,2,1:2:0:0:
99,208,6088,1,2,0:0:0:0:
263,263,6433,2,0,B|364:262|312:189|437:199,1,176,8|2,0:0|0:0,0:0:0:0:
454,294,7467,6,0,P|435:285|409:274,1,44,2|0,3:2|0:0,0:0:0:0:
500,223,7812,1,8,0:0:0:0:
401,115,8157,2,0,P|438:106|476:91,1,66,2|0,0:0|0:0,0:0:0:0:
465,97,8502,1,0,1:0:0:0:
303,1,8674,2,0,P|313:35|319:89,1,88,2|0,0:0|1:0,0:0:0:0:
433,12,9191,2,0,P|403:5|383:-4,1,44,8|0,0:0|0:0,0:0:0:0:
228,69,9536,1,0,0:0:0:0:
324,177,9881,6,0,P|308:218|300:264,2,88,0|2|8,1:0|1:2|0:0,0:0:0:0:
196,223,10916,2,0,P|205:253|209:275,1,44,2|0,0:0|0:0,0:0:0:0:
224,345,11260,1,2,1:2:0:0:
383,242,11605,1,2,0:0:0:0:
216,136,11950,2,0,B|113:119|162:203|50:195,1,176,8|2,0:0|0:0,0:0:0:0:
5,129,12985,6,0,P|39:121|62:115,1,44,2|0,3:2|0:0,0:0:0:0:
101,62,13329,1,8,0:0:0:0:
21,253,13674,1,2,0:0:0:0:
206,218,14019,6,0,P|247:227|267:229,1,44,0|0,3:0|0:0,0:0:0:0:
99,347,14364,2,0,P|58:338|38:336,1,44,2|0,0:0|0:0,0:0:0:0:
166,294,14709,2,0,P|226:307|255:310,1,88,8|2,0:0|0:0,0:0:0:0:
422,245,15398,6,0,B|405:186|450:190|460:122|460:122|494:190|424:247,1,264,4|0,0:1|0:0,0:0:0:0:
348,280,16605,1,2,0:0:0:0:
348,280,16778,2,0,B|395:313|345:322|361:368|361:368|325:324|342:289,1,176,0|8,3:0|0:0,0:0:0:0:
297,153,17812,6,0,P|311:114|311:91,1,44,0|2,3:0|3:2,0:0:0:0:
233,108,18157,2,0,B|181:66|252:43|179:4|179:4|152:85|228:121,1,264,2|2,3:2|0:0,0:0:0:0:
383,69,19536,2,0,P|358:37|301:34,1,88,0|0,3:0|0:0,0:0:0:0:
210,192,20226,2,0,P|185:224|128:227,1,88,8|0,0:0|3:0,0:0:0:0:
26,105,20916,6,0,B|-13:61|49:85|3:-15|3:-15|72:31|26:97,1,264,0|2,3:0|0:0,0:0:0:0:
82,169,22295,2,0,B|25:241|73:219|54:291|54:291|122:239|83:172,1,264,0|0,3:0|3:0,0:0:0:0:
126,93,23502,5,0,0:0:0:0:
126,93,23674,2,0,B|178:148|278:90|196:50|327:9|365:57,1,264,2|2,0:0|0:0,0:0:0:0:
358,50,25053,6,0,P|349:10|345:-11,1,44,0|0,3:0|0:0,0:0:0:0:
313,126,25398,2,0,P|282:153|266:167,1,44,2|0,3:2|3:0,0:0:0:0:
398,129,25743,2,0,P|457:147|487:158,1,88,8|2,3:2|0:0,0:0:0:0:
22,83,26433,5,4,1:0:0:0:
99,29,26778,1,2,1:3:0:0:
99,29,26950,2,0,P|111:69|116:98,1,65.9999979858399,2|0,3:0|3:0,0:0:0:0:
214,104,27295,1,0,3:0:0:0:
214,104,27467,2,0,P|192:158|184:187,1,65.9999979858399,2|0,1:3|0:0,0:0:0:0:
93,179,27812,6,0,P|59:162|26:157,1,65.9999979858399,2|0,3:2|0:0,0:0:0:0:
86,274,28157,2,0,P|118:267|147:252,1,65.9999979858399,2|2,1:3|0:3,0:0:0:0:
10,233,28502,2,0,P|36:291|47:369,2,131.99999597168,2|2|0,0:0|1:3|3:0,0:0:0:0:
221,382,29536,5,2,1:3:0:0:
221,382,29709,2,0,P|255:371|296:364,1,65.9999979858399,2|0,3:0|3:0,0:0:0:0:
360,311,30053,1,0,3:0:0:0:
360,311,30226,2,0,P|399:325|447:338,1,65.9999979858399,2|0,1:3|0:3,0:0:0:0:
486,266,30571,6,0,P|483:229|460:202,1,65.9999979858399,2|2,3:2|0:0,0:0:0:0:
336,139,30916,2,0,P|369:154|404:148,1,65.9999979858399,2|2,1:3|0:0,0:0:0:0:
509,30,31260,2,0,P|488:80|481:150,1,98.9999969787599,2|0,3:2|0:0,0:0:0:0:
480,123,31605,1,2,1:3:0:0:
402,30,31950,6,0,P|344:19|265:-3,1,131.99999597168,4|2,3:1|1:3,0:0:0:0:
196,42,32467,2,0,P|206:88|211:117,1,65.9999979858399,2|0,3:0|3:0,0:0:0:0:
295,145,32812,1,0,3:0:0:0:
295,145,32985,2,0,P|329:113|352:94,1,65.9999979858399,2|0,1:3|0:3,0:0:0:0:
512,217,33329,6,0,P|504:260|508:289,1,65.9999979858399,2|2,3:2|0:0,0:0:0:0:
364,205,33674,2,0,P|405:189|428:171,1,65.9999979858399,2|2,1:3|3:2,0:0:0:0:
464,370,34019,2,0,P|429:341|343:317,2,131.99999597168,2|2|0,3:2|1:3|3:0,0:0:0:0:
269,256,35053,5,2,1:3:0:0:
269,256,35226,2,0,P|258:313|253:347,1,65.9999979858399,2|0,3:0|3:0,0:0:0:0:
102,384,35571,1,0,3:0:0:0:
102,384,35744,2,0,P|91:327|86:293,1,65.9999979858399,2|0,1:3|0:3,0:0:0:0:
22,142,36088,5,2,3:2:0:0:
170,220,36260,1,2,0:0:0:0:
92,89,36433,1,2,1:3:0:0:
92,89,36519,1,0,0:0:0:0:
92,89,36605,2,0,P|114:126|114:154,2,65.9999979858399,2|2|0,0:0|3:2|0:0,0:0:0:0:
66,232,37122,1,2,1:3:0:0:
165,7,37467,6,0,P|203:61|265:57,1,131.99999597168,4|2,0:1|1:3,0:0:0:0:
343,85,37985,2,0,P|352:38|360:8,1,65.9999979858399,2|0,0:3|0:0,0:0:0:0:
277,140,38329,1,0,3:0:0:0:
424,161,38502,2,0,P|391:165|359:169,1,65.9999979858399,2|0,1:3|0:0,0:0:0:0:
352,352,38847,5,2,3:2:0:0:
274,327,39019,2,0,P|238:315|206:306,2,65.9999979858399,2|2|2,0:0|1:3|0:0,0:1:0:0:
343,272,39536,2,0,P|407:261|487:252,2,131.99999597168,2|2|2,3:2|1:3|3:2,0:0:0:0:
83,353,40571,5,2,1:3:0:0:
83,353,40743,2,0,P|75:315|65:279,1,65.9999979858399,2|0,3:0|0:0,3:0:0:0:
12,211,41088,1,0,3:0:0:0:
168,219,41260,2,0,P|114:211|92:205,1,65.9999979858399,2|0,1:3|0:0,0:0:0:0:
79,67,41605,5,2,3:2:0:0:
164,60,41778,2,0,P|178:25|190:-2,2,65.9999979858399,2|2|2,0:0|1:3|0:0,0:0:0:0:
0,96,42295,2,0,P|62:111|138:136,1,131.99999597168,2|2,3:2|1:3,0:0:0:0:
444,38,42985,6,0,P|392:26|369:17,1,65.9999979858399,4|0,3:1|0:0,0:0:0:0:
418,171,43329,1,2,1:3:0:0:
418,171,43502,2,0,P|454:131|473:116,1,65.9999979858399,2|0,0:3|3:0,0:0:0:0:
307,85,43847,1,2,0:0:0:0:
307,85,44020,2,0,P|322:136|326:160,1,65.9999979858399,2|0,1:3|0:0,0:0:0:0:
506,204,44364,5,2,3:2:0:0:
430,267,44536,2,0,P|390:259|359:251,2,65.9999979858399,2|2|2,0:0|1:3|0:0,0:0:0:0:
382,363,45053,2,0,P|448:351|519:342,1,131.99999597168,2|2,3:2|1:3,0:0:0:0:
275,200,45743,6,0,P|268:236|264:274,1,65.9999979858399,2|0,3:2|0:0,0:0:0:0:
264,265,46088,1,0,1:0:0:0:
167,328,46260,1,0,0:0:0:0:
167,328,46347,1,0,0:0:0:0:
167,328,46433,2,0,P|162:295|156:262,1,65.9999979858399,2|0,0:0|3:0,0:0:0:0:
156,262,46778,1,0,1:0:0:0:
259,372,46950,1,2,3:2:0:0:
86,339,47122,6,0,L|49:331,3,32.99999899292,2|0|2|0,3:2|3:0|3:2|3:0,0:0:0:0:
173,244,47467,2,0,L|218:233,3,32.99999899292,2|0|2|0,1:3|3:0|3:2|3:0,0:0:0:0:
86,194,47812,2,0,L|51:183,1,32.99999899292,2|0,3:2|0:0,0:0:0:0:
141,124,47985,2,0,L|175:109,1,32.99999899292,4|0,3:0|0:0,0:0:0:0:
81,57,48157,5,4,1:2:0:0:
291,19,48502,6,0,P|371:41|401:115,1,153.999995300293,4|2,1:0|1:3,0:0:0:0:
328,182,49019,1,2,0:0:0:0:
328,182,49191,2,0,P|315:127|307:96,1,76.9999976501466,2|0,0:0|1:0,0:0:0:0:
492,111,49536,2,0,P|463:204|453:255,1,115.49999647522,2|2,1:3|0:0,0:0:0:0:
459,221,49881,6,0,L|472:318,1,76.9999976501466,0|2,1:0|0:0,0:0:0:0:
371,299,50226,2,0,L|334:375,1,76.9999976501466,2|2,1:3|0:0,0:0:0:0:
260,327,50571,2,0,L|131:344,1,115.49999647522,2|0,0:0|0:0,0:0:0:0:
145,342,50916,2,0,P|131:293|108:259,1,76.9999976501466,2|2,1:3|0:0,0:0:0:0:
17,183,51260,6,0,P|86:178|127:94,1,153.999995300293,0|2,1:0|1:3,0:0:0:0:
126,25,51778,1,2,0:0:0:0:
41,28,51950,2,0,P|46:72|48:104,1,76.9999976501466,2|0,0:0|1:0,0:0:0:0:
204,152,52295,2,0,P|217:60|232:5,1,115.49999647522,2|2,1:3|0:0,0:0:0:0:
222,38,52640,6,0,P|268:14|307:25,1,76.9999976501466,0|2,1:0|0:0,0:0:0:0:
407,193,52985,2,0,P|369:193|337:172,1,76.9999976501466,2|2,1:3|0:0,0:0:0:0:
337,172,53243,1,2,0:0:0:0:
337,172,53329,1,2,3:2:0:0:
441,21,53502,1,0,1:0:0:0:
505,84,53674,2,0,P|492:127|486:164,1,76.9999976501466,2|2,1:3|0:0,0:0:0:0:
455,321,54019,6,0,P|397:299|299:284,1,153.999995300293,4|2,1:0|1:3,0:0:0:0:
245,226,54536,1,2,0:0:0:0:
179,282,54709,2,0,P|168:319|176:357,1,76.9999976501466,2|0,0:0|1:0,0:0:0:0:
331,197,55053,2,0,P|336:137|308:83,1,115.49999647522,2|2,1:3|0:0,0:0:0:0:
312,88,55398,6,0,P|273:79|238:70,1,76.9999976501466,0|2,1:0|0:0,0:0:0:0:
117,172,55743,2,0,P|156:160|204:150,1,76.9999976501466,2|2,1:3|0:0,0:0:0:0:
183,8,56088,2,0,P|120:22|46:33,1,115.49999647522,2|0,0:0|0:0,0:0:0:0:
69,30,56433,2,0,P|47:73|53:102,1,76.9999976501466,2|2,1:3|0:0,0:0:0:0:
262,200,56778,6,0,P|292:260|263:350,1,153.999995300293,0|2,1:0|1:3,0:0:0:0:
185,365,57295,1,2,0:0:0:0:
128,293,57467,2,0,P|174:286|208:278,1,76.9999976501466,2|0,0:0|1:0,0:0:0:0:
345,376,57812,2,0,P|405:360|483:353,1,115.49999647522,2|0,1:3|0:0,0:0:0:0:
457,353,58157,6,0,L|469:262,1,76.9999976501466,0|2,1:0|1:2,0:0:0:0:
315,207,58502,1,2,1:3:0:0:
394,242,58674,1,2,0:0:0:0:
475,113,58847,6,0,L|462:196,1,76.9999976501466,2|2,1:2|1:2,0:0:0:0:
240,275,59191,2,0,L|225:135,1,115.49999647522,2|0,1:3|0:0,0:0:0:0:
227,160,59536,6,0,P|125:175|109:245,1,153.999995300293,4|2,1:0|1:3,0:0:0:0:
0,129,60053,1,2,0:0:0:0:
0,129,60226,2,0,P|9:181|11:210,1,76.9999976501466,2|0,0:0|1:0,0:0:0:0:
107,212,60571,2,0,P|97:268|90:340,1,115.49999647522,2|2,1:3|0:0,0:0:0:0:
90,326,60916,6,0,P|137:323|166:287,1,76.9999976501466,0|2,1:0|0:0,0:0:0:0:
249,349,61260,2,0,P|260:303|236:264,1,76.9999976501466,2|2,1:3|0:0,0:0:0:0:
336,212,61605,2,0,P|298:175|218:186,1,115.49999647522,2|0,0:0|0:0,0:0:0:0:
238,173,61950,2,0,L|221:82,1,76.9999976501466,2|0,1:3|0:0,0:0:0:0:
418,0,62295,6,0,L|394:169,1,153.999995300293,0|2,1:0|1:3,0:0:0:0:
471,186,62812,1,2,0:0:0:0:
404,234,62985,2,0,P|359:231|332:206,1,76.9999976501466,2|0,0:0|1:0,0:0:0:0:
265,32,63329,2,0,P|206:41|167:96,1,115.49999647522,2|2,1:3|0:0,0:0:0:0:
171,81,63674,6,0,L|158:-6,1,76.9999976501466,0|2,1:0|0:0,0:0:0:0:
241,148,64019,2,0,L|227:239,1,76.9999976501466,2|2,1:3|0:0,0:0:0:0:
229,224,64278,1,2,0:0:0:0:
229,224,64364,1,0,1:0:0:0:
39,263,64536,1,2,1:2:0:0:
65,184,64709,2,0,L|157:164,1,76.9999976501466,2|0,1:3|0:0,0:0:0:0:
335,211,65053,6,0,P|356:267|337:364,1,153.999995300293,4|2,1:0|1:3,0:0:0:0:
214,380,65571,1,2,0:0:0:0:
251,304,65743,2,0,P|240:244|232:213,1,76.9999976501466,2|0,1:3|1:0,0:0:0:0:
389,142,66088,2,0,P|397:84|413:7,1,115.49999647522,2|2,1:3|0:0,0:0:0:0:
407,28,66433,6,0,P|366:-8|333:2,1,76.9999976501466,0|0,1:0|0:0,0:0:0:0:
444,207,66778,2,0,P|496:188|504:155,1,76.9999976501466,2|2,1:3|1:2,0:0:0:0:
291,146,67122,2,0,P|274:233|314:271,1,115.49999647522
285,250,67467,2,2,L|194:231,1,76.9999976501466,2|0,1:3|0:0,0:0:0:0:
52,347,67812,6,0,P|43:267|24:175,1,153.999995300293,0|2,1:0|1:3,0:0:0:0:
6,113,68329,1,2,0:0:0:0:
64,53,68502,2,0,P|103:66|141:75,1,76.9999976501466,2|0,0:0|1:0,0:0:0:0:
187,154,68847,2,0,P|149:163|113:175,1,76.9999976501466,2|0,1:3|0:0,0:0:0:0:
187,0,69191,5,0,1:0:0:0:
278,0,69364,1,0,3:0:0:0:
327,74,69536,1,2,1:3:0:0:
282,158,69709,1,0,1:0:0:0:
282,158,69795,1,0,0:0:0:0:
282,158,69881,2,0,L|291:244,1,76.9999976501466,0|0,3:0|1:0,0:0:0:0:
469,343,70226,1,4,1:2:0:0:
469,343,70571,6,0,L|478:255,1,76.9999976501466,4|2,1:0|0:2,0:0:0:0:
429,194,70916,1,2,3:0:0:0:
512,186,71088,2,0,L|356:155,1,153.999995300293,0|2,3:0|1:2,0:0:0:0:
305,85,71605,2,0,P|301:43|295:-1,1,76.9999976501466,2|0,3:0|0:0,0:0:0:0:
275,166,71950,6,0,P|266:215|263:244,1,76.9999976501466,2|0,1:2|0:0,0:0:0:0:
186,279,72295,1,2,3:0:0:0:
236,348,72467,2,0,P|188:330|91:313,1,115.49999647522
107,324,72812,1,2,1:2:0:0:
10,135,72985,2,0,P|55:126|89:109,1,76.9999976501466,2|0,3:0|0:0,0:0:0:0:
44,273,73329,5,2,1:2:0:0:
162,75,73502,2,0,L|143:-23,1,76.9999976501466,0|2,0:0|3:0,0:0:0:0:
168,168,73847,1,2,0:0:0:0:
168,168,73933,1,0,0:0:0:0:
168,168,74019,2,0,P|219:180|246:197,1,76.9999976501466,2|0,0:0|1:0,0:0:0:0:
311,0,74364,2,0,P|276:17|239:24,1,76.9999976501466,2|2,1:3|0:0,0:0:0:0:
281,264,74709,5,0,1:0:0:0:
357,303,74881,1,2,0:0:0:0:
435,271,75053,2,0,L|446:170,1,76.9999976501466,2|2,1:3|0:0,0:0:0:0:
422,162,75312,2,0,L|427:117,2,38.4999988250733,2|0|0,3:0|0:0|3:0,0:0:0:0:
354,211,75571,5,2,1:2:0:0:
504,94,75743,1,2,1:3:0:0:
345,12,75916,1,2,0:2:0:0:
398,106,76088,6,0,P|326:91|242:77,1,153.999995300293,6|2,1:2|3:3,0:0:0:0:
142,0,76605,2,0,P|156:46|168:93,1,76.9999976501466,0|0,3:0|0:0,0:0:0:0:
256,164,76950,1,2,1:2:0:0:
210,235,77122,2,0,P|197:280|190:317,1,76.9999976501466,2|0,3:0|0:0,0:0:0:0:
25,255,77467,6,0,P|49:315|65:392,1,115.49999647522,2|0,1:2|0:0,0:0:0:0:
62,365,77812,1,2,3:0:0:0:
106,182,77985,2,0,P|63:175|21:140,1,76.9999976501466,0|0,3:0|0:0,0:0:0:0:
149,380,78329,1,2,1:2:0:0:
191,309,78502,2,0,P|223:289|261:284,1,76.9999976501466,2|0,3:0|0:0,0:0:0:0:
465,293,78847,6,0,P|453:355|447:404,1,76.9999976501466,2|0,1:2|0:0,0:0:0:0:
371,313,79191,1,2,3:0:0:0:
468,201,79364,1,2,0:0:0:0:
468,201,79450,1,0,0:0:0:0:
468,201,79536,2,0,P|422:203|392:228,1,76.9999976501466,2|0,0:2|1:0,0:0:0:0:
296,91,79881,2,0,P|289:52|282:15,1,76.9999976501466,2|2,3:0|0:0,0:0:0:0:
350,154,80226,5,0,1:0:0:0:
211,85,80398,1,2,0:0:0:0:
374,34,80571,2,0,L|462:20,1,76.9999976501466,2|2,3:0|0:0,0:0:0:0:
450,21,80829,1,2,0:3:0:0:
450,21,80916,2,0,P|473:64|468:98,1,76.9999976501466,2|0,0:0|1:0,0:0:0:0:
303,227,81260,2,2,P|273:275|293:348,1,115.49999647522,2|0,1:3|0:0,0:1:0:0:
281,330,81605,6,2,L|124:306,1,153.999995300293,4|2,1:0|1:3,0:1:0:0:
88,232,82122,1,2,0:0:0:0:
57,384,82295,2,0,P|51:333|41:298,1,76.9999976501466,2|0,0:2|1:0,0:0:0:0:
157,180,82640,2,0,P|164:128|173:98,1,76.9999976501466,2|2,1:3|0:0,0:0:0:0:
75,69,82985,6,0,L|-10:55,2,76.9999976501466,0|2|2,1:0|0:0|1:3,0:0:0:0:
245,48,83502,1,2,0:0:0:0:
170,104,83674,2,0,P|164:54|152:11,1,76.9999976501466,2|0,0:0|1:0,0:0:0:0:
342,17,84019,2,0,P|329:69|323:140,1,115.49999647522,2|0,1:3|0:0,0:0:0:0:
323,130,84364,6,0,P|332:158|336:187,3,38.4999988250733,0|0|2|0,1:0|3:0|3:2|3:0,0:0:0:0:
427,224,84708,1,2,1:3:0:0:
427,224,84795,1,0,3:0:0:0:
427,224,84881,1,2,0:0:0:0:
427,224,84967,1,0,3:0:0:0:
427,224,85053,2,0,P|418:252|414:281,3,38.4999988250733,2|0|0|0,0:2|3:0|1:0|3:0,0:0:0:0:
344,310,85398,1,2,1:3:0:0:
329,297,85485,1,0,3:0:0:0:
308,287,85571,1,2,3:2:0:0:
286,283,85657,1,0,3:0:0:0:
263,288,85743,6,0,L|268:328,1,38.4999988250733,4|8,3:0|3:0,0:0:0:0:
95,255,86002,2,0,L|111:362,1,76.9999976501466,8|4,3:0|3:0,0:0:0:0:
132,343,86260,2,0,L|138:384,1,38.4999988250733,8|8,3:0|3:0,0:0:0:0:
36,367,86433,1,4,3:0:0:0:
182,262,86605,1,4,3:0:0:0:
2,192,86778,1,4,1:2:0:0:
2,192,87122,6,0,P|7:132|18:107,1,76.9999976501466,4|2,1:0|0:2,0:0:0:0:
192,186,87467,2,0,P|187:246|176:271,1,76.9999976501466,2|0,1:3|0:0,0:0:0:0:
96,191,87812,2,0,L|124:43,1,115.49999647522,2|0,1:2|0:0,1:0:0:0:
117,77,88157,1,2,1:3:0:0:
263,133,88329,5,0,0:0:0:0:
312,51,88502,2,0,L|398:33,1,76.9999976501466,0|2,1:2|0:0,0:0:0:0:
232,6,88847,1,2,1:3:0:0:
329,191,89019,2,0,L|500:221,1,153.999995300293,0|0,3:0|1:2,0:0:0:0:
419,116,89536,1,2,1:3:0:0:
354,278,89709,1,2,0:0:0:0:
224,181,89881,6,0,P|236:227|242:268,1,76.9999976501466,0|2,1:2|0:0,0:0:0:0:
445,378,90226,2,0,P|451:340|461:302,1,76.9999976501466,2|0,1:3|0:0,0:0:0:0:
323,127,90571,2,0,P|342:201|353:277,1,153.999995300293,2|2,0:0|1:3,0:0:0:0:
299,349,91088,1,2,0:0:0:0:
62,277,91260,5,4,1:3:0:0:
211,232,91433,1,4,3:0:0:0:
104,372,91605,1,2,1:3:0:0:
122,202,91778,2,0,L|113:153,2,38.4999988250733,0|2|0,0:0|3:0|0:0,0:0:0:0:
210,340,92122,1,0,1:0:0:0:
138,292,92295,2,0,L|39:273,1,76.9999976501466,4|0,1:2|0:0,0:0:0:0:
31,42,92640,6,0,P|76:27|104:13,1,76.9999976501466,4|2,1:0|0:0,0:0:0:0:
271,170,92985,2,0,P|236:153|199:141,1,76.9999976501466,2|0,1:3|0:0,0:0:0:0:
200,48,93329,2,0,P|277:70|358:113,1,153.999995300293,2|2,0:2|1:3,0:0:0:0:
467,176,93847,1,2,0:0:0:0:
461,36,94019,6,0,P|435:79|422:121,1,76.9999976501466,0|2,1:0|0:0,0:0:0:0:
301,274,94364,1,2,1:3:0:0:
383,295,94536,2,0,P|409:346|418:396,1,76.9999976501466,2|2,0:0|0:0,0:0:0:0:
383,211,94881,5,0,1:0:0:0:
288,349,95053,1,2,1:3:0:0:
247,192,95226,1,2,0:0:0:0:
301,274,95398,6,0,L|286:363,1,76.9999976501466,4|2,1:0|0:0,0:0:0:0:
288,349,95657,1,0,0:0:0:0:
288,349,95743,1,2,1:3:0:0:
86,318,95916,1,2,0:0:0:0:
135,249,96088,2,0,L|122:157,1,76.9999976501466,2|0,0:0|1:0,0:0:0:0:
171,327,96433,1,2,1:3:0:0:
56,246,96605,1,2,0:0:0:0:
207,184,96778,6,0,L|301:162,1,76.9999976501466,0|2,1:0|0:0,0:0:0:0:
176,102,97122,1,2,1:3:0:0:
282,34,97295,1,2,0:0:0:0:
282,34,97381,1,2,0:3:0:0:
282,34,97467,2,0,L|188:12,1,76.9999976501466,4|4,1:3|3:0,0:0:0:0:
349,102,97812,2,2,L|479:79,1,115.49999647522,4|0,1:2|0:0,0:1:0:0:
462,81,98157,6,2,P|507:134|503:239,1,153.999995300293,4|2,1:0|1:3,0:1:0:0:
348,303,98674,1,2,0:0:0:0:
303,227,98847,2,0,P|324:190|369:179,1,76.9999976501466,2|0,0:0|1:0,0:0:0:0:
512,306,99191,2,0,P|469:306|437:272,1,76.9999976501466,2|2,1:3|0:0,0:0:0:0:
310,380,99536,6,0,P|268:357|226:345,1,76.9999976501466,0|2,1:0|0:0,0:0:0:0:
94,363,99881,2,0,P|134:338|166:307,1,76.9999976501466,2|2,1:3|0:0,0:0:0:0:
218,179,100226,2,0,P|219:226|229:269,1,76.9999976501466,2|0,0:0|1:0,0:0:0:0:
41,288,100571,2,0,P|32:222|10:140,1,115.49999647522,2|0,1:3|0:0,0:0:0:0:
20,174,100916,5,0,1:0:0:0:
63,95,101088,1,0,3:0:0:0:
141,58,101260,1,2,1:3:0:0:
220,88,101433,1,0,3:0:0:0:
248,163,101605,1,0,1:0:0:0:
215,234,101778,1,0,3:0:0:0:
139,246,101950,1,2,1:3:0:0:
89,193,102122,1,0,3:0:0:0:
112,169,102295,6,0,P|109:144|99:112,1,38.4999988250733,4|0,1:0|0:0,0:0:0:0:
215,234,102467,1,0,3:0:0:0:
215,234,102553,1,2,3:0:0:0:
215,234,102640,2,0,P|210:252|209:277,1,44,4|0,1:2|0:0,0:0:0:0:
296,158,102812,1,0,3:3:0:0:
296,158,102898,1,2,3:0:0:0:
296,158,102985,2,0,P|293:133|283:101,1,49.4999984893799,0|0,1:0|3:0,0:0:0:0:
377,267,103157,1,0,3:0:0:0:
377,267,103243,1,2,0:3:0:0:
377,267,103330,2,0,P|372:285|369:325,1,55,4|0,1:2|0:0,0:0:0:0:
478,150,103502,1,0,1:2:0:0:
478,150,103588,1,2,3:0:0:0:
478,150,103674,6,0,P|479:82|426:39,1,110,4|2,1:0|3:2,0:0:0:0:
249,68,104019,2,0,P|324:86|389:119,1,123.750004720688,2|0,1:3|3:0,0:0:0:0:
366,105,104364,1,2,0:0:0:0:
365,5,104536,1,0,1:0:0:0:
178,136,104709,1,2,1:3:0:0:
160,36,104881,6,0,P|112:60|60:69,1,82.5000031471254,2|0,0:0|1:0,0:0:0:0:
279,188,105226,1,2,0:0:0:0:
87,210,105398,2,0,P|155:228|212:272,1,123.750004720688,2|0,1:3|3:0,0:0:0:0:
198,257,105743,6,0,P|189:305|186:350,1,82.5000031471254,2|0,0:0|1:0,0:0:0:0:
37,357,106088,2,0,P|33:315|24:275,1,82.5000031471254,2|2,1:3|0:0,0:0:0:0:
256,380,106433,6,0,P|305:379|335:335,1,82.5000031471254,0|2,1:0|0:0,0:0:0:0:
473,313,106778,2,0,P|428:289|325:271,1,123.750004720688,2|0,1:3|3:0,0:0:0:0:
357,271,107122,1,2,0:0:0:0:
270,297,107295,1,0,1:0:0:0:
371,174,107467,1,2,1:3:0:0:
278,134,107640,6,0,P|271:85|268:40,1,82.5000031471254,2|0,0:0|1:0,0:0:0:0:
217,216,107985,1,2,0:0:0:0:
462,118,108157,2,0,P|426:72|337:79,1,123.750004720688,2|0,1:3|3:0,0:0:0:0:
364,64,108502,6,0,P|349:14|347:-25,1,82.5000031471254,2|0,0:0|1:0,0:0:0:0:
371,174,108847,2,0,P|386:224|388:263,1,82.5000031471254,2|2,1:3|3:2,0:0:0:0:
195,86,109191,6,0,L|103:71,1,82.5000031471254,4|2,1:2|0:0,0:0:0:0:
7,213,109536,2,0,P|68:218|125:168,1,123.750004720688,2|0,1:3|3:0,0:0:0:0:
116,182,109881,1,2,0:0:0:0:
39,130,110053,1,0,1:0:0:0:
113,384,110226,1,2,1:3:0:0:
26,353,110398,6,0,P|53:311|87:297,1,82.5000031471254,2|0,0:0|1:0,0:0:0:0:
166,312,110743,1,2,0:0:0:0:
247,201,110916,2,0,P|294:256|293:340,1,123.750004720688,2|0,1:3|0:0,0:0:0:0:
301,305,111260,6,0,P|331:280|374:274,1,82.5000031471254,2|0,1:2|0:0,0:0:0:0:
509,375,111605,2,0,P|468:369|437:343,1,82.5000031471254,2|2,1:3|3:2,0:0:0:0:
343,177,111950,6,0,L|325:70,1,82.5000031471254,4|2,1:2|0:0,0:0:0:0:
430,0,112295,2,0,L|449:133,1,123.750004720688,2|0,1:3|3:0,0:0:0:0:
447,122,112640,1,2,0:0:0:0:
432,241,112812,1,0,1:0:0:0:
271,16,112985,1,2,1:3:0:0:
234,107,113157,6,0,P|176:86|131:79,1,82.5000031471254,2|0,0:0|1:2,0:0:0:0:
98,160,113502,1,2,3:2:0:0:
67,3,113674,6,0,P|49:68|60:108,1,82.5000031471254,2|0,1:3|3:2,0:0:0:0:
247,238,114019,2,0,P|199:189|159:179,1,82.5000031471254,2|0,1:2|0:2,0:0:0:0:
0,288,114364,2,0,P|84:266|122:227,1,123.750004720688,4|0,1:2|0:0,0:0:0:0:
110,243,114709,6,0,L|100:340,1,82.5000031471254,6|0,1:0|0:0,0:1:0:0:
21,182,115053,2,2,L|31:85,1,82.5000031471254,2|0,1:2|0:0,0:1:0:0:
214,210,115398,2,2,L|195:380,1,165.000006294251,2|2,1:0|1:2,0:1:0:0:
124,151,115916,1,0,1:0:0:0:
226,49,116088,6,0,P|266:41|308:19,1,82.5000031471254,4|2,1:0|0:0,0:0:0:0:
290,123,116433,2,0,P|233:79|127:53,1,165.000006294251,2|2,1:3|0:0,0:0:0:0:
208,174,116950,1,0,1:0:0:0:
398,0,117122,2,0,P|381:59|381:89,1,82.5000031471254,2|2,1:3|0:0,0:0:0:0:
456,258,117467,6,2,L|263:214,1,165.000006294251,0|2,1:0|1:0,1:0:0:0:
239,284,117985,2,2,L|252:378,1,82.5000031471254,0|2,3:0|0:0,0:1:0:0:
284,124,118329,2,0,L|271:30,1,82.5000031471254,2|2,1:0|1:3,0:0:0:0:
135,221,118674,6,0,L|160:393,1,165.000006294251,2|2,0:1|0:0,0:0:0:0:
226,192,119191,1,2,1:3:0:0:
55,64,119364,1,2,0:0:0:0:
55,64,119450,1,0,0:0:0:0:
55,64,119536,2,0,P|104:49|143:8,1,82.5000031471254,2|0,0:0|1:0,0:0:0:0:
159,121,119881,2,0,P|103:74|33:64,1,123.750004720688,2|0,1:3|0:0,0:0:0:0:
15,140,120226,5,4,1:0:0:0:
15,140,120398,2,0,P|3:185|0:229,1,82.5000031471254,2|2,0:0|1:3,0:0:0:0:
212,375,120743,1,2,0:0:0:0:
212,375,120915,2,0,P|208:333|196:294,1,82.5000031471254,2|0,0:0|1:0,0:0:0:0:
42,292,121260,2,0,L|137:272,1,82.5000031471254,2|2,1:3|0:0,0:0:0:0:
409,140,121605,5,0,1:0:0:0:
409,140,121777,2,0,P|421:185|424:229,1,82.5000031471254,2|2,1:2|1:3,0:0:0:0:
212,375,122122,1,0,1:0:0:0:
212,375,122294,2,0,P|215:333|227:294,1,82.5000031471254,2|0,0:0|1:0,0:0:0:0:
382,292,122639,2,0,L|287:272,1,82.5000031471254,2|2,1:3|0:0,0:0:0:0:
134,127,122985,5,4,1:0:0:0:
134,127,123157,2,0,L|115:9,1,82.5000031471254,2|2,0:0|1:3,0:0:0:0:
344,0,123502,1,2,0:0:0:0:
344,0,123674,2,0,L|325:118,1,82.5000031471254,2|0,0:0|1:0,0:0:0:0:
220,275,124019,2,0,L|201:157,1,82.5000031471254,2|2,1:3|0:0,0:0:0:0:
394,146,124364,5,0,1:0:0:0:
249,113,124536,1,2,1:2:0:0:
437,238,124709,5,2,1:3:0:0:
220,275,124881,1,2,1:2:0:0:
485,158,125053,5,2,1:2:0:0:
310,212,125226,1,0,1:0:0:0:
487,359,125398,6,0,L|389:338,1,82.5000031471254,2|0,1:3|3:0,0:0:0:0:
407,342,125657,1,0,3:0:0:0:
407,342,125743,1,4,3:0:0:0:
66,358,126088,5,4,1:0:0:0:
142,320,126260,1,2,0:0:0:0:
73,274,126433,2,0,P|62:228|45:184,1,82.5000031471254,2|0,0:0|1:0,0:0:0:0:
221,367,126778,2,0,P|228:298|251:227,1,123.750004720688,2|2,1:3|0:0,0:0:0:0:
243,245,127122,6,0,P|304:247|329:277,1,82.5000031471254,0|2,1:0|0:0,0:0:0:0:
410,345,127467,2,0,P|374:364|334:358,1,82.5000031471254,2|2,1:3|0:0,0:0:0:0:
198,166,127812,2,0,P|190:111|171:28,1,123.750004720688,2|0,0:0|0:0,0:0:0:0:
175,44,128157,2,0,P|206:12|249:16,1,82.5000031471254,2|0,1:3|0:0,0:0:0:0:
455,117,128502,6,0,P|372:109|332:33,1,165.000006294251,0|2,1:0|1:3,0:0:0:0:
421,35,129019,1,2,0:0:0:0:
492,192,129191,2,0,P|482:246|478:284,1,82.5000031471254,2|0,0:0|1:0,0:0:0:0:
269,122,129536,2,0,P|280:176|289:254,1,123.750004720688,2|2,1:3|0:0,0:0:0:0:
288,244,129881,6,0,L|391:223,1,82.5000031471254,0|2,1:0|0:0,0:0:0:0:
451,355,130226,2,0,L|364:335,1,82.5000031471254,2|2,1:3|0:0,0:0:0:0:
370,336,130485,1,2,0:0:0:0:
370,336,130571,1,0,1:0:0:0:
257,374,130743,1,0,1:0:0:0:
182,273,130916,2,0,B|158:383,1,82.5000031471254,2|0,1:3|0:0,0:0:0:0:
0,213,131260,6,0,P|60:226|133:142,1,165.000006294251,4|2,1:0|1:3,0:0:0:0:
139,78,131778,1,2,0:0:0:0:
28,58,131950,2,0,P|42:104|48:141,1,82.5000031471254,2|0,0:0|1:0,0:0:0:0:
231,182,132295,2,2,P|243:98|262:31,1,123.750004720688,2|2,1:3|0:0,0:0:0:0:
252,60,132640,6,0,P|241:27|183:13,1,82.5000031471254,0|2,1:0|0:0,0:0:0:0:
337,139,132985,2,0,P|371:145|412:102,1,82.5000031471254,2|2,1:3|0:0,0:0:0:0:
231,182,133329,2,0,P|201:215|223:288,1,123.750004720688,2|0,0:0|0:0,0:0:0:0:
220,286,133674,2,0,L|317:268,1,82.5000031471254,2|0,1:3|0:0,0:0:0:0:
457,359,134019,6,0,P|467:297|496:177,1,165.000006294251,0|2,1:0|1:3,0:0:0:0:
394,208,134536,1,2,0:0:0:0:
506,91,134709,2,0,P|455:93|431:121,1,82.5000031471254,2|0,0:0|1:0,0:0:0:0:
310,165,135053,2,0,P|305:117|282:25,1,123.750004720688,2|2,1:3|0:0,0:0:0:0:
288,43,135398,6,0,L|203:28,1,82.5000031471254,0|2,1:0|1:2,0:0:0:0:
109,179,135743,1,2,1:3:0:0:
158,102,135916,1,2,1:2:0:0:
53,19,136088,6,0,L|69:111,1,82.5000031471254,2|2,1:2|1:2,0:0:0:0:
177,311,136433,2,0,L|203:167,1,123.750004720688,2|0,1:3|0:0,0:0:0:0:
198,189,136778,6,0,P|251:144|344:160,1,165.000006294251,4|2,1:0|1:3,0:0:0:0:
412,212,137295,1,2,0:0:0:0:
478,159,137467,2,0,P|489:119|482:72,1,82.5000031471254,2|0,0:0|1:0,0:0:0:0:
336,251,137812,2,0,P|337:313|370:374,1,123.750004720688,2|2,1:3|0:0,0:0:0:0:
364,367,138157,6,0,L|475:341,1,82.5000031471254,0|2,1:0|0:0,0:0:0:0:
340,157,138502,2,0,L|245:138,1,82.5000031471254,2|2,1:3|0:0,0:0:0:0:
167,221,138847,2,0,L|147:88,1,123.750004720688,2|0,0:0|0:0,0:0:0:0:
148,98,139191,2,0,L|56:78,1,82.5000031471254,2|0,1:3|0:0,0:0:0:0:
102,282,139536,6,0,P|167:305|241:233,1,165.000006294251,0|2,1:0|1:3,0:0:0:0:
236,250,140053,1,2,0:0:0:0:
312,319,140226,2,0,P|316:282|323:237,1,82.5000031471254,2|0,0:0|1:0,0:0:0:0:
241,49,140571,2,0,P|253:111|265:187,1,123.750004720688,2|2,1:3|0:0,0:0:0:0:
262,170,140916,6,0,P|301:147|359:157,1,82.5000031471254,0|2,1:0|0:0,0:0:0:0:
488,320,141260,2,0,P|447:319|413:296,1,82.5000031471254,2|2,1:3|0:0,0:0:0:0:
413,296,141519,1,2,0:0:0:0:
413,296,141605,1,2,1:2:0:0:
370,228,141778,1,0,1:0:0:0:
426,151,141950,2,0,L|410:49,1,82.5000031471254,2|0,1:3|0:0,0:0:0:0:
236,10,142295,6,0,P|164:40|176:139,1,165.000006294251,4|2,1:0|1:3,0:0:0:0:
220,181,142812,1,2,0:0:0:0:
155,283,142985,2,0,P|148:231|130:180,1,82.5000031471254,2|0,0:0|1:0,0:0:0:0:
244,103,143329,2,0,P|318:114|397:112,1,123.750004720688,2|2,1:3|0:0,0:0:0:0:
366,114,143674,6,0,P|359:52|321:24,1,82.5000031471254,0|4,1:0|3:0,0:0:0:0:
411,221,144019,2,0,P|467:245|510:226,1,82.5000031471254,2|0,1:3|1:0,0:0:0:0:
305,213,144364,2,0,P|250:253|244:305,1,123.750004720688
243,304,144709,2,0,P|290:294|332:288,1,82.5000031471254,2|0,1:3|0:0,0:0:0:0:
162,202,145053,6,0,P|79:190|-5:174,1,165.000006294251,0|2,1:0|1:3,0:0:0:0:
132,316,145571,1,2,0:0:0:0:
230,131,145743,2,0,P|237:72|242:39,1,82.5000031471254,2|0,0:0|1:0,0:0:0:0:
120,18,146088,2,0,P|124:58|130:99,1,82.5000031471254,2|0,1:3|0:0,0:0:0:0:
299,184,146433,5,0,1:0:0:0:
318,198,146519,1,0,0:0:0:0:
340,203,146605,1,2,3:2:0:0:
364,201,146691,1,0,3:0:0:0:
385,195,146777,2,0,L|390:145,3,41.2500015735627,2|0|2|0,3:0|3:0|3:2|3:0,0:0:0:0:
438,260,147122,2,0,L|430:311,3,41.2500015735627,4|0|2|0,3:0|3:0|3:2|3:0,3:0:0:0:
505,207,147467,1,4,0:0:0:0:
486,43,147812,6,0,P|435:30|400:16,1,82.5000031471254,4|2,1:0|0:0,0:0:0:0:
281,101,148157,1,2,1:3:0:0:
336,157,148329,2,0,P|408:139|500:123,1,165.000006294251,0|0,3:0|1:0,0:0:0:0:
275,22,148847,2,0,P|226:37|202:76,1,82.5000031471254,2|0,1:3|0:0,0:0:0:0:
48,165,149191,6,0,P|40:86|24:-2,1,165.000006294251,0|2,1:0|1:3,0:0:0:0:
151,131,149709,2,0,P|138:185|135:226,1,82.5000031471254,0|2,3:0|0:0,0:0:0:0:
59,263,150053,1,0,1:0:0:0:
142,309,150226,2,0,P|200:290|231:285,1,82.5000031471254,2|2,1:3|0:0,0:0:0:0:
441,349,150571,5,0,1:0:0:0:
441,349,150743,2,0,P|445:299|452:256,1,82.5000031471254,2|2,0:0|1:3,0:0:0:0:
338,213,151088,1,2,0:0:0:0:
338,213,151174,1,0,0:0:0:0:
338,213,151260,2,0,P|343:264|347:297,1,82.5000031471254,2|0,0:0|1:0,0:0:0:0:
512,205,151605,2,0,P|474:176|429:179,1,82.5000031471254,2|2,1:3|0:0,0:0:0:0:
191,149,151950,5,0,1:0:0:0:
356,98,152122,1,2,0:0:0:0:
245,12,152295,2,0,L|262:112,1,82.5000031471254,2|2,1:3|0:0,0:0:0:0:
274,107,152553,2,0,L|270:153,2,41.2500015735627,2|2|2,0:3|0:0|3:0,0:0:0:0:
331,9,152812,5,0,1:0:0:0:
172,68,152985,1,2,1:3:0:0:
345,182,153157,1,2,0:0:0:0:
197,328,153329,6,0,P|154:316|112:307,1,82.5000031471254,4|2,1:2|0:0,0:0:0:0:
138,226,153674,2,0,P|181:238|223:247,1,82.5000031471254,2|0,1:3|3:0,0:0:0:0:
423,223,154019,2,0,P|434:176|357:94,1,165.000006294251,2|2,0:0|1:3,0:0:0:0:
286,120,154536,1,0,0:0:0:0:
221,0,154709,6,0,P|210:49|204:84,1,82.5000031471254,0|2,1:0|0:0,0:0:0:0:
214,183,155053,1,2,1:3:0:0:
127,149,155226,2,0,P|119:108|110:68,1,82.5000031471254,2|2,0:0|0:0,0:0:0:0:
26,139,155571,1,0,1:0:0:0:
59,233,155743,2,0,P|99:238|139:248,1,82.5000031471254,2|2,1:3|0:0,0:0:0:0:
402,363,156088,6,0,P|422:321|415:283,1,82.5000031471254,0|2,1:0|0:0,0:0:0:0:
277,232,156433,2,0,P|240:281|248:354,1,123.750004720688,2|0,1:3|0:0,0:0:0:0:
241,340,156778,1,2,0:0:0:0:
330,306,156950,1,0,1:0:0:0:
221,160,157122,2,0,P|176:154|130:146,1,82.5000031471254,2|2,1:3|0:0,0:0:0:0:
350,67,157467,5,0,1:0:0:0:
329,159,157640,1,2,3:2:0:0:
281,5,157812,1,2,1:3:0:0:
439,53,157985,1,2,0:0:0:0:
439,53,158071,1,2,0:3:0:0:
439,53,158157,2,0,P|485:47|525:36,1,82.5000031471254,2|0,0:0|1:2,0:0:0:0:
493,167,158502,2,2,P|455:147|387:136,1,82.5000031471254,2|0,1:3|0:0,0:1:0:0:
235,81,158847,6,2,P|174:100|61:111,1,165.000006294251,6|2,1:0|1:3,0:1:0:0:
0,105,159364,1,2,0:0:0:0:
131,266,159536,2,0,P|118:315|112:365,1,82.5000031471254,2|0,0:0|1:0,0:0:0:0:
46,260,159881,2,0,P|39:219|28:179,1,82.5000031471254,2|2,1:3|0:0,0:0:0:0:
209,235,160226,6,0,P|256:244|301:248,2,82.5000031471254,0|2|2,1:0|0:0|1:3,0:0:0:0:
146,182,160743,1,2,0:0:0:0:
245,77,160916,2,0,P|231:119|223:166,1,82.5000031471254,2|0,0:0|1:0,0:0:0:0:
71,135,161260,2,0,P|58:68|34:9,1,123.750004720688,2|0,1:3|0:0,0:0:0:0:
37,16,161605,6,0,L|95:0,3,41.2500015735627,4|0|2|0,3:0|3:0|3:2|3:0,0:0:0:0:
161,54,161950,1,2,3:0:0:0:
161,54,162036,1,0,3:0:0:0:
161,54,162122,1,2,3:2:0:0:
161,54,162209,1,0,3:0:0:0:
161,54,162295,2,0,L|208:62,3,41.2500015735627,2|0|4|0,3:2|3:0|3:0|3:0,0:0:0:0:
287,7,162640,1,2,3:0:0:0:
287,7,162726,1,0,3:0:0:0:
287,7,162812,1,2,3:2:0:0:
287,7,162898,1,0,3:0:0:0:
287,7,162985,6,0,L|279:55,1,41.2500015735627,0|2,3:0|3:0,0:0:0:0:
379,5,163243,2,0,L|359:112,1,82.5000031471254,2|0,3:0|3:0,0:0:0:0:
341,114,163502,2,0,L|331:172,1,41.2500015735627,2|2,0:3|0:3,0:0:0:0:
391,214,163674,5,8,3:0:0:0:
259,126,163847,1,4,0:3:0:0:
442,80,164019,1,4,1:2:0:0:
319,291,164364,6,0,P|285:243|290:204,1,82.5000031471254,4|2,1:0|0:0,0:0:0:0:
430,315,164709,2,0,P|423:355|395:384,1,82.5000031471254,2|0,1:3|0:0,0:0:0:0:
231,361,165053,2,0,L|85:338,1,123.750004720688,2|0,0:0|0:0,0:0:0:0:
108,341,165398,2,0,P|99:283|111:253,1,82.5000031471254,2|2,1:3|0:0,0:0:0:0:
31,214,165743,5,0,1:0:0:0:
180,226,165916,2,0,P|153:186|101:178,1,82.5000031471254,2|2,0:0|1:3,0:0:0:0:
28,102,166260,2,0,P|109:84|135:23,1,123.750004720688,2|0,0:0|0:0,0:0:0:0:
129,53,166605,1,0,1:0:0:0:
241,22,166778,2,0,P|229:61|220:108,1,82.5000031471254,2|2,1:3|0:0,0:0:0:0:
257,270,167122,6,0,P|303:258|348:251,1,82.5000031471254,0|2,1:0|0:0,0:0:0:0:
408,8,167467,2,0,P|362:20|317:27,1,82.5000031471254,2|2,1:3|0:0,0:0:0:0:
299,123,167812,2,0,P|379:104|493:90,1,165.000006294251,2|2,0:0|1:3,0:0:0:0:
506,160,168329,1,2,0:0:0:0:
435,264,168502,5,4,1:2:0:0:
286,219,168675,1,6,0:0:0:0:
393,359,168847,1,4,1:2:0:0:
375,189,169020,2,0,L|381:148,2,41.2500015735627,6|0|0,0:0|0:0|1:0,0:0:0:0:
287,327,169364,1,0,1:0:0:0:
354,279,169537,2,0,L|435:263,1,82.5000031471254,4|2,1:2|0:0,0:0:0:0:
189,109,169881,6,0,P|177:39|165:6,1,82.5000031471254,4|2,1:0|0:0,0:0:0:0:
289,103,170226,2,0,P|278:142|273:183,1,82.5000031471254,2|2,1:3|0:0,0:0:0:0:
177,223,170571,2,0,L|11:197,1,165.000006294251,2|2,0:0|1:3,0:0:0:0:
13,197,171088,1,2,0:0:0:0:
48,53,171260,6,0,P|87:99|92:139,1,82.5000031471254,0|2,1:0|0:0,0:0:0:0:
0,282,171605,1,2,1:3:0:0:
48,361,171778,1,2,0:0:0:0:
48,361,171864,1,2,0:3:0:0:
48,361,171950,2,0,P|105:351|142:342,1,82.5000031471254,2|0,0:0|1:0,0:0:0:0:
220,384,172295,2,0,P|228:321|236:290,1,82.5000031471254,2|2,1:3|0:0,0:0:0:0:
242,69,172640,5,0,1:0:0:0:
220,223,172812,2,0,P|210:169|193:125,1,82.5000031471254,2|0,0:0|1:3,0:0:0:0:
314,27,173157,1,2,0:0:0:0:
314,27,173243,1,0,0:0:0:0:
314,27,173329,2,0,P|365:45|412:52,1,82.5000031471254,2|0,0:0|1:0,0:0:0:0:
430,213,173674,2,0,P|388:248|358:285,1,82.5000031471254,2|2,1:3|0:0,0:0:0:0:
318,145,174019,5,0,1:0:0:0:
496,114,174191,1,2,0:0:0:0:
411,129,174364,1,2,1:3:0:0:
242,82,174536,1,2,0:0:0:0:
242,82,174709,2,0,P|235:39|223:-5,1,82.5000031471254,2|0,0:0|1:0,0:0:0:0:
270,228,175053,2,0,P|258:291|247:383,1,123.750004720688,2|0,1:3|0:0,0:0:0:0:
250,350,175398,6,2,P|185:334|152:329,1,82.5000031471254,4|0,1:0|0:0,0:1:0:0:
20,177,175743,2,2,P|80:170|169:138,1,123.750004720688,2|0,1:3|0:0,0:1:0:0:
140,151,176088,2,0,P|126:210|123:244,1,82.5000031471254,2|0,0:1|1:0,0:0:0:0:
52,289,176433,1,2,1:3:0:0:
47,87,176605,5,2,0:1:0:0:
47,87,176778,2,2,P|35:36|23:0,1,82.5000031471254,0|2,1:0|0:1,0:1:0:0:
195,69,177122,2,2,P|253:84|319:120,1,123.750004720688,2|0,1:3|0:0,0:1:0:0:
309,113,177467,2,0,P|320:62|336:22,1,82.5000031471254,2|0,0:1|1:0,0:0:0:0:
228,171,177812,1,2,1:3:0:0:
387,361,178157,6,2,P|446:343|475:338,1,82.5000031471254,0|2,1:0|0:1,0:1:0:0:
259,258,178502,2,2,P|191:241|126:220,1,123.750004720688,2|0,1:3|0:0,0:1:0:0:
139,224,178847,2,0,P|156:288|160:328,1,82.5000031471254,2|0,0:1|1:0,0:0:0:0:
267,346,179191,1,2,1:3:0:0:
291,162,179364,5,2,0:1:0:0:
291,162,179536,2,2,P|346:149|397:127,1,82.5000031471254,0|2,1:0|0:1,0:1:0:0:
512,264,179881,2,2,P|458:246|378:229,1,123.750004720688,2|0,1:3|0:0,0:1:0:0:
392,231,180226,2,0,P|372:279|379:323,1,82.5000031471254,2|0,0:1|1:0,0:0:0:0:
460,158,180571,2,0,P|453:108|431:84,1,82.5000031471254,2|2,1:3|0:0,0:0:0:0:
301,21,180916,5,4,1:0:0:0:
301,21,181088,1,0,0:0:0:0:
301,21,181260,2,2,P|225:35|164:37,1,123.750004720688,2|0,1:3|0:0,0:1:0:0:
178,37,181605,2,0,P|192:87|198:132,1,82.5000031471254,2|0,0:1|1:0,0:0:0:0:
274,165,181950,1,2,1:3:0:0:
130,186,182122,5,2,0:1:0:0:
130,186,182295,2,0,P|71:169|41:134,1,82.5000031471254,0|2,1:0|0:1,0:0:0:0:
41,379,182640,1,2,1:3:0:0:
106,323,182812,2,2,P|146:282|245:276,1,123.750004720688,0|0,0:0|0:0,0:1:0:0:
209,267,183157,2,0,P|200:321|198:354,1,82.5000031471254,2|2,1:0|1:3,0:0:0:0:
25,249,183502,5,2,0:0:0:0:
25,249,183674,1,2,1:0:0:0:
25,249,183847,1,2,0:0:0:0:
56,155,184019,2,2,P|49:95|44:66,1,82.5000031471254,2|2,1:3|0:0,0:1:0:0:
103,5,184364,2,0,P|190:19|213:98,1,165.000006294251,2|2,0:1|1:3,0:0:0:0:
144,142,184881,1,2,0:1:0:0:
307,64,185053,6,2,P|298:122|295:158,1,82.5000031471254,0|2,1:0|1:1,0:1:0:0:
224,198,185398,1,2,1:3:0:0:
346,220,185571,2,2,P|423:232|473:144,1,165.000006294251,0|2,1:0|1:1,0:1:0:0:
431,103,186088,1,2,1:3:0:0:
327,348,186433,5,4,1:0:0:0:
186,127,191950,5,2,0:0:0:0:
186,127,192122,2,0,P|164:62|127:7,2,121.000003692627
265,69,192985,1,2,0:0:0:0:
265,69,193157,2,0,P|332:82|398:77,2,121.000003692627
268,156,194019,2,0,P|249:202|242:232,1,60.5000018463135,2|0,0:0|0:0,0:0:0:0:
181,318,194364,2,0,P|174:288|165:259,1,60.5000018463135,0|2,0:0|0:0,0:0:0:0:
381,325,194709,5,2,0:0:0:0:
381,325,194881,2,0,P|448:309|513:302,2,121.000003692627
305,256,195743,1,2,0:0:0:0:
305,256,195915,2,0,P|285:322|258:381,2,121.000003692627
403,221,196778,2,0,P|383:187|375:164,1,60.5000018463135,2|0,0:0|0:0,0:0:0:0:
354,88,197122,1,2,0:0:0:0:
45,53,197467,6,0,P|83:38|111:20,1,60.5000018463135,2|0,0:0|0:0,0:0:0:0:
80,186,197812,2,0,P|48:160|18:145,1,60.5000018463135,2|0,0:0|0:0,0:0:0:0:
178,91,198157,2,0,P|164:132|163:172,1,60.5000018463135,2|0,0:0|0:0,0:0:0:0:
16,272,198502,5,2,0:0:0:0:
16,272,198674,2,0,P|96:288|147:313,2,121.000003692627,2|2|0,0:0|0:0|0:0,0:0:0:0:
29,356,199536,1,2,0:0:0:0:
275,166,199881,6,0,P|283:200|293:272,1,90.7500027694703,2|0,0:0|0:0,0:0:0:0:
291,255,200226,2,0,P|330:245|356:228,1,60.5000018463135,2|0,0:0|0:0,0:0:0:0:
410,299,200571,2,0,P|399:337|400:368,1,60.5000018463135,2|0,0:0|0:0,0:0:0:0:
313,384,200916,2,0,P|284:355|257:341,1,60.5000018463135,2|0,0:0|0:0,0:0:0:0:
358,142,201260,5,0,0:0:0:0:
358,142,201433,2,0,P|417:161|487:177,2,121.000003692627,2|2|0,0:0|0:0|0:0,0:0:0:0:
307,66,202295,2,0,P|301:25|293:-3,2,60.5000018463135,2|0|2,0:0|0:0|0:0,0:0:0:0:
274,152,202812,6,0,P|233:162|198:177,1,60.5000018463135,0|2,0:0|0:0,0:0:0:0:
156,33,203157,2,0,P|166:74|181:109,1,60.5000018463135,2|0,0:0|0:0,0:0:0:0:
43,155,203502,2,0,P|84:145|119:130,1,60.5000018463135,2|0,0:0|0:0,0:0:0:0:
161,274,203847,2,0,P|151:233|136:198,1,60.5000018463135,2|0,0:0|0:0,0:0:0:0:
255,262,204191,6,0,P|296:252|331:237,1,60.5000018463135,2|0,0:0|0:0,0:0:0:0:
373,381,204536,2,0,P|363:340|348:305,1,60.5000018463135,2|0,0:0|0:0,0:0:0:0:
486,259,204881,2,0,P|445:269|410:284,1,60.5000018463135,2|0,0:0|0:0,0:0:0:0:
368,140,205226,2,0,P|378:181|393:216,1,60.5000018463135,2|0,0:0|0:0,0:0:0:0:
255,367,205571,5,6,0:0:0:0:
256,192,205743,12,4,206950,3:0:0:0:
33,30,208502,6,0,P|46:75|56:137,1,93.500001783371,4|0,1:0|3:0,0:0:0:0:
69,202,208847,1,2,1:3:0:0:
225,80,209019,1,0,0:0:0:0:
225,80,209105,1,2,0:3:0:0:
225,80,209191,2,0,P|179:68|120:46,1,93.500001783371,2|0,1:2|1:0,0:0:0:0:
149,150,209536,5,2,1:3:0:0:
306,40,209709,2,0,P|366:24|459:13,1,140.250002675057,2|0,0:0|0:0,0:0:0:0:
443,13,210053,2,0,P|429:71|425:111,1,93.500001783371,2|2,0:0|1:3,0:0:0:0:
333,221,210398,1,0,1:0:0:0:
333,221,210485,1,2,0:3:0:0:
333,221,210571,2,0,P|324:161|304:108,1,93.500001783371,2|0,1:2|1:0,0:0:0:0:
500,151,210916,1,2,1:3:0:0:
454,338,211088,1,2,0:0:0:0:
424,264,211260,6,0,L|215:232,1,187.000003566742,4|2,1:0|1:3,0:0:0:0:
168,281,211778,1,2,0:0:0:0:
168,281,211865,1,0,0:0:0:0:
168,281,211950,2,0,P|177:326|184:381,1,93.500001783371,2|0,1:2|1:0,0:0:0:0:
261,384,212295,5,2,1:3:0:0:
191,164,212467,2,0,L|44:184,1,140.250002675057,2|0,0:0|0:0,0:0:0:0:
52,182,212812,2,0,P|58:123|66:81,1,93.500001783371,2|2,0:0|1:3,0:0:0:0:
0,252,213157,1,2,0:0:0:0:
147,78,213329,5,6,1:3:0:0:
5,28,213502,1,2,1:2:0:0:
79,262,213674,1,2,1:3:0:0:
265,35,214019,6,0,P|315:61|359:75,1,93.500001783371,2|0,1:2|3:0,0:0:0:0:
377,263,214364,1,2,1:3:0:0:
447,124,214536,1,2,0:0:0:0:
447,124,214622,1,2,0:0:0:0:
447,124,214709,2,0,P|399:154|365:185,1,93.500001783371,2|0,0:0|1:0,0:0:0:0:
196,89,215053,5,2,1:3:0:0:
279,239,215226,2,0,P|268:162|253:115,1,93.500001783371,2|0,0:0|1:0,0:0:0:0:
219,312,215571,1,2,0:0:0:0:
314,340,215743,2,0,P|378:366|421:369,1,93.500001783371,2|2,1:3|0:0,0:0:0:0:
401,368,216002,1,0,0:0:0:0:
401,368,216088,2,0,L|412:264,1,93.500001783371,2|0,0:0|1:0,0:0:0:0:
158,257,216433,1,2,1:3:0:0:
177,384,216605,1,2,1:2:0:0:
279,239,216778,6,0,P|125:205|61:190,1,187.000003566742,4|2,1:0|1:3,0:0:0:0:
36,134,217295,1,2,0:0:0:0:
36,134,217381,1,0,0:0:0:0:
36,134,217467,2,0,P|30:84|20:38,1,93.500001783371,2|0,0:0|1:0,0:0:0:0:
15,221,217812,1,2,1:3:0:0:
110,52,217985,6,0,P|167:43|252:22,1,140.250002675057,2|0,0:0|0:0,0:0:0:0:
247,23,218329,2,0,P|239:78|236:132,1,93.500001783371,2|2,0:0|1:3,0:0:0:0:
151,131,218674,1,0,1:0:0:0:
332,65,218847,5,6,1:3:0:0:
375,245,219019,1,0,1:0:0:0:
208,201,219191,1,2,1:3:0:0:
307,163,219364,1,0,1:0:0:0:
456,284,219536,6,0,P|441:343|435:387,1,93.500001783371,4|0,1:0|3:0,0:0:0:0:
356,384,219881,1,0,1:3:0:0:
307,163,220053,1,2,0:0:0:0:
307,163,220140,1,2,0:0:0:0:
307,163,220226,2,0,P|365:146|406:129,1,93.500001783371,2|0,0:0|1:0,0:0:0:0:
321,275,220571,5,2,1:3:0:0:
321,275,220743,2,0,P|254:248|156:233,1,140.250002675057,2|0,0:0|0:0,0:0:0:0:
187,234,221088,2,0,L|172:133,1,93.500001783371,2|2,0:0|1:3,0:0:0:0:
119,289,221433,1,2,0:0:0:0:
119,289,221519,1,2,0:0:0:0:
119,289,221605,2,0,L|136:398,1,93.500001783371,2|0,0:0|1:0,0:0:0:0:
207,328,221950,1,2,1:3:0:0:
45,359,222122,1,2,0:2:0:0:
8,217,222295,6,0,P|62:205|188:142,1,187.000003566742,4|2,1:0|1:3,0:0:0:0:
236,84,222812,1,2,0:0:0:0:
236,84,222898,1,0,0:0:0:0:
236,84,222985,2,0,L|246:-13,1,93.500001783371,2|0,0:0|1:0,0:0:0:0:
149,68,223329,1,2,1:3:0:0:
263,170,223502,6,0,P|321:183|404:221,1,140.250002675057,2|0,0:0|0:0,0:0:0:0:
394,215,223847,2,0,L|376:329,1,93.500001783371,2|2,0:0|1:3,0:0:0:0:
306,263,224191,1,2,0:0:0:0:
407,118,224364,5,6,1:3:0:0:
463,373,224536,1,0,1:3:0:0:
224,297,224709,1,2,1:3:0:0:
91,36,225053,6,0,P|65:58|-8:96,1,93.500001783371,4|2,1:0|0:0,0:0:0:0:
107,148,225398,1,2,1:3:0:0:
187,92,225571,1,2,0:0:0:0:
187,92,225657,1,2,0:0:0:0:
187,92,225743,2,0,P|180:58|184:-24,1,93.500001783371,2|0,0:0|1:0,0:0:0:0:
38,207,226088,5,2,1:3:0:0:
119,244,226260,2,0,P|194:216|271:200,1,140.250002675057,2|0,0:0|0:0,0:0:0:0:
252,202,226605,1,2,1:2:0:0:
313,271,226778,2,0,P|327:321|327:376,1,93.500001783371,2|2,1:3|1:2,0:0:0:0:
288,123,227122,2,0,P|292:71|311:25,1,93.500001783371,2|2,1:2|1:2,0:0:0:0:
387,7,227467,1,2,1:3:0:0:
378,198,227640,1,2,1:2:0:0:
389,116,227812,6,0,P|454:102|491:89,1,93.500001783371,2|2,1:2|1:2,0:0:0:0:
403,293,228157,2,0,P|358:279|312:270,1,93.500001783371,2|2,1:3|1:2,0:0:0:0:
312,270,228416,1,2,0:0:0:0:
312,270,228502,1,2,1:2:0:0:
467,210,228674,1,2,1:2:0:0:
283,165,228847,2,0,P|275:105|263:39,1,93.500001783371,2|2,1:3|1:2,0:0:0:0:
348,374,229191,5,4,1:3:0:0:
217,234,229364,1,2,1:3:0:0:
191,226,229450,1,0,3:0:0:0:
164,226,229536,1,2,1:3:0:0:
139,235,229622,1,2,3:0:0:0:
117,250,229709,1,0,3:0:0:0:
100,271,229795,1,2,3:0:0:0:
90,292,229881,2,0,L|81:242,3,46.7500008916855,2|2|8|8,1:3|3:0|3:0|3:0,0:0:0:0:
43,175,230226,2,0,P|24:188|9:207,1,46.7500008916855,8|4,3:0|3:0,0:0:0:0:
129,369,230398,2,0,P|147:355|162:336,1,46.7500008916855,4|4,3:0|0:3,0:0:0:0:
167,130,230571,6,0,P|151:53|134:13,1,93.500001783371,4|0,1:0|0:0,0:0:0:0:
263,166,230916,2,0,P|272:85|294:3,1,140.250002675057,2|0,1:3|0:0,0:0:0:0:
285,28,231260,1,2,1:3:0:0:
190,231,231433,1,4,1:3:0:0:
393,222,231605,1,2,1:3:0:0:
348,143,231778,1,4,1:3:0:0:
275,264,231950,6,0,P|292:316|306:378,1,93.500001783371,4|0,1:0|0:0,0:0:0:0:
507,198,232295,2,0,P|485:275|472:371,1,140.250002675057,2|0,1:3|0:0,0:0:0:0:
475,334,232640,1,6,1:3:0:0:
393,222,232812,1,4,1:3:0:0:
399,381,232985,1,2,1:3:0:0:
247,130,233329,6,0,P|229:73|205:21,1,93.500001783371,4|0,1:0|0:0,0:0:0:0:
348,143,233674,2,0,P|364:38|380:-21,1,140.250002675057,2|0,1:3|0:0,0:0:0:0:
372,5,234019,1,2,1:3:0:0:
284,221,234191,1,4,1:3:0:0:
454,124,234364,1,2,1:3:0:0:
284,7,234536,1,6,1:3:0:0:
247,130,234709,6,0,P|303:114|358:107,1,93.500001783371,4|0,1:0|0:0,0:0:0:0:
181,54,235053,2,0,P|101:35|41:7,1,140.250002675057,2|0,1:3|0:0,0:0:0:0:
48,11,235398,1,2,1:3:0:0:
72,124,235571,1,4,1:3:0:0:
284,7,235743,1,2,1:3:0:0:
203,254,236088,6,0,P|187:302|179:380,1,93.500001783371,4|0,1:0|0:0,0:0:0:0:
26,223,236433,2,0,P|52:293|69:371,1,140.250002675057,2|0,1:3|0:0,0:0:0:0:
66,356,236778,1,4,1:3:0:0:
190,158,236950,1,4,1:3:0:0:
101,123,237122,1,2,1:3:0:0:
116,222,237295,1,4,1:3:0:0:
261,370,237467,6,0,P|314:349|369:341,1,93.500001783371,4|0,1:0|1:0,0:0:0:0:
470,237,237812,2,0,P|416:227|327:189,1,140.250002675057,2|0,1:3|0:0,0:0:0:0:
337,194,238157,1,2,1:3:0:0:
451,327,238329,1,4,1:3:0:0:
268,274,238502,1,2,1:3:0:0:
442,106,238847,6,0,P|457:40|475:-7,1,93.500001783371,4|0,1:0|0:0,0:0:0:0:
206,37,239191,2,0,P|235:106|260:203,1,140.250002675057,2|0,1:3|0:0,0:0:0:0:
253,168,239536,1,2,1:3:0:0:
335,96,239709,1,4,1:3:0:0:
149,131,239881,1,2,1:3:0:0:
356,193,240053,1,2,1:3:0:0:
354,5,240226,6,0,P|337:67|334:109,1,93.500001783371,4|0,1:3|1:0,0:0:0:0:
209,371,240571,2,0,P|198:301|167:228,1,140.250002675057,2|0,1:3|0:0,0:0:0:0:
176,240,240916,1,2,1:3:0:0:
303,367,241088,1,4,1:3:0:0:
243,133,241260,1,2,1:3:0:0:
490,229,241605,6,0,P|388:207|342:185,1,140.250002675057,4|0,1:0|0:0,0:0:0:0:
355,192,241950,2,0,P|376:259|382:312,1,93.500001783371,2|2,1:3|1:3,0:0:0:0:
439,120,242295,1,0,1:3:0:0:
303,367,242467,1,2,1:3:0:0:
475,330,242640,1,2,1:3:0:0:
340,85,242812,5,2,1:3:0:0:
340,85,242898,1,0,1:0:0:0:
340,85,242985,2,0,P|274:97|234:114,1,93.500001783371,4|0,1:0|1:0,0:0:0:0:
24,25,243329,2,0,P|88:51|168:71,1,140.250002675057,2|0,1:3|0:0,0:0:0:0:
156,68,243674,1,2,1:3:0:0:
192,211,243847,1,4,1:3:0:0:
237,9,244019,1,2,1:3:0:0:
50,200,244364,6,0,P|67:250|76:301,1,93.500001783371,4|0,1:0|0:0,0:0:0:0:
234,384,244709,2,0,P|244:316|274:224,1,140.250002675057,2|0,1:3|0:0,0:0:0:0:
264,247,245053,1,2,1:3:0:0:
156,306,245226,1,4,1:3:0:0:
358,345,245398,1,2,1:3:0:0:
296,148,245571,1,2,1:3:0:0:
264,247,245743,6,0,P|320:238|364:222,1,93.500001783371,4|0,1:0|0:0,0:0:0:0:
286,58,246088,1,2,1:3:0:0:
215,114,246260,1,2,1:2:0:0:
371,87,246433,2,0,P|371:24|349:-3,1,93.500001783371,2|0,1:3|1:0,0:0:0:0:
134,94,246778,2,0,P|94:152|111:240,1,140.250002675057,2|0,1:2|0:0,0:0:0:0:
154,284,247122,5,4,1:0:0:0:
177,206,247295,1,0,1:0:0:0:
23,269,247467,1,2,1:3:0:0:
141,373,247640,5,2,0:0:0:0:
141,373,247726,1,2,0:0:0:0:
141,373,247812,1,4,1:3:0:0:
229,265,247985,1,4,1:3:0:0:
2,178,248157,1,2,1:3:0:0:
38,361,248329,1,0,0:0:0:0:
215,114,248502,6,0,P|206:48|203:12,1,93.500001783371,4|0,1:0|0:0,0:0:0:0:
2,178,248847,2,0,P|99:196|157:217,1,140.250002675057,2|0,1:3|0:0,0:0:0:0:
138,209,249191,1,2,1:3:0:0:
112,105,249364,1,4,1:3:0:0:
50,285,249536,1,2,1:3:0:0:
322,123,249881,6,0,P|381:108|421:93,1,93.500001783371,4|2,1:2|1:3,0:0:0:0:
474,154,250226,1,2,1:2:0:0:
435,296,250398,1,2,1:3:0:0:
435,296,250485,1,0,1:0:0:0:
435,296,250571,2,0,P|372:275|331:271,1,93.500001783371,4|2,1:2|1:3,0:0:0:0:
399,193,250916,1,2,1:2:0:0:
464,374,251088,1,2,1:3:0:0:
251,328,251260,5,4,1:2:0:0:
235,303,251347,1,0,0:0:0:0:
229,272,251433,1,2,3:3:0:0:
236,244,251519,1,2,3:3:0:0:
255,218,251605,1,0,1:0:0:0:
278,189,251691,1,0,0:0:0:0:
284,153,251778,1,2,3:0:0:0:
271,119,251864,1,2,3:0:0:0:
244,88,251950,1,0,1:0:0:0:
160,355,252295,5,4,1:3:0:0:
324,275,252467,1,2,0:3:0:0:
186,145,252640,1,4,1:0:0:0:
256,192,252812,12,0,262295,0:0:0:0:
