osu file format v14

[General]
AudioFilename: audio.mp3
AudioLeadIn: 0
PreviewTime: 197036
Countdown: 0
SampleSet: Soft
StackLeniency: 0.7
Mode: 0
LetterboxInBreaks: 0
WidescreenStoryboard: 0

[Editor]
Bookmarks: 6088,48502
DistanceSpacing: 1
BeatDivisor: 4
GridSize: 32
TimelineZoom: 2.3

[Metadata]
Title:Granite (Original Mix)
TitleUnicode:Granite (Original Mix)
Artist:Pendulum
ArtistUnicode:Pendulum
Creator:Zetera
Version:Insane
Source:
Tags:drum and bass dnb electronic english in silico rob swire need for speed undercover pure original mix
BeatmapID:3794382
BeatmapSetID:1847112

[Difficulty]
HPDrainRate:5.5
CircleSize:4
OverallDifficulty:8
ApproachRate:9
SliderMultiplier:2.4
SliderTickRate:1

[Events]
//Background and Video events
0,0,"BG_granite.png",0,0
//Break Periods
2,186633,191350
//Storyboard Layer 0 (Background)
//Storyboard Layer 1 (Fail)
//Storyboard Layer 2 (Pass)
//Storyboard Layer 3 (Foreground)
//Storyboard Layer 4 (Overlay)
//Storyboard Sound Samples

[TimingPoints]
2985,344.827586206897,4,2,0,60,1,0
4364,-250.000000000001,4,2,0,60,0,0
27812,-166.666666666667,4,2,0,70,0,0
29191,-250.000000000001,4,2,0,70,0,0
30571,-166.666666666667,4,2,0,70,0,0
31950,-200,4,2,0,70,0,0
33329,-142.857142857143,4,2,0,70,0,0
34709,-200,4,2,0,70,0,0
36088,-142.857142857143,4,2,0,80,0,0
37467,-166.666666666667,4,2,0,80,0,0
38847,-125,4,2,0,80,0,0
40226,-166.666666666667,4,2,0,80,0,0
41605,-125,4,2,0,80,0,0
42985,-166.666666666667,4,2,0,80,0,0
44364,-125,4,2,0,80,0,0
45743,-166.666666666667,4,2,0,80,0,0
47122,-166.666666666667,4,2,0,90,0,0
48502,-142.857142857143,4,2,0,100,0,1
54019,-100,4,2,0,100,0,1
54364,-142.857142857143,4,2,0,100,0,1
59536,-100,4,2,0,100,0,1
59881,-142.857142857143,4,2,0,100,0,1
62295,-100,4,2,0,100,0,1
62640,-142.857142857143,4,2,0,100,0,1
64191,-66.6666666666667,4,2,0,100,0,1
64709,-80,4,2,0,100,0,1
65053,-100,4,2,0,100,0,1
65398,-133.333333333333,4,2,0,100,0,1
70571,-133.333333333333,4,2,0,90,0,0
81605,-100,4,2,0,90,0,0
81950,-142.857142857143,4,2,0,90,0,0
98157,-100,4,2,0,95,0,0
103674,-133.333333333333,4,2,0,100,0,0
114709,-111.111111111111,4,2,0,100,0,0
116088,-133.333333333333,4,2,0,100,0,0
117467,-111.111111111111,4,2,0,100,0,0
118847,-133.333333333333,4,2,0,100,0,0
125743,-200,4,2,0,100,0,0
126088,-125,4,2,0,100,0,1
146605,-83.3333333333333,4,2,0,100,0,1
147812,-142.857142857143,4,2,0,90,0,0
158847,-100,4,2,0,90,0,0
159191,-133.333333333333,4,2,0,90,0,0
175398,-133.333333333333,4,2,0,90,0,0
184364,-133.333333333333,4,2,0,80,0,0
184709,-133.333333333333,4,2,0,70,0,0
185053,-133.333333333333,4,2,0,60,0,0
185398,-133.333333333333,4,2,0,50,0,0
185743,-133.333333333333,4,2,0,40,0,0
186433,-133.333333333333,4,2,0,60,0,0
197467,-200,4,2,0,60,0,0
205571,-133.333333333333,4,2,0,60,0,0
207295,-66.6666666666667,4,2,0,100,0,1
207467,-80,4,2,0,100,0,1
207640,-100,4,2,0,100,0,1
208157,-57.1428571428571,4,2,0,100,0,1
208502,-83.3333333333333,4,2,0,100,0,0
230571,-76.9230769230769,4,2,0,100,0,1
252640,-76.9230769230769,4,2,0,100,0,0
252726,-76.9230769230769,4,2,0,10,0,0

[Colours]
Combo1 : 14,216,160
Combo2 : 114,116,141
Combo3 : 71,131,128
Combo4 : 0,128,192
Combo5 : 0,232,232
Combo6 : 185,79,249

[HitObjects]
63,384,4364,6,0,P|50:345|41:326,1,48,4|0,1:0|0:0,0:0:0:0:
81,266,4709,2,0,P|88:234|95:214,1,48,2|0,1:2|0:0,0:0:0:0:
44,156,5053,1,8,0:2:0:0:
44,156,5398,22,0,P|14:150|-8:132,1,48,2|0,0:0|0:0,0:0:0:0:
174,92,5743,2,0,P|180:54|195:35,1,48,2|0,1:2|0:0,0:0:0:0:
92,95,6088,2,0,P|79:55|79:15,1,72,2|0,0:0|0:0,0:0:0:0:
77,25,6433,1,8,0:0:0:0:
263,23,6778,54,0,P|292:18|315:-4,1,48,2|0,0:0|0:0,0:0:0:0:
452,99,7122,1,2,0:0:0:0:
452,99,7467,2,0,P|426:82|391:79,1,48,2|0,3:2|0:0,0:0:0:0:
221,108,7812,1,8,0:0:0:0:
221,108,8157,2,0,P|271:106|309:93,1,72,2|0,0:0|0:0,0:0:0:0:
291,100,8502,21,0,1:0:0:0:
350,165,8674,2,0,P|342:201|340:214,1,48,2|0,0:0|0:0,0:0:0:0:
257,190,9019,1,0,1:0:0:0:
277,269,9191,2,0,P|285:298|291:329,1,48,8|0,0:0|0:0,0:0:0:0:
363,350,9536,1,0,0:0:0:0:
222,367,9881,54,0,P|189:345|162:341,1,48,0|0,1:0|0:0,0:0:0:0:
160,261,10226,2,0,P|126:275|114:293,1,48,2|0,1:2|0:0,0:0:0:0:
16,339,10571,1,8,0:0:0:0:
16,339,10916,22,0,P|34:363|59:375,1,48,2|0,0:0|0:0,0:0:0:0:
19,194,11261,2,0,P|50:172|61:150,1,48,2|0,1:2|0:0,0:0:0:0:
50,269,11606,2,0,P|91:263|127:246,1,72,2|0,0:0|0:0,0:0:0:0:
119,252,11950,1,8,0:0:0:0:
113,110,12295,2,0,P|94:96|72:88,1,48,2|0,0:0|0:0,0:0:0:0:
204,0,12640,53,2,0:0:0:0:
204,0,12985,2,0,P|174:17|162:33,1,48,2|0,3:2|0:0,0:0:0:0:
168,183,13329,1,8,0:0:0:0:
168,183,13674,2,0,P|197:199|209:222,1,48,2|0,0:0|0:0,0:0:0:0:
240,326,14019,5,0,3:0:0:0:
163,364,14191,2,0,P|154:329|157:311,2,48,0|2|0,0:0|0:0|0:0,0:0:0:0:
322,352,14709,2,0,P|321:295|292:260,1,96,8|2,0:0|0:0,0:0:0:0:
298,265,15398,70,0,L|447:234,1,144,4|0,0:1|0:0,0:0:0:0:
508,282,16088,1,8,0:0:0:0:
508,282,16433,2,0,L|502:337,1,48,0|2,0:0|0:0,0:0:0:0:
357,158,16778,6,0,L|331:54,1,96,0|2,3:0|0:0,0:0:0:0:
417,23,17295,1,0,3:0:0:0:
417,23,17467,2,0,L|423:-2,4,24,8|0|0|0|0,0:0|0:0|0:0|0:0|3:0,0:0:0:0:
467,96,17985,69,2,3:2:0:0:
467,96,18157,2,0,P|493:111|516:109,1,48,2|0,3:2|0:0,0:0:0:0:
309,0,18502,2,0,P|281:9|262:36,1,48,0|0,3:0|0:0,0:0:0:0:
389,146,18847,1,8,0:0:0:0:
389,146,19191,6,0,P|383:117|360:93,1,48,2|0,0:0|0:0,0:0:0:0:
179,11,19536,1,0,3:0:0:0:
179,11,19709,2,0,P|150:50|146:61,1,48,2|0,0:0|0:0,0:0:0:0:
61,42,20053,1,0,0:0:0:0:
102,122,20226,2,0,P|116:145|132:179,1,48,8|0,0:0|0:0,0:0:0:0:
208,142,20571,1,0,3:0:0:0:
128,318,20916,70,0,P|72:291|24:280,2,96,0|2|8,3:0|0:0|0:0,0:0:0:0:
128,318,21950,2,0,P|99:328|83:337,1,48,2|0,0:0|0:0,0:0:0:0:
174,236,22295,2,0,P|123:212|88:189,1,96,0|2,3:0|0:0,0:0:0:0:
220,320,22812,1,0,0:0:0:0:
220,320,22985,2,0,P|214:343|211:360,4,24,8|0|0|0|0,0:0|0:0|0:0|0:0|3:0,0:0:0:0:
270,258,23502,1,0,0:0:0:0:
247,182,23674,1,2,0:0:0:0:
247,182,24019,6,0,P|241:144|235:122,1,48,0|0,3:0|0:0,0:0:0:0:
364,240,24364,2,0,P|352:282|345:335,1,96,8|2,0:0|0:0,0:0:0:0:
274,375,24881,1,0,0:0:0:0:
228,303,25053,70,0,P|257:287|277:289,1,48,0|0,3:0|0:0,0:0:0:0:
474,334,25398,2,0,P|451:326|434:309,1,48,2|0,3:2|3:0,0:0:0:0:
321,155,25743,2,0,P|348:193|365:258,1,96,8|2,3:2|0:0,0:0:0:0:
469,111,26433,6,0,L|480:31,1,72,4|0,1:0|0:0,0:0:0:0:
478,39,26778,1,2,1:3:0:0:
478,39,26950,1,2,3:0:0:0:
301,65,27122,1,0,3:0:0:0:
301,65,27295,1,0,3:0:0:0:
386,2,27467,2,0,L|398:66,1,48,2|0,1:3|0:0,0:0:0:0:
512,175,27812,6,0,P|479:194|439:190,1,71.9999978027344,2|0,3:2|0:0,0:0:0:0:
247,22,28157,2,0,P|295:52|305:85,1,71.9999978027344,2|2,1:3|0:3,0:0:0:0:
377,249,28502,2,0,P|359:189|358:125,1,107.999996704102,2|0,0:0|0:0,0:0:0:0:
356,143,28847,1,2,1:3:0:0:
356,143,29019,1,2,0:3:0:0:
225,102,29191,54,0,L|143:81,1,72,0|0,3:0|0:0,0:0:0:0:
155,84,29536,1,2,1:3:0:0:
155,84,29709,1,2,3:0:0:0:
49,129,29881,1,0,3:0:0:0:
49,129,30053,1,0,3:0:0:0:
84,47,30226,2,0,L|74:-6,1,48,2|0,1:3|0:3,0:0:0:0:
1,193,30571,38,0,P|44:214|84:203,1,71.9999978027344,2|2,3:2|0:0,0:0:0:0:
203,36,30916,2,0,P|163:62|152:102,1,71.9999978027344,2|2,1:3|0:0,0:0:0:0:
219,262,31260,2,0,P|204:209|154:183,1,107.999996704102,2|0,3:2|0:0,0:0:0:0:
160,183,31605,1,2,1:3:0:0:
295,118,31950,54,0,L|397:96,1,90,4|0,3:1|0:0,0:0:0:0:
382,99,32295,1,2,1:3:0:0:
382,99,32467,1,2,3:0:0:0:
463,47,32640,1,0,3:0:0:0:
463,47,32812,1,0,3:0:0:0:
509,126,32985,2,0,L|499:192,1,60,2|0,1:3|0:3,0:0:0:0:
223,72,33329,6,0,P|258:39|302:38,1,83.9999974365235,2|2,3:2|0:0,0:0:0:0:
502,263,33674,2,0,P|448:247|431:220,1,83.9999974365235,2|2,1:3|3:2,0:0:0:0:
394,0,34019,2,0,P|374:56|358:131,1,125.999996154785,2|0,3:2|0:0,0:0:0:0:
359,120,34364,1,2,1:3:0:0:
359,120,34536,1,2,3:0:0:0:
270,270,34709,54,0,P|286:319|293:367,1,90,0|0,3:0|0:0,0:0:0:0:
292,356,35053,1,2,1:3:0:0:
292,356,35226,1,2,3:0:0:0:
367,260,35398,1,0,3:0:0:0:
367,260,35571,1,0,3:0:0:0:
403,383,35743,2,0,P|412:343|420:322,1,60,2|0,1:3|0:3,0:0:0:0:
188,299,36088,38,0,P|149:283|104:271,1,83.9999974365235,2|2,3:2|0:0,0:0:0:0:
47,229,36347,1,0,0:0:0:0:
47,229,36433,2,0,P|30:262|36:280,1,41.9999987182618,2|0,1:3|0:0,0:0:0:0:
117,195,36605,2,0,P|102:169|84:156,1,41.9999987182618,2|0,0:0|0:0,0:0:0:0:
16,145,36778,69,2,3:2:0:0:
66,339,36950,1,0,0:0:0:0:
199,209,37122,1,2,1:3:0:0:
442,0,37467,54,0,P|417:62|412:83,1,71.9999978027344,4|0,0:1|0:0,0:0:0:0:
319,51,37812,1,2,1:3:0:0:
512,199,37985,2,0,P|474:171|445:168,1,71.9999978027344,2|0,0:3|0:0,0:0:0:0:
295,213,38329,1,0,3:0:0:0:
356,138,38502,2,0,P|372:184|386:263,1,107.999996704102,2|0,1:3|0:0,0:0:0:0:
465,268,38847,54,0,P|451:301|444:329,1,48,2|0,3:2|0:0,0:0:0:0:
323,295,39019,2,0,P|355:350|373:401,2,96,2|2|2,0:0|1:3|0:0,0:1:0:0:
295,213,39536,22,0,P|252:234|235:278,1,96,2|0,3:2|0:0,0:0:0:0:
260,366,39881,2,0,P|189:347|105:331,1,144,2|0,1:3|0:0,0:0:0:0:
74,269,40226,6,0,P|65:224|54:179,1,71.9999978027344,2|0,3:2|0:0,0:0:0:0:
161,108,40571,1,2,1:3:0:0:
75,0,40743,2,0,P|88:60|93:90,1,71.9999978027344,2|0,3:0|0:0,3:0:0:0:
0,148,41088,1,0,3:0:0:0:
149,261,41260,2,0,P|207:246|262:235,1,107.999996704102,2|0,1:3|0:0,0:0:0:0:
304,171,41605,22,0,P|328:205|333:225,1,48,2|0,3:2|0:0,0:0:0:0:
316,294,41778,2,0,P|276:339|264:378,2,96,2|2|2,0:0|1:3|0:0,0:0:0:0:
369,359,42295,53,2,3:2:0:0:
224,158,42467,1,0,3:0:0:0:
512,78,42640,2,0,P|432:87|367:143,1,144,2|0,1:3|0:0,0:0:0:0:
381,123,42985,70,0,P|367:59|356:28,1,71.9999978027344,4|0,3:1|0:0,0:0:0:0:
340,201,43329,1,2,1:3:0:0:
491,180,43502,2,0,P|436:196|408:223,1,71.9999978027344,2|0,0:3|3:0,0:0:0:0:
384,285,43847,1,2,0:0:0:0:
293,8,44019,1,2,1:3:0:0:
246,154,44191,53,0,0:0:0:0:
246,154,44278,1,0,0:0:0:0:
246,154,44364,2,0,P|272:144|298:119,1,48,2|0,3:2|0:0,0:0:0:0:
220,64,44536,2,0,P|170:34|149:-5,2,96,2|2|2,0:0|1:3|0:0,0:0:0:0:
167,236,45053,22,0,P|157:165|148:120,1,96,2|0,3:2|0:0,0:0:0:0:
348,70,45398,2,0,P|338:142|327:237,1,144,2|0,1:3|0:0,0:0:0:0:
329,212,45743,6,0,P|365:198|418:185,1,71.9999978027344,2|0,3:2|0:0,0:0:0:0:
253,266,46088,1,0,1:0:0:0:
343,312,46260,1,0,0:0:0:0:
343,312,46347,1,0,0:0:0:0:
343,312,46433,2,0,P|331:358|326:391,1,71.9999978027344,2|0,0:0|3:0,0:0:0:0:
149,205,46778,1,0,1:0:0:0:
171,341,46950,1,2,3:2:0:0:
50,378,47122,21,2,3:2:0:0:
31,360,47209,1,0,3:0:0:0:
20,331,47295,1,2,3:2:0:0:
27,300,47381,1,0,3:0:0:0:
55,275,47467,1,2,1:3:0:0:
93,274,47553,1,0,3:0:0:0:
137,251,47640,1,2,3:2:0:0:
149,205,47726,1,0,3:0:0:0:
127,157,47812,2,0,P|97:145|82:146,1,35.9999989013672,2|0,3:2|0:0,0:0:0:0:
27,77,47985,2,0,P|51:70|71:52,1,35.9999989013672,4|0,3:0|0:0,0:0:0:0:
262,6,48157,1,4,1:2:0:0:
276,17,48502,70,0,P|293:86|305:165,1,125.999996154785,4|0,1:0|0:0,0:0:0:0:
420,166,48847,2,0,P|396:144|363:138,1,41.9999987182618,2|0,1:3|0:0,0:0:0:0:
223,233,49019,2,0,P|260:220|277:201,1,41.9999987182618,2|0,0:0|0:0,0:0:0:0:
434,20,49191,6,0,P|370:43|354:78,1,83.9999974365235,2|0,0:0|1:0,0:0:0:0:
331,300,49536,2,0,P|340:237|351:194,1,83.9999974365235,2|0,1:3|0:0,0:0:0:0:
344,217,49795,1,2,0:0:0:0:
344,217,49881,69,0,1:0:0:0:
393,368,50053,1,2,0:0:0:0:
243,326,50226,2,0,P|268:361|273:379,1,41.9999987182618,2|0,1:3|0:0,0:0:0:0:
437,258,50398,2,0,P|463:237|482:230,1,41.9999987182618,2|0,0:0|0:0,0:0:0:0:
261,192,50571,6,0,P|250:133|235:87,1,83.9999974365235,2|0,0:0|1:3,0:0:0:0:
434,20,50916,2,0,P|468:42|477:82,1,83.9999974365235,2|2,1:3|0:0,0:0:0:0:
157,133,51260,70,0,P|167:54|217:22,1,125.999996154785,0|0,1:0|0:0,0:0:0:0:
87,30,51605,2,0,P|71:9|46:-7,1,41.9999987182618,2|0,1:3|0:0,0:0:0:0:
243,110,51778,2,0,P|273:103|291:87,1,41.9999987182618,2|0,0:0|0:0,0:0:0:0:
15,80,51950,6,0,L|32:184,1,83.9999974365235,2|0,0:0|1:0,0:0:0:0:
242,306,52295,2,0,L|253:217,1,83.9999974365235,2|0,1:3|0:0,0:0:0:0:
252,222,52553,1,2,0:0:0:0:
252,222,52640,70,0,P|218:191|203:191,1,41.9999987182618,0|0,1:0|0:0,0:0:0:0:
149,261,52812,2,0,P|139:305|146:318,1,41.9999987182618,2|0,0:0|0:0,0:0:0:0:
278,363,52985,1,2,1:3:0:0:
348,185,53157,5,2,0:0:0:0:
348,185,53243,1,2,0:0:0:0:
348,185,53329,1,2,3:2:0:0:
193,382,53502,1,0,1:0:0:0:
370,352,53674,2,0,P|352:306|321:284,1,83.9999974365235,2|2,1:3|0:0,0:0:0:0:
0,164,54019,70,0,L|179:117,1,180,4|0,1:0|0:0,0:0:0:0:
206,39,54364,2,0,P|199:19|186:3,1,41.9999987182618,2|0,1:3|0:0,0:0:0:0:
206,197,54536,2,0,P|224:206|245:208,1,41.9999987182618,2|0,0:0|0:0,0:0:0:0:
99,22,54709,6,0,L|0:0,1,83.9999974365235,2|0,0:0|1:0,0:0:0:0:
328,182,55053,2,0,P|346:113|360:73,1,83.9999974365235,2|0,1:3|0:0,0:0:0:0:
349,100,55312,1,2,0:0:0:0:
349,100,55398,69,0,1:0:0:0:
409,221,55571,1,2,0:0:0:0:
284,37,55743,2,0,P|291:11|320:-10,1,41.9999987182618,2|0,1:3|0:0,0:0:0:0:
449,120,55916,2,0,P|468:146|470:170,1,41.9999987182618,2|0,0:0|0:0,0:0:0:0:
256,235,56088,6,0,P|210:217|159:206,1,83.9999974365235,2|0,0:0|1:0,0:0:0:0:
39,356,56433,2,0,P|111:341|140:329,1,83.9999974365235,2|2,1:3|0:0,0:0:0:0:
56,26,56778,70,0,P|10:62|8:101,1,83.9999974365235,0|2,1:0|0:0,0:0:0:0:
5,84,57036,1,2,0:0:0:0:
5,84,57122,2,0,P|12:116|14:137,1,41.9999987182618,2|0,1:3|0:0,0:0:0:0:
134,60,57295,2,0,P|137:34|146:3,1,41.9999987182618,2|0,0:0|0:0,0:0:0:0:
0,211,57467,6,0,P|39:225|83:246,1,83.9999974365235,2|0,0:0|1:0,0:0:0:0:
232,23,57812,2,0,P|219:76|213:114,1,83.9999974365235,2|2,1:3|0:0,0:0:0:0:
140,149,58071,69,0,0:0:0:0:
140,149,58157,2,0,P|156:171|197:184,1,41.9999987182618,0|0,1:0|0:0,0:0:0:0:
143,304,58329,2,0,P|123:328|122:354,1,41.9999987182618,2|0,1:2|0:0,0:0:0:0:
77,244,58502,1,2,1:3:0:0:
252,181,58674,1,2,0:0:0:0:
361,319,58847,6,0,P|353:351|358:370,1,41.9999987182618,2|0,1:2|0:0,0:0:0:0:
506,384,59019,2,0,P|514:352|509:333,1,41.9999987182618,2|0,1:2|0:0,0:0:0:0:
237,283,59191,2,0,P|220:332|238:380,1,83.9999974365235,2|0,1:3|0:0,0:0:0:0:
451,252,59536,70,0,P|465:185|388:102,1,180,4|0,1:0|0:0,0:0:0:0:
335,161,59881,2,0,L|346:215,1,41.9999987182618,2|0,1:3|0:0,0:0:0:0:
457,43,60053,2,0,L|464:-16,1,41.9999987182618,2|0,0:0|0:0,0:0:0:0:
285,39,60226,6,0,P|363:25|402:14,1,83.9999974365235,2|0,0:0|1:0,0:0:0:0:
431,337,60571,2,0,P|382:323|331:313,1,83.9999974365235,2|0,1:3|0:0,0:0:0:0:
349,316,60829,1,2,0:0:0:0:
349,316,60916,69,0,1:0:0:0:
474,154,61088,1,2,0:0:0:0:
274,357,61260,2,0,P|266:323|259:303,1,41.9999987182618,2|0,1:3|0:0,0:0:0:0:
408,202,61433,2,0,P|400:236|393:256,1,41.9999987182618,2|0,0:0|0:0,0:0:0:0:
309,241,61605,6,0,P|292:179|274:135,1,83.9999974365235,2|0,0:0|1:0,0:0:0:0:
157,263,61950,2,0,P|90:297|69:355,1,125.999996154785,2|0,1:3|0:0,0:0:0:0:
70,340,62295,70,0,P|45:231|18:159,1,180,0|0,1:0|0:0,0:0:0:0:
60,90,62640,2,0,P|65:59|73:30,1,41.9999987182618,2|0,1:3|0:0,0:0:0:0:
187,382,62812,2,0,P|152:373|142:351,1,41.9999987182618,2|0,0:0|0:0,0:0:0:0:
178,126,62985,6,0,P|188:79|193:36,1,83.9999974365235,2|0,0:0|1:0,0:0:0:0:
348,289,63329,2,0,P|337:348|333:383,1,83.9999974365235,2|0,1:3|0:0,0:0:0:0:
335,372,63588,1,2,0:0:0:0:
342,380,63674,70,0,L|281:364,1,41.9999987182618,0|0,1:0|0:0,0:0:0:0:
235,193,63847,2,0,L|278:181,1,41.9999987182618,2|0,0:0|0:0,0:0:0:0:
425,254,64019,1,2,1:3:0:0:
60,314,64191,5,2,0:0:0:0:
60,314,64278,1,2,0:0:0:0:
60,314,64364,2,0,P|48:253|36:207,1,90.0000034332277,0|0,1:0|0:0,0:0:0:0:
203,284,64536,2,0,P|194:328|184:371,1,90.0000034332277,2|0,1:2|0:0,0:0:0:0:
21,135,64709,2,0,P|94:149|125:222,1,150,2|0,1:3|0:0,0:0:0:0:
396,0,65053,70,0,P|306:45|288:124,1,180,4|0,1:0|0:0,0:0:0:0:
209,55,65398,2,0,P|201:21|191:-10,1,45.0000017166138,2|0,1:3|0:0,0:0:0:0:
382,98,65571,2,0,P|375:119|370:141,1,45.0000017166138,2|0,0:0|0:0,0:0:0:0:
207,142,65743,6,0,P|221:200|229:248,1,90.0000034332277,2|0,1:3|1:0,0:0:0:0:
489,259,66088,2,0,P|455:208|404:204,1,90.0000034332277,2|2,1:3|0:0,0:0:0:0:
351,224,66347,69,2,0:0:0:0:
351,224,66433,1,0,1:0:0:0:
471,67,66605,1,0,0:0:0:0:
303,0,66778,6,0,P|310:30|313:51,1,45.0000017166138,2|0,1:3|0:0,0:0:0:0:
397,380,66950,2,0,P|408:302|417:266,1,90.0000034332277,2|0,1:2|0:0,0:0:0:0:
382,94,67295,1,0,1:0:0:0:
220,259,67467,2,2,P|278:241|368:220,1,135.000005149841,2|0,1:3|0:0,0:0:0:0:
425,172,67812,70,0,P|469:184|527:194,1,90.0000034332277,0|0,1:0|0:0,0:0:0:0:
330,312,68157,1,2,1:3:0:0:
302,144,68329,1,2,0:0:0:0:
302,144,68416,1,0,0:0:0:0:
302,144,68502,2,0,P|290:80|273:30,1,90.0000034332277,2|0,0:0|1:0,0:0:0:0:
120,229,68847,2,0,P|138:322|161:391,1,135.000005149841,2|0,1:3|0:0,0:0:0:0:
226,384,69191,5,0,1:0:0:0:
33,283,69364,1,0,3:0:0:0:
33,283,69450,1,0,0:0:0:0:
33,283,69536,1,2,1:3:0:0:
221,144,69709,1,0,1:0:0:0:
164,239,69881,2,0,P|160:266|158:291,1,45.0000017166138,0|0,3:0|0:0,0:0:0:0:
140,232,70053,2,0,P|137:266|139:291,1,45.0000017166138,0|0,1:0|0:0,0:0:0:0:
21,36,70226,69,4,1:2:0:0:
21,36,70571,54,0,P|98:58|128:72,1,90.0000034332277,4|2,1:0|0:2,0:0:0:0:
106,61,70829,1,0,0:0:0:0:
106,61,70916,1,2,3:0:0:0:
226,5,71088,2,0,P|207:71|202:107,1,90.0000034332277,0|0,3:0|0:0,0:0:0:0:
129,233,71433,1,2,1:2:0:0:
47,212,71605,2,0,P|31:158|8:110,1,90.0000034332277,2|0,3:0|0:0,0:0:0:0:
277,136,71950,6,0,P|330:117|371:109,1,90.0000034332277,2|0,1:2|0:0,0:0:0:0:
362,110,72209,1,0,0:0:0:0:
362,110,72295,1,2,3:0:0:0:
484,0,72467,2,0,P|467:51|457:92,1,90.0000034332277
373,241,72812,1,2,1:2:0:0:
454,266,72985,2,0,P|455:209|425:175,1,90.0000034332277,2|0,3:0|0:0,0:0:0:0:
314,43,73329,70,4,L|213:25,1,90.0000034332277,2|0,1:2|0:0,1:0:0:0:
154,65,73674,1,2,3:0:0:0:
218,195,73847,1,2,0:0:0:0:
218,195,73934,1,0,0:0:0:0:
218,195,74020,2,0,L|322:178,1,90.0000034332277,2|0,0:0|1:0,0:0:0:0:
376,221,74364,1,2,1:3:0:0:
337,384,74536,1,2,0:0:0:0:
430,320,74709,5,0,1:0:0:0:
307,259,74881,1,2,0:0:0:0:
221,358,75053,1,2,1:3:0:0:
80,319,75226,69,2,0:0:0:0:
52,284,75312,1,2,3:0:0:0:
50,241,75399,1,0,0:0:0:0:
80,206,75485,1,0,3:0:0:0:
121,197,75571,1,2,1:2:0:0:
214,117,75743,2,0,P|199:57|191:15,1,90.0000034332277,2|2,1:3|0:2,0:0:0:0:
318,170,76088,6,0,P|310:230|306:273,1,90.0000034332277,6|0,1:2|0:0,0:0:0:0:
307,259,76347,1,0,0:0:0:0:
307,259,76433,1,2,3:3:0:0:
461,274,76605,2,0,P|428:227|384:224,1,90.0000034332277,0|0,3:0|0:0,0:0:0:0:
238,322,76950,1,2,1:2:0:0:
320,365,77122,2,0,P|375:350|414:345,1,90.0000034332277,2|0,3:0|0:0,0:0:0:0:
401,128,77467,70,0,P|391:77|383:27,1,90.0000034332277,2|0,1:2|0:0,0:0:0:0:
384,39,77726,1,0,0:0:0:0:
384,39,77812,1,2,3:0:0:0:
296,55,77985,2,0,P|308:118|314:159,1,90.0000034332277,0|0,3:0|0:0,0:0:0:0:
471,188,78329,1,2,1:2:0:0:
423,256,78502,2,0,P|413:306|407:350,1,90.0000034332277,2|0,3:0|0:0,0:0:0:0:
128,359,78847,6,0,P|75:355|41:315,1,90.0000034332277,2|0,1:2|0:0,0:0:0:0:
25,247,79191,1,2,3:0:0:0:
199,301,79364,1,2,0:0:0:0:
199,301,79450,1,0,0:0:0:0:
199,301,79536,2,0,P|222:348|204:398,1,90.0000034332277,2|0,0:2|1:0,0:0:0:0:
112,275,79881,1,2,3:0:0:0:
163,127,80053,1,2,0:0:0:0:
86,86,80226,70,0,L|69:-14,1,90.0000034332277,0|2,1:0|0:0,0:0:0:0:
30,150,80571,1,2,3:0:0:0:
224,195,80743,1,2,0:0:0:0:
224,195,80829,1,2,0:3:0:0:
224,195,80916,2,0,L|291:182,1,45.0000017166138,2|0,0:0|0:0,0:0:0:0:
204,50,81088,2,0,L|153:41,1,45.0000017166138,0|0,1:0|0:0,0:0:0:0:
89,220,81260,2,2,P|80:260|100:307,1,90.0000034332277,2|0,1:3|0:0,0:1:0:0:
455,363,81605,22,2,P|494:285|468:194,1,180,4|0,1:0|0:0,0:1:0:0:
471,198,81950,1,2,1:3:0:0:
264,307,82122,1,2,0:0:0:0:
361,339,82295,5,2,0:2:0:0:
388,159,82467,1,0,1:0:0:0:
223,216,82640,2,0,L|127:227,1,83.9999974365235,2|2,1:3|0:0,0:0:0:0:
326,233,82985,69,0,1:0:0:0:
470,101,83157,2,0,L|486:7,1,83.9999974365235,2|2,0:0|1:3,0:0:0:0:
301,134,83502,1,2,0:0:0:0:
489,204,83674,5,2,0:0:0:0:
333,47,83847,2,0,L|384:37,1,41.9999987182618,0|0,1:0|0:0,0:0:0:0:
436,278,84019,2,0,L|346:255,1,83.9999974365235,2|2,1:3|0:0,0:0:0:0:
58,340,84364,69,0,1:0:0:0:
90,366,84450,1,0,3:0:0:0:
131,372,84536,1,2,3:2:0:0:
170,357,84622,1,0,3:0:0:0:
198,326,84709,1,2,1:3:0:0:
205,284,84795,1,0,3:0:0:0:
195,243,84881,1,2,0:0:0:0:
163,214,84967,1,0,3:0:0:0:
122,203,85053,5,2,0:2:0:0:
82,218,85140,1,0,3:0:0:0:
41,208,85226,1,0,1:0:0:0:
14,175,85312,1,0,3:0:0:0:
12,133,85398,1,2,1:3:0:0:
34,97,85485,1,0,3:0:0:0:
72,80,85571,1,2,3:2:0:0:
113,85,85657,1,0,3:0:0:0:
148,116,85743,69,4,3:0:0:0:
148,116,85829,2,0,L|134:57,1,41.9999987182618,8|0,3:0|0:0,0:0:0:0:
241,1,86002,2,0,L|255:52,1,41.9999987182618,8|0,3:0|0:0,0:0:0:0:
387,203,86174,5,4,3:0:0:0:
401,216,86261,1,8,3:0:0:0:
423,223,86347,1,8,3:0:0:0:
442,223,86433,2,0,L|453:171,1,41.9999987182618,4|0,3:0|0:0,0:0:0:0:
406,76,86605,2,0,L|397:125,1,41.9999987182618,4|0,3:0|0:0,0:0:0:0:
256,352,86778,37,4,1:2:0:0:
256,352,87122,2,0,P|238:293|219:252,1,83.9999974365235,4|2,1:0|0:2,0:0:0:0:
334,25,87467,2,0,P|319:77|310:130,1,83.9999974365235,2|0,1:3|0:0,0:0:0:0:
180,384,87812,2,0,P|152:308|123:249,1,125.999996154785,2|0,1:2|0:0,1:0:0:0:
132,267,88157,1,2,1:3:0:0:
334,306,88329,5,0,0:0:0:0:
334,306,88416,1,0,0:0:0:0:
334,306,88502,2,0,P|386:297|428:280,1,83.9999974365235,0|2,1:2|0:0,0:0:0:0:
471,229,88847,1,2,1:3:0:0:
210,81,89019,2,0,P|197:25|179:-26,1,83.9999974365235,0|2,3:0|0:0,0:0:0:0:
153,149,89364,1,0,1:2:0:0:
499,111,89536,70,0,P|490:138|484:171,1,41.9999987182618,2|0,1:3|0:0,0:0:0:0:
283,40,89709,2,0,P|277:19|270:0,1,41.9999987182618,2|0,0:0|0:0,0:0:0:0:
430,57,89881,6,0,P|413:93|400:156,1,83.9999974365235,0|2,1:2|0:0,0:0:0:0:
242,170,90226,1,2,1:3:0:0:
349,213,90398,1,0,0:0:0:0:
349,213,90485,1,0,0:0:0:0:
349,213,90571,2,0,P|366:273|371:317,1,83.9999974365235,2|0,0:0|1:0,0:0:0:0:
512,351,90916,1,2,1:3:0:0:
459,278,91088,69,2,0:0:0:0:
459,278,91174,1,0,0:0:0:0:
459,278,91260,1,4,1:3:0:0:
291,342,91433,1,4,3:0:0:0:
422,370,91605,5,2,1:3:0:0:
277,253,91778,1,0,0:0:0:0:
235,262,91865,1,2,3:0:0:0:
205,291,91951,1,0,0:0:0:0:
189,330,92037,1,0,3:0:0:0:
191,371,92123,1,0,1:0:0:0:
337,184,92295,2,0,P|330:159|314:127,1,41.9999987182618,4|0,1:2|0:0,0:0:0:0:
108,1,92467,1,0,0:0:0:0:
202,9,92640,70,0,P|187:74|179:116,1,83.9999974365235,4|2,1:0|0:0,0:0:0:0:
11,82,92985,2,0,P|67:107|92:167,1,125.999996154785,2|0,1:3|0:0,0:0:0:0:
91,163,93329,1,2,0:2:0:0:
176,291,93502,1,0,1:0:0:0:
176,291,93674,2,0,L|197:209,1,83.9999974365235,2|2,1:3|0:0,0:0:0:0:
445,176,94019,5,0,1:0:0:0:
466,82,94191,2,0,B|482:-4,1,83.9999974365235,2|2,0:0|1:3,0:0:0:0:
382,113,94536,1,2,0:0:0:0:
382,113,94622,1,0,0:0:0:0:
382,113,94709,1,2,0:0:0:0:
512,240,94881,69,0,1:0:0:0:
357,203,95053,2,0,L|367:267,1,41.9999987182618,2|0,1:3|0:0,0:0:0:0:
434,341,95226,2,0,L|441:289,1,41.9999987182618,2|0,0:0|0:0,0:0:0:0:
256,195,95398,6,0,L|271:284,1,83.9999974365235,4|2,1:0|0:0,0:0:0:0:
269,277,95657,1,0,0:0:0:0:
269,277,95743,1,2,1:3:0:0:
442,182,95916,1,2,0:0:0:0:
184,255,96088,1,2,0:0:0:0:
349,346,96260,1,0,1:0:0:0:
314,105,96433,2,0,L|324:10,1,83.9999974365235,2|2,1:3|0:0,0:0:0:0:
220,147,96778,69,0,1:0:0:0:
420,67,96950,1,2,0:0:0:0:
170,0,97122,1,2,1:3:0:0:
344,222,97295,5,2,0:0:0:0:
344,222,97381,1,2,0:3:0:0:
344,222,97467,2,0,L|294:207,1,41.9999987182618,4|0,1:3|0:0,0:0:0:0:
209,344,97640,2,0,L|264:330,1,41.9999987182618,4|0,3:0|0:0,0:0:0:0:
392,146,97812,2,2,L|307:122,1,83.9999974365235,4|0,1:2|0:0,0:1:0:0:
8,208,98157,6,2,P|84:213|112:327,1,180,4|0,1:0|0:0,0:1:0:0:
122,299,98502,1,2,1:3:0:0:
203,178,98674,1,2,0:0:0:0:
203,178,98760,1,0,0:0:0:0:
203,178,98847,2,0,P|197:215|195:251,1,60,2|0,0:0|0:0,0:0:0:0:
47,352,99019,2,0,P|38:305|31:272,1,60,0|0,1:0|0:0,0:0:0:0:
301,184,99191,2,0,P|279:280|274:346,1,120,2|2,1:3|0:0,0:0:0:0:
276,301,99450,1,0,0:0:0:0:
276,301,99536,5,0,1:0:0:0:
141,102,99709,2,0,P|132:61|121:24,1,60,2|0,0:0|0:0,0:0:0:0:
111,189,99881,1,2,1:3:0:0:
386,72,100053,1,2,0:0:0:0:
386,72,100140,1,0,0:0:0:0:
386,72,100226,2,0,P|360:31|265:36,1,120,2|0,0:0|1:0,0:0:0:0:
410,256,100571,2,0,P|458:253|501:169,1,120,2|2,1:3|0:0,0:0:0:0:
260,203,100916,69,0,1:0:0:0:
354,161,101088,1,0,3:0:0:0:
179,140,101260,5,2,1:3:0:0:
249,289,101433,1,0,3:0:0:0:
437,123,101605,69,0,1:0:0:0:
170,241,101778,1,0,3:0:0:0:
236,375,101950,5,2,1:3:0:0:
268,117,102122,1,0,3:0:0:0:
22,230,102295,1,4,1:0:0:0:
35,247,102381,1,0,0:0:0:0:
55,243,102467,1,0,3:0:0:0:
59,223,102553,1,2,3:0:0:0:
36,213,102640,2,0,P|29:174|20:143,1,60,4|0,1:2|0:0,0:0:0:0:
173,0,102812,2,0,P|163:37|157:78,1,60,0|2,3:3|3:0,0:0:0:0:
3,67,102985,69,0,1:0:0:0:
44,61,103071,1,0,3:0:0:0:
83,80,103157,1,0,3:0:0:0:
103,122,103243,1,2,0:3:0:0:
153,138,103329,2,0,P|163:179|168:213,1,60,4|0,1:2|0:0,0:0:0:0:
267,98,103502,2,0,P|257:57|252:23,1,60,0|2,1:2|3:0,0:0:0:0:
23,154,103674,5,4,1:0:0:0:
248,245,103847,1,2,3:2:0:0:
248,245,103933,1,0,0:0:0:0:
248,245,104019,2,0,P|235:302|231:355,1,90.0000034332277,2|0,1:3|0:0,0:0:0:0:
139,319,104278,2,0,P|147:358|150:383,1,45.0000017166138,0|2,3:0|0:0,0:0:0:0:
303,371,104536,37,0,1:0:0:0:
82,255,104709,1,2,1:3:0:0:
316,172,104881,1,2,0:0:0:0:
137,189,105053,37,0,1:0:0:0:
361,306,105226,1,2,0:0:0:0:
369,314,105312,1,0,0:0:0:0:
369,314,105398,2,0,P|421:299|468:291,1,90.0000034332277,2|0,1:3|3:0,0:0:0:0:
495,220,105657,2,0,L|503:172,1,45.0000017166138,0|2,3:0|0:0,0:0:0:0:
507,360,105916,37,0,1:0:0:0:
413,220,106088,1,2,1:3:0:0:
512,71,106260,1,2,0:0:0:0:
340,21,106433,38,0,L|349:75,1,45.0000017166138,0|0,1:0|0:0,0:0:0:0:
430,44,106605,2,0,L|421:-12,1,45.0000017166138,2|0,0:0|0:0,0:0:0:0:
251,7,106778,2,0,P|264:75|270:118,1,90.0000034332277,2|0,1:3|0:0,0:0:0:0:
336,154,107036,2,0,P|325:188|320:224,1,45.0000017166138,0|2,3:0|0:0,0:0:0:0:
191,126,107295,37,0,1:0:0:0:
413,220,107467,2,0,P|443:214|470:207,1,45.0000017166138,2|0,1:3|0:0,0:0:0:0:
252,245,107640,37,2,0:0:0:0:
418,126,107812,1,0,1:0:0:0:
98,51,107985,2,0,P|40:34|-7:18,1,90.0000034332277,2|2,0:0|1:3,0:0:0:0:
209,7,108329,37,2,0:0:0:0:
209,7,108416,1,0,3:0:0:0:
209,7,108502,1,2,0:0:0:0:
118,184,108674,1,0,1:0:0:0:
215,106,108847,5,2,1:3:0:0:
12,145,109019,1,2,3:2:0:0:
234,226,109191,22,0,P|298:249|334:263,1,90.0000034332277,4|2,1:2|0:0,0:0:0:0:
512,171,109536,2,0,P|464:152|424:134,1,90.0000034332277,2|0,1:3|0:0,0:0:0:0:
391,61,109795,2,0,P|387:32|379:-2,1,45.0000017166138,0|2,3:0|0:0,0:0:0:0:
471,67,110053,37,0,1:0:0:0:
348,134,110226,1,2,1:3:0:0:
492,332,110398,1,2,0:0:0:0:
388,207,110571,38,0,P|401:267|408:309,1,90.0000034332277,0|2,1:0|0:0,0:0:0:0:
405,295,110829,1,0,0:0:0:0:
405,295,110916,1,2,1:3:0:0:
482,246,111088,1,2,3:2:0:0:
304,208,111260,37,2,1:2:0:0:
427,384,111433,1,0,0:0:0:0:
467,149,111605,5,2,1:3:0:0:
219,177,111778,1,2,3:2:0:0:
83,18,111950,21,4,1:2:0:0:
51,202,112122,1,2,0:0:0:0:
51,202,112208,1,0,0:0:0:0:
51,202,112295,2,0,P|92:189|142:179,1,90.0000034332277,2|0,1:3|0:0,0:0:0:0:
180,106,112553,2,0,P|166:83|158:66,1,45.0000017166138,0|2,3:0|0:0,0:0:0:0:
219,177,112812,37,0,1:0:0:0:
228,27,112985,1,2,1:3:0:0:
87,108,113157,1,2,0:0:0:0:
337,229,113329,38,0,P|364:223|386:219,1,45.0000017166138,0|0,1:2|0:2,1:2:0:0:
183,349,113502,2,0,P|160:344|138:339,1,45.0000017166138,2|0,3:2|0:2,1:2:0:0:
333,311,113674,2,0,P|405:297|446:291,1,90.0000034332277,2|0,1:3|3:2,0:0:0:0:
137,179,114019,2,0,P|65:165|24:159,1,90.0000034332277,2|0,1:2|0:2,0:0:0:0:
345,124,114364,54,0,P|412:102|482:88,1,135.000005149841,4|0,1:2|0:0,0:0:0:0:
475,89,114709,38,0,P|511:143|503:214,1,107.999996704102,6|0,1:0|0:0,0:1:0:0:
243,95,115053,2,2,P|248:41|280:0,1,107.999996704102,2|0,1:2|0:0,0:1:0:0:
443,220,115398,6,2,P|433:272|420:388,1,161.999995056153,2|0,1:0|0:0,0:1:0:0:
420,380,115743,1,2,1:2:0:0:
512,264,115916,1,0,1:0:0:0:
151,133,116088,70,0,P|141:87|120:21,1,90.0000034332277,4|2,1:0|0:0,0:0:0:0:
46,4,116433,1,2,1:3:0:0:
251,86,116605,1,2,0:0:0:0:
251,86,116691,1,0,0:0:0:0:
251,86,116778,1,2,0:0:0:0:
65,148,116950,1,0,1:0:0:0:
203,241,117122,2,0,P|162:226|113:212,1,90.0000034332277,2|2,1:3|0:0,0:0:0:0:
24,380,117467,6,2,P|114:360|189:345,1,161.999995056153,0|0,1:0|0:0,1:0:0:0:
182,346,117812,1,2,1:0:0:0:
290,180,117985,2,2,P|306:254|311:316,1,107.999996704102,0|2,3:0|0:0,0:1:0:0:
479,358,118329,1,2,1:0:0:0:
479,358,118416,1,0,0:0:0:0:
479,358,118502,2,0,P|488:285|501:225,1,107.999996704102,2|2,1:3|0:1,0:0:0:0:
286,109,118847,70,0,P|336:96|389:77,1,90.0000034332277,4|2,1:0|0:0,0:0:0:0:
455,59,119191,2,0,P|413:6|375:1,1,90.0000034332277,2|2,1:3|0:0,0:0:0:0:
394,0,119450,1,0,0:0:0:0:
394,0,119536,1,2,0:0:0:0:
512,126,119709,1,0,1:0:0:0:
430,141,119881,2,0,P|424:191|412:256,1,90.0000034332277,2|2,1:3|0:0,0:0:0:0:
220,310,120226,5,4,1:0:0:0:
145,269,120398,2,0,P|105:281|53:292,1,90.0000034332277,2|2,0:0|1:3,0:0:0:0:
221,223,120743,69,2,0:0:0:0:
221,223,120829,1,0,0:0:0:0:
221,223,120916,1,2,0:0:0:0:
150,355,121088,1,0,1:0:0:0:
69,208,121260,1,2,1:3:0:0:
297,270,121433,1,2,0:0:0:0:
262,70,121605,6,0,L|252:20,1,45.0000017166138,0|0,1:0|0:0,0:0:0:0:
198,120,121778,1,2,1:2:0:0:
438,81,121950,1,2,1:3:0:0:
371,16,122122,2,0,P|356:60|338:125,1,90.0000034332277,0|2,1:0|0:0,0:0:0:0:
277,149,122467,1,0,1:0:0:0:
118,90,122640,2,0,P|106:31|95:-12,1,90.0000034332277,2|2,1:3|0:0,0:0:0:0:
56,157,122985,5,4,1:0:0:0:
200,47,123157,1,2,0:0:0:0:
162,295,123329,1,2,1:3:0:0:
31,78,123502,5,2,0:0:0:0:
31,78,123588,1,0,0:0:0:0:
31,78,123674,1,2,0:0:0:0:
216,221,123847,1,0,1:0:0:0:
8,226,124019,5,2,1:3:0:0:
173,150,124191,1,2,0:0:0:0:
90,186,124364,6,0,L|80:139,1,45.0000017166138,0|0,1:0|0:0,0:0:0:0:
247,307,124536,2,0,L|241:358,1,45.0000017166138,2|0,1:2|0:0,0:0:0:0:
39,323,124709,6,0,P|61:299|89:290,1,45.0000017166138,2|0,1:3|0:0,0:0:0:0:
291,172,124881,2,0,P|271:160|258:142,1,45.0000017166138,2|0,1:2|0:0,0:0:0:0:
31,78,125053,5,2,1:2:0:0:
160,363,125226,1,0,1:0:0:0:
259,0,125398,1,2,1:3:0:0:
8,226,125571,5,0,3:0:0:0:
8,226,125657,1,0,3:0:0:0:
8,226,125743,2,0,P|51:209|103:197,1,90,4|0,3:0|0:0,0:0:0:0:
146,141,126088,38,0,P|130:125|87:123,1,48,4|0,1:0|0:0,0:0:0:0:
262,255,126260,2,0,P|283:253|313:221,1,48,2|0,0:0|0:0,0:0:0:0:
96,290,126433,70,0,P|81:349|76:401,1,96,2|0,0:0|1:0,0:0:0:0:
251,174,126778,2,0,P|235:121|214:64,1,96,2|2,1:3|0:0,0:0:0:0:
221,82,127036,1,2,0:0:0:0:
221,82,127122,5,0,1:0:0:0:
188,223,127295,1,2,0:0:0:0:
338,173,127467,2,0,P|363:165|402:157,1,48,2|0,1:3|0:0,0:0:0:0:
282,16,127640,2,0,P|254:7|225:-4,1,48,2|0,0:0|0:0,0:0:0:0:
241,286,127812,69,2,0:0:0:0:
349,72,127985,1,0,1:0:0:0:
331,257,128157,2,0,P|340:304|351:362,1,96,2|0,1:3|0:0,0:0:0:0:
188,223,128502,6,0,B|152:225|115:213|115:213|95:243|63:262,1,144,0|0,1:0|0:0,0:0:0:0:
30,182,128847,2,0,P|17:157|1:136,1,48,2|0,1:3|0:0,0:0:0:0:
179,62,129019,2,0,P|182:27|186:1,1,48,2|0,0:0|0:0,0:0:0:0:
0,39,129191,70,0,P|56:62|98:74,1,96,2|0,0:0|1:0,0:0:0:0:
179,316,129536,2,0,P|116:338|73:364,1,96,2|2,1:3|0:0,0:0:0:0:
90,352,129795,1,2,0:0:0:0:
90,352,129881,5,0,1:0:0:0:
262,208,130053,1,2,0:0:0:0:
151,135,130226,1,2,1:3:0:0:
255,372,130398,69,2,0:0:0:0:
255,372,130485,1,2,0:0:0:0:
255,372,130571,1,0,1:0:0:0:
30,182,130743,1,0,1:0:0:0:
328,78,130916,2,0,P|335:19|343:-36,1,96,2|0,1:3|0:0,0:0:0:0:
195,258,131260,6,0,P|272:242|351:229,1,144,4|0,1:0|0:0,0:0:0:0:
403,170,131605,2,0,P|373:156|352:146,1,48,2|0,1:3|0:0,0:0:0:0:
206,41,131778,2,0,P|233:30|256:24,1,48,2|0,0:0|0:0,0:0:0:0:
417,260,131950,70,0,P|403:320|397:359,1,96,2|0,0:0|1:0,0:0:0:0:
150,157,132295,2,2,P|195:142|248:124,1,96,2|2,1:3|0:0,0:0:0:0:
241,127,132553,1,2,0:0:0:0:
240,126,132640,5,0,1:0:0:0:
485,205,132812,1,2,0:0:0:0:
307,372,132985,70,0,P|301:336|295:310,1,48,2|0,1:3|0:0,0:0:0:0:
286,212,133157,2,0,P|312:224|343:239,1,48,2|0,0:0|0:0,0:0:0:0:
491,333,133329,6,0,P|419:348|390:356,1,96,2|0,0:0|1:0,0:0:0:0:
240,126,133674,2,0,P|250:65|256:-4,1,96,2|0,1:3|0:0,0:0:0:0:
7,218,134019,70,0,P|53:223|86:257,1,96,0|2,1:0|0:0,0:0:0:0:
86,257,134278,1,0,0:0:0:0:
86,257,134364,2,0,P|75:306|72:323,1,48,2|0,1:3|0:0,0:0:0:0:
156,54,134536,2,0,P|149:21|144:1,1,48,2|0,0:0|0:0,0:0:0:0:
187,250,134709,6,0,P|172:318|165:366,1,96,2|0,0:0|1:0,0:0:0:0:
120,156,135053,2,0,P|177:149|243:130,1,96,2|2,1:3|0:0,0:0:0:0:
302,56,135312,69,2,0:0:0:0:
302,56,135398,2,0,P|274:47|254:45,1,48,0|0,1:0|0:0,0:0:0:0:
285,218,135571,2,0,P|313:227|333:229,1,48,2|0,1:2|0:0,0:0:0:0:
390,160,135743,1,2,1:3:0:0:
194,257,135916,5,2,1:2:0:0:
194,257,136003,1,0,1:0:0:0:
194,257,136088,2,0,P|204:303|208:327,1,48,2|0,1:2|0:0,0:0:0:0:
458,359,136260,2,0,P|463:336|470:313,1,48,2|0,1:2|0:0,0:0:0:0:
378,307,136433,2,0,P|330:319|278:330,1,96,2|0,1:3|0:0,0:0:0:0:
0,140,136778,70,0,P|49:71|115:78,1,144,4|0,1:0|0:0,0:0:0:0:
195,9,137122,2,0,P|186:53|182:88,1,48,2|0,1:3|0:0,0:0:0:0:
89,202,137295,2,0,P|84:170|77:139,1,48,2|0,0:0|0:0,0:0:0:0:
256,101,137467,6,0,P|326:82|364:73,1,96,2|0,0:0|1:0,0:0:0:0:
119,292,137812,2,0,P|57:278|10:264,1,96,2|2,1:3|0:0,0:0:0:0:
25,269,138071,1,2,0:0:0:0:
25,269,138157,69,0,1:0:0:0:
162,138,138329,1,2,0:0:0:0:
324,337,138502,6,0,P|315:384|311:409,1,48,2|0,1:3|0:0,0:0:0:0:
269,264,138674,2,0,P|264:240|259:216,1,48,2|0,0:0|0:0,0:0:0:0:
450,239,138847,70,0,P|391:253|334:264,1,96,2|0,0:0|1:0,0:0:0:0:
142,371,139191,2,0,P|209:350|257:339,1,96,2|0,1:3|0:0,0:0:0:0:
329,0,139536,6,0,P|315:62|302:151,1,144,0|0,1:0|0:0,0:0:0:0:
430,146,139881,2,0,P|407:125|375:118,1,48,2|0,1:3|0:0,0:0:0:0:
187,56,140053,2,0,P|227:43|240:32,1,48,2|0,0:0|0:0,0:0:0:0:
504,65,140226,70,0,P|453:50|399:31,1,96,2|0,0:0|1:0,0:0:0:0:
126,167,140571,2,0,P|171:151|217:137,1,96,2|2,1:3|0:0,0:0:0:0:
217,136,140829,1,2,0:0:0:0:
217,136,140916,5,0,1:0:0:0:
73,58,141088,1,2,0:0:0:0:
202,249,141260,1,2,1:3:0:0:
321,70,141433,69,2,0:0:0:0:
321,70,141519,1,2,0:0:0:0:
321,70,141605,1,2,1:2:0:0:
61,231,141778,1,0,1:0:0:0:
302,356,141950,2,0,P|312:304|325:243,1,96,2|0,1:3|0:0,0:0:0:0:
150,0,142295,6,0,P|164:69|181:160,1,144,4|0,1:0|0:0,0:0:0:0:
253,179,142640,2,0,P|261:149|257:123,1,48,2|0,1:3|0:0,0:0:0:0:
0,279,142812,2,0,P|17:299|42:307,1,48,2|0,0:0|0:0,0:0:0:0:
151,261,142985,70,0,P|97:240|43:228,1,96,2|0,0:0|1:0,0:0:0:0:
247,44,143329,2,0,P|307:34|354:18,1,96,2|2,1:3|0:0,0:0:0:0:
416,56,143588,1,2,0:0:0:0:
416,56,143674,1,0,1:0:0:0:
342,281,143847,1,4,3:0:0:0:
480,238,144019,6,0,P|447:229|417:217,1,48,2|0,1:3|0:0,0:0:0:0:
240,340,144191,2,0,P|171:354|127:368,1,96,0|0,1:0|0:0,0:0:0:0:
387,379,144536,1,4,1:3:0:0:
290,184,144709,2,0,P|277:112|248:13,1,144,2|0,1:3|0:0,0:0:0:0:
340,23,145053,70,0,P|395:42|442:54,1,96,0|0,1:0|0:0,0:0:0:0:
222,245,145398,1,2,1:3:0:0:
156,192,145571,1,2,0:0:0:0:
156,192,145657,1,0,0:0:0:0:
156,192,145743,2,0,P|94:175|57:167,1,96,2|0,0:0|1:0,0:0:0:0:
286,302,146088,2,0,P|359:280|443:259,1,144,2|0,1:3|0:0,0:0:0:0:
495,306,146433,1,0,1:0:0:0:
512,44,146605,5,2,3:2:0:0:
468,41,146691,1,0,3:0:0:0:
435,61,146778,1,2,3:0:0:0:
409,100,146864,1,0,3:0:0:0:
387,139,146950,1,2,3:2:0:0:
353,158,147036,1,0,3:0:0:0:
309,156,147122,2,0,P|300:109|287:70,1,71.9999978027344,4|0,3:0|3:0,3:0:0:0:
507,153,147295,2,0,P|494:208|491:238,1,71.9999978027344,2|0,3:2|3:0,3:0:0:0:
221,238,147467,70,0,P|203:129|166:0,1,215.999993408203,4|0,0:0|0:0,0:0:0:0:
82,1,147812,53,4,1:0:0:0:
263,0,147985,1,2,0:0:0:0:
263,0,148071,1,0,0:0:0:0:
263,0,148157,2,0,P|284:10|320:17,1,41.9999987182618,2|0,1:3|0:0,0:0:0:0:
107,102,148329,6,0,P|64:82|9:67,1,83.9999974365235,0|2,3:0|0:0,0:0:0:0:
175,27,148674,1,0,1:0:0:0:
281,117,148847,2,0,P|337:95|409:77,1,125.999996154785,2|0,1:3|0:0,0:0:0:0:
419,96,149191,69,0,1:0:0:0:
487,38,149364,1,2,0:0:0:0:
487,38,149450,1,0,0:0:0:0:
487,38,149536,2,0,P|479:5|472:-11,1,41.9999987182618,2|0,1:3|0:0,0:0:0:0:
367,170,149709,2,0,P|351:235|347:284,1,83.9999974365235,0|2,3:0|0:0,0:0:0:0:
451,178,150053,5,0,1:0:0:0:
295,24,150226,2,0,P|243:11|194:-11,1,83.9999974365235,2|2,1:3|0:0,0:0:0:0:
74,118,150571,69,0,1:0:0:0:
146,58,150743,2,0,P|163:114|168:151,1,83.9999974365235,2|2,0:0|1:3,0:0:0:0:
227,271,151088,1,2,0:0:0:0:
233,279,151174,1,0,0:0:0:0:
233,279,151260,2,0,P|216:328|207:383,1,83.9999974365235,2|0,0:0|1:0,0:0:0:0:
306,346,151605,1,2,1:3:0:0:
135,224,151778,1,2,0:0:0:0:
315,143,151950,6,0,L|402:128,1,83.9999974365235,0|2,1:0|0:0,0:0:0:0:
374,223,152295,1,2,1:3:0:0:
226,114,152467,1,2,0:0:0:0:
221,87,152553,1,2,0:3:0:0:
223,63,152640,1,2,0:0:0:0:
233,38,152726,1,2,3:0:0:0:
248,16,152812,1,0,1:0:0:0:
461,202,152985,2,0,P|482:242|483:285,1,83.9999974365235,2|2,1:3|0:0,0:0:0:0:
333,0,153329,69,4,1:2:0:0:
470,122,153502,1,2,0:0:0:0:
470,122,153588,1,0,0:0:0:0:
470,122,153674,2,0,P|433:121|410:129,1,41.9999987182618,2|0,1:3|0:0,0:0:0:0:
283,182,153847,2,0,P|355:208|377:210,1,83.9999974365235,0|2,3:0|0:0,0:0:0:0:
341,103,154191,5,0,1:0:0:0:
217,269,154364,2,0,P|194:211|153:152,1,125.999996154785,2|0,1:3|0:0,0:0:0:0:
135,151,154709,69,0,1:0:0:0:
229,7,154881,2,0,P|204:65|194:117,1,83.9999974365235,2|2,0:0|1:3,0:0:0:0:
62,52,155226,1,2,0:0:0:0:
62,52,155312,1,0,0:0:0:0:
62,52,155398,2,0,P|99:63|114:63,1,41.9999987182618,2|0,0:0|0:0,0:0:0:0:
302,162,155571,2,0,P|223:180|195:200,1,83.9999974365235,0|2,1:0|1:3,0:0:0:0:
33,241,155916,1,2,0:0:0:0:
106,165,156088,6,0,P|124:219|133:265,1,83.9999974365235,0|2,1:0|0:0,0:0:0:0:
215,279,156347,2,0,P|204:318|201:342,1,41.9999987182618,2|2,0:0|1:3,0:0:0:0:
79,360,156605,1,0,3:0:0:0:
283,362,156778,70,0,L|395:343,1,83.9999974365235,2|0,0:0|1:0,0:0:0:0:
484,229,157122,1,2,1:3:0:0:
442,384,157295,1,2,0:0:0:0:
375,257,157467,6,0,L|320:245,1,41.9999987182618,0|0,1:0|0:0,0:0:0:0:
286,105,157640,2,0,L|341:93,1,41.9999987182618,2|0,3:2|0:0,0:0:0:0:
408,82,157812,1,2,1:3:0:0:
181,30,157985,69,2,0:0:0:0:
181,30,158071,1,2,0:3:0:0:
181,30,158157,2,0,L|229:43,1,41.9999987182618,2|0,0:0|0:0,0:0:0:0:
427,164,158329,2,0,L|373:176,1,41.9999987182618,0|0,1:2|0:0,0:0:0:0:
215,330,158502,2,2,L|323:351,1,83.9999974365235,2|0,1:3|0:0,0:1:0:0:
217,245,158847,22,2,B|178:244|147:266|147:266|138:241|138:241|95:267|59:265,1,180,6|0,1:0|0:0,0:1:0:0:
44,247,159191,1,2,1:3:0:0:
11,138,159364,1,2,0:0:0:0:
18,145,159450,1,0,0:0:0:0:
18,145,159536,2,0,P|43:155|64:159,1,45.0000017166138,2|0,0:0|0:0,0:0:0:0:
108,89,159709,2,0,P|86:23|82:-17,1,90.0000034332277,0|2,1:0|1:3,0:0:0:0:
148,165,160053,1,2,0:0:0:0:
207,47,160226,6,0,P|198:74|192:100,1,45.0000017166138,0|0,1:0|0:0,0:0:0:0:
242,255,160398,2,0,P|237:233|229:209,1,45.0000017166138,2|0,0:0|0:0,0:0:0:0:
301,50,160571,2,0,P|274:124|267:165,1,90.0000034332277,2|2,1:3|0:0,0:0:0:0:
321,211,160829,69,0,0:0:0:0:
321,211,160916,2,0,P|344:202|378:193,1,45.0000017166138,2|0,0:0|0:0,0:0:0:0:
250,350,161088,2,0,P|222:342|202:332,1,45.0000017166138,0|0,1:0|0:0,0:0:0:0:
324,295,161260,2,0,P|346:346|357:400,1,90.0000034332277,2|2,1:3|0:0,0:0:0:0:
483,216,161605,5,4,3:0:0:0:
500,174,161691,1,0,3:0:0:0:
486,129,161778,1,2,3:2:0:0:
450,103,161864,1,0,3:0:0:0:
405,102,161950,1,2,3:0:0:0:
369,128,162036,1,0,3:0:0:0:
342,164,162122,1,2,3:2:0:0:
299,179,162209,1,0,3:0:0:0:
255,167,162295,69,2,3:2:0:0:
226,129,162381,1,0,3:0:0:0:
221,84,162467,1,4,3:0:0:0:
245,43,162553,1,0,3:0:0:0:
282,25,162640,1,2,3:0:0:0:
312,24,162726,1,0,3:0:0:0:
337,36,162812,1,2,3:2:0:0:
349,49,162898,1,0,3:0:0:0:
358,64,162985,5,0,3:0:0:0:
362,81,163071,2,0,P|351:118|348:134,1,45.0000017166138,2|0,3:0|2:0,3:0:0:0:
255,167,163243,2,0,P|266:200|270:223,1,45.0000017166138,2|0,3:0|0:0,0:0:0:0:
447,219,163416,1,0,3:0:0:0:
427,230,163502,1,2,0:3:0:0:
411,250,163588,1,2,0:3:0:0:
403,273,163674,2,0,P|396:311|395:343,1,45.0000017166138,8|0,3:0|0:0,0:0:0:0:
314,374,163847,2,0,P|310:345|306:319,1,45.0000017166138,4|0,0:3|0:0,0:0:0:0:
475,346,164019,37,4,1:2:0:0:
315,373,164364,6,0,P|245:354|205:345,1,90.0000034332277,4|2,1:0|0:0,0:0:0:0:
3,267,164709,2,0,P|72:246|145:216,1,135.000005149841,2|0,1:3|0:0,0:0:0:0:
144,202,165053,1,2,0:0:0:0:
121,368,165226,1,0,1:0:0:0:
121,368,165312,1,0,0:0:0:0:
121,368,165398,1,2,1:3:0:0:
212,284,165571,70,0,P|220:241|225:223,1,45.0000017166138,2|0,0:0|0:0,0:0:0:0:
36,162,165743,1,0,1:0:0:0:
44,64,165916,2,0,P|62:129|72:176,1,90.0000034332277,2|2,0:0|1:3,0:0:0:0:
268,58,166260,5,2,0:0:0:0:
268,58,166347,1,0,0:0:0:0:
268,58,166433,2,0,P|203:46|164:34,1,90.0000034332277,2|0,0:0|1:0,0:0:0:0:
44,237,166778,1,2,1:3:0:0:
124,204,166950,2,0,P|150:210|174:221,1,45.0000017166138,2|0,0:0|0:0,0:0:0:0:
277,354,167122,70,0,P|332:343|368:326,1,90.0000034332277,0|2,1:0|0:0,0:0:0:0:
434,369,167467,1,2,1:3:0:0:
512,213,167640,1,2,0:0:0:0:
512,213,167726,1,0,0:0:0:0:
512,213,167812,2,0,P|494:266|490:305,1,90.0000034332277,2|0,0:0|1:0,0:0:0:0:
301,233,168157,2,0,P|291:192|281:168,1,45.0000017166138,2|0,1:3|0:0,0:0:0:0:
318,111,168329,1,2,0:0:0:0:
470,22,168502,5,4,1:2:0:0:
452,55,168674,1,6,0:0:0:0:
442,25,168847,69,4,1:2:0:0:
482,51,169019,1,6,0:0:0:0:
442,169,169191,5,0,1:0:0:0:
421,157,169278,1,2,0:3:0:0:
398,149,169364,1,0,1:0:0:0:
227,8,169536,70,0,P|236:37|242:69,1,45.0000017166138,4|0,1:2|0:0,0:0:0:0:
333,68,169709,2,0,P|320:103|312:138,1,45.0000017166138,2|0,0:0|0:0,0:0:0:0:
122,174,169881,6,0,P|68:157|13:147,1,90.0000034332277,4|2,1:0|0:0,0:0:0:0:
35,150,170140,1,0,0:0:0:0:
35,150,170226,1,2,1:3:0:0:
202,124,170398,1,2,0:0:0:0:
40,0,170571,70,0,P|50:35|54:58,1,45.0000017166138,2|0,0:0|0:0,0:0:0:0:
124,80,170743,1,0,1:0:0:0:
197,213,170916,2,0,P|180:266|172:325,1,90.0000034332277,2|2,1:3|0:0,0:0:0:0:
23,359,171260,6,0,P|8:311|35:275,1,90.0000034332277,0|2,1:0|0:0,0:0:0:0:
103,239,171605,1,2,1:3:0:0:
226,370,171778,1,2,0:0:0:0:
226,370,171864,1,2,0:3:0:0:
226,370,171950,1,2,0:0:0:0:
163,303,172122,69,0,1:0:0:0:
314,380,172295,2,0,P|309:350|301:326,1,45.0000017166138,2|0,1:3|0:0,0:0:0:0:
272,195,172467,1,2,0:0:0:0:
493,283,172640,5,0,1:0:0:0:
335,258,172812,2,0,P|384:248|435:237,1,90.0000034332277,2|0,0:0|1:3,0:0:0:0:
481,89,173157,1,2,0:0:0:0:
481,89,173243,1,0,0:0:0:0:
481,89,173329,2,0,P|445:76|422:65,1,45.0000017166138,2|0,0:0|0:0,0:0:0:0:
379,12,173502,69,0,1:0:0:0:
500,200,173674,1,2,1:3:0:0:
241,135,173847,1,2,0:0:0:0:
321,101,174019,6,0,P|343:94|372:87,1,45.0000017166138,0|0,1:0|0:0,0:0:0:0:
250,45,174191,2,0,P|240:24|231:3,1,45.0000017166138,2|0,0:0|0:0,0:0:0:0:
181,199,174364,1,2,1:3:0:0:
404,212,174536,69,2,0:0:0:0:
404,212,174622,1,2,0:3:0:0:
404,212,174709,2,0,P|364:197|292:178,1,90.0000034332277,2|0,0:0|1:0,0:0:0:0:
0,119,175053,2,0,P|42:128|131:74,1,135.000005149841,2|0,1:3|0:0,0:0:0:0:
212,88,175398,22,2,P|206:35|191:-20,1,90.0000034332277,4|0,1:0|0:0,0:1:0:0:
95,243,175743,2,2,P|79:297|64:418,1,135.000005149841,2|0,1:3|0:0,0:1:0:0:
80,384,176088,1,2,0:1:0:0:
14,208,176260,1,0,1:0:0:0:
14,208,176347,1,0,0:0:0:0:
14,208,176433,1,2,1:3:0:0:
177,197,176605,2,0,P|206:189|232:179,1,45.0000017166138,2|0,0:1|0:0,0:0:0:0:
250,357,176778,5,0,1:0:0:0:
268,263,176950,2,2,P|224:273|168:294,1,90.0000034332277,0|2,0:1|1:3,0:1:0:0:
59,123,177295,2,2,P|82:151|93:181,1,45.0000017166138,0|0,0:0|0:0,0:1:0:0:
99,245,177467,69,2,0:1:0:0:
309,185,177640,2,0,P|316:159|328:133,1,45.0000017166138,0|0,1:0|0:0,0:0:0:0:
132,25,177812,2,0,P|160:95|168:133,1,90.0000034332277,2|2,1:3|0:1,0:0:0:0:
392,76,178157,6,2,P|447:66|490:54,1,90.0000034332277,0|2,1:0|0:1,0:1:0:0:
461,330,178502,2,2,P|432:290|347:268,1,135.000005149841,2|0,1:3|0:0,0:1:0:0:
337,275,178847,1,2,0:1:0:0:
228,354,179019,1,0,1:0:0:0:
228,354,179105,1,0,0:0:0:0:
228,354,179191,2,0,P|218:313|208:288,1,45.0000017166138,2|0,1:3|0:0,0:0:0:0:
156,249,179364,69,2,0:1:0:0:
438,187,179536,1,0,1:0:0:0:
135,136,179709,5,2,0:1:0:0:
337,275,179881,2,2,P|324:326|315:377,1,90.0000034332277,2|0,1:3|0:0,0:1:0:0:
288,112,180226,70,0,P|282:83|271:50,1,45.0000017166138,2|0,0:1|0:0,0:0:0:0:
325,4,180398,1,0,1:0:0:0:
234,177,180571,1,2,1:3:0:0:
493,88,180743,1,2,0:0:0:0:
208,29,180916,6,2,P|140:13|91:-2,1,90.0000034332277,4|0,1:0|0:0,0:1:0:0:
21,286,181260,2,2,P|80:265|180:242,1,135.000005149841,2|0,1:3|0:0,0:1:0:0:
171,255,181605,1,2,0:1:0:0:
43,176,181778,2,0,P|72:170|95:162,1,45.0000017166138,0|0,1:0|0:0,0:0:0:0:
143,106,181950,1,2,1:3:0:0:
242,306,182122,70,0,P|236:339|233:369,1,45.0000017166138,2|0,0:1|0:0,0:0:0:0:
153,349,182295,1,0,1:0:0:0:
215,175,182467,2,2,P|300:157|329:148,1,90.0000034332277,2|2,0:1|1:3,0:1:0:0:
445,190,182812,2,2,P|409:199|384:209,1,45.0000017166138,0|0,0:0|0:0,0:1:0:0:
335,350,182985,2,0,P|325:288|305:229,1,90.0000034332277,2|0,0:1|1:0,0:0:0:0:
381,98,183329,1,2,1:3:0:0:
219,270,183502,1,2,0:0:0:0:
509,370,183674,6,2,P|522:315|507:279,1,90.0000034332277,0|2,1:0|0:0,0:1:0:0:
298,47,184019,2,2,P|285:102|300:138,1,90.0000034332277,2|2,1:3|0:0,0:1:0:0:
367,184,184278,1,0,0:0:0:0:
367,184,184364,2,0,P|423:172|479:165,1,90.0000034332277,2|0,0:1|1:0,0:0:0:0:
217,17,184709,2,0,P|159:7|110:-6,1,90.0000034332277,2|2,1:3|0:1,0:0:0:0:
58,34,184967,69,0,0:0:0:0:
58,34,185053,2,2,P|25:88|35:134,1,90.0000034332277,0|2,1:0|1:1,0:1:0:0:
190,172,185398,2,2,P|159:116|114:102,1,90.0000034332277,2|0,1:3|0:0,0:1:0:0:
0,226,185743,2,2,P|63:227|98:195,1,90.0000034332277,2|0,1:1|1:0,0:1:0:0:
279,216,186088,2,0,P|258:272|241:369,1,135.000005149841,2|0,1:3|0:0,0:0:0:0:
250,364,186433,1,4,1:0:0:0:
50,64,191950,54,0,P|96:54|146:42,1,90.0000034332277,2|0,0:0|0:0,0:0:0:0:
138,45,192467,1,0,0:0:0:0:
138,45,192812,1,0,0:0:0:0:
217,132,192985,6,0,P|170:141|120:153,1,90.0000034332277,2|0,0:0|0:0,0:0:0:0:
129,151,193502,1,0,0:0:0:0:
129,151,193847,1,0,0:0:0:0:
27,177,194019,6,0,P|15:222|30:272,1,90.0000034332277,2|0,0:0|0:0,0:0:0:0:
267,371,194364,2,0,P|279:326|264:276,1,90.0000034332277,0|2,0:0|0:0,0:0:0:0:
107,290,194709,54,0,L|122:399,1,90.0000034332277,2|0,0:0|0:0,0:0:0:0:
120,380,195226,1,0,0:0:0:0:
120,380,195571,1,0,0:0:0:0:
211,218,195743,6,0,L|226:109,1,90.0000034332277,2|0,0:0|0:0,0:0:0:0:
224,129,196260,1,0,0:0:0:0:
224,129,196605,1,0,0:0:0:0:
146,82,196778,70,0,P|120:143|128:177,1,90.0000034332277,2|0,0:0|0:0,0:0:0:0:
336,116,197122,2,2,P|325:48|261:-3,1,135.000005149841,2|0,0:0|0:0,0:2:0:0:
279,4,197467,22,0,P|324:-3|345:-17,1,60,2|0,0:0|0:0,0:0:0:0:
500,106,197812,2,0,P|439:48|388:50,2,120,2|2|2,0:0|0:0|0:0,0:0:0:0:
460,183,198674,6,0,P|447:232|442:267,1,60,2|0,0:0|0:0,0:0:0:0:
267,142,199019,2,0,P|286:197|304:277,1,120,2|0,0:0|0:0,0:0:0:0:
461,339,199536,1,2,0:0:0:0:
461,339,199881,38,0,P|417:327|374:317,1,90,2|0,0:0|0:0,0:0:0:0:
373,316,200226,6,0,P|392:276|389:250,1,60,2|0,0:0|0:0,0:0:0:0:
214,253,200571,2,0,P|212:331|252:383,2,120,2|2|0,0:0|0:0|0:0,0:0:0:0:
285,172,201433,54,0,P|293:132|301:97,1,60,2|0,0:0|0:0,0:0:0:0:
168,20,201778,2,0,P|180:79|189:139,1,120,2|0,0:0|0:0,0:0:0:0:
327,27,202295,22,0,P|275:11|249:1,1,60,2|0,0:0|0:0,0:0:0:0:
129,257,202640,2,0,P|171:237|232:220,1,90,2|0,0:0|0:0,0:0:0:0:
285,172,202985,69,2,0:0:0:0:
285,172,203157,2,0,P|326:189|355:196,1,60,2|0,0:0|0:0,0:0:0:0:
202,322,203502,2,0,P|166:349|146:370,1,60,2|0,0:0|0:0,0:0:0:0:
110,175,203847,2,0,P|104:130|95:102,1,60,2|0,0:0|0:0,0:0:0:0:
308,347,204191,54,0,P|301:317|298:287,1,60,2|0,0:0|0:0,0:0:0:0:
62,255,204536,2,0,P|90:263|118:276,1,60,2|0,0:0|0:0,0:0:0:0:
250,81,204881,2,0,P|228:101|203:118,1,60,2|0,0:0|0:0,0:0:0:0:
207,214,205226,2,0,P|269:203|308:198,1,90,2|0,0:0|0:0,0:0:0:0:
315,214,205571,70,0,P|324:163|338:99,1,90.0000034332277,6|0,0:0|0:0,0:0:0:0:
203,117,205916,22,0,B|110:59|81:188|40:249|-153:-5|5:-73|271:-125|316:49|159:50|221:-1|77:-17|111:64,1,540.000020599366,6|4,0:0|3:0,0:0:0:0:
107,40,207295,69,2,0:0:0:0:
197,263,207467,2,0,P|209:227|226:194,1,75,2|0,0:0|0:0,0:0:0:0:
23,304,207640,2,0,P|33:332|40:362,1,60,2|0,0:0|0:0,0:0:0:0:
340,141,207812,70,2,P|321:86|270:58,1,120,2|0,0:0|0:0,0:0:0:0:
147,379,208157,2,2,P|299:339|456:308,1,315.000003004074,2|0,0:0|0:0,0:0:0:0:
454,309,208502,6,0,P|440:363|435:405,1,71.9999978027344,4|0,1:0|0:0,0:0:0:0:
470,111,208674,1,0,3:0:0:0:
491,201,208847,2,0,P|413:186|316:157,1,143.999995605469,2|0,1:3|0:0,0:0:0:0:
303,105,209105,1,2,0:3:0:0:
303,105,209191,1,2,1:2:0:0:
495,25,209364,1,0,1:0:0:0:
408,0,209536,2,0,P|395:53|388:95,1,71.9999978027344,2|0,1:3|0:0,0:0:0:0:
267,185,209709,70,0,P|287:253|303:324,2,143.999995605469,2|0|2,0:0|1:0|0:0,0:0:0:0:
389,354,210226,1,2,1:3:0:0:
21,333,210398,5,0,1:0:0:0:
21,333,210485,1,2,0:3:0:0:
21,333,210571,2,0,B|97:340|76:256|185:276,1,143.999995605469,2|0,1:2|1:0,0:0:0:0:
247,383,210829,1,2,0:0:0:0:
247,383,210916,2,0,P|222:382|188:343,1,71.9999978027344,2|0,1:3|0:0,0:0:0:0:
131,22,211088,2,0,P|77:39|61:86,1,71.9999978027344,2|0,0:0|0:0,0:0:0:0:
0,156,211260,70,0,P|72:165|153:178,1,143.999995605469,4|2,1:0|0:0,0:0:0:0:
142,176,211519,1,0,0:0:0:0:
142,176,211605,2,0,P|138:136|127:86,1,71.9999978027344,2|0,1:3|0:0,0:0:0:0:
79,246,211778,6,0,P|112:257|145:272,1,71.9999978027344,2|0,0:0|0:0,0:0:0:0:
270,90,211950,2,0,P|236:78|203:63,1,71.9999978027344,2|0,1:2|0:0,0:0:0:0:
60,52,212122,69,0,1:0:0:0:
177,351,212295,1,2,1:3:0:0:
276,245,212467,6,0,P|368:216|440:207,2,143.999995605469,2|0|2,0:0|1:0|0:0,0:0:0:0:
217,190,212898,1,2,0:0:0:0:
217,190,212985,1,2,1:3:0:0:
418,328,213157,1,2,0:0:0:0:
494,110,213329,70,0,P|505:62|517:27,1,71.9999978027344,6|0,1:3|0:0,0:0:0:0:
339,63,213502,2,0,P|371:78|408:87,1,71.9999978027344,2|0,1:2|0:0,0:0:0:0:
498,214,213674,2,0,P|433:183|361:172,1,143.999995605469,2|0,1:3|0:0,0:0:0:0:
161,14,214019,6,0,P|176:82|182:114,1,71.9999978027344,2|0,1:2|0:0,0:0:0:0:
46,175,214191,1,0,3:0:0:0:
256,99,214364,2,0,P|190:130|89:140,1,143.999995605469,2|2,1:3|0:0,0:0:0:0:
57,99,214622,1,2,0:0:0:0:
57,99,214709,1,2,0:0:0:0:
166,223,214881,1,0,1:0:0:0:
22,255,215053,2,0,P|83:277|118:300,1,71.9999978027344,2|0,1:3|0:0,0:0:0:0:
286,203,215226,70,0,P|240:275|225:345,2,143.999995605469,2|0|2,0:0|1:0|0:0,0:0:0:0:
137,359,215743,1,2,1:3:0:0:
463,339,215916,1,2,0:0:0:0:
463,339,216002,1,0,0:0:0:0:
463,339,216088,2,0,P|415:274|342:275,1,143.999995605469,2|0,0:0|1:0,0:0:0:0:
306,370,216347,1,2,0:0:0:0:
306,370,216433,2,0,P|344:358|387:351,1,71.9999978027344,2|0,1:3|0:0,0:0:0:0:
447,86,216605,2,0,P|453:50|464:16,1,71.9999978027344,2|0,1:2|0:0,0:0:0:0:
315,56,216778,6,0,P|341:118|369:214,1,143.999995605469,4|2,1:0|0:0,0:0:0:0:
363,191,217036,1,2,0:0:0:0:
363,191,217122,2,0,P|400:180|437:173,1,71.9999978027344,2|0,1:3|0:0,0:0:0:0:
272,207,217295,2,0,P|262:172|250:138,1,71.9999978027344,2|0,0:0|0:0,0:0:0:0:
454,265,217467,2,0,P|412:270|372:285,1,71.9999978027344,2|0,0:0|0:0,0:0:0:0:
306,370,217640,69,0,1:0:0:0:
511,205,217812,1,2,1:3:0:0:
208,54,217985,6,0,P|129:33|48:-8,2,143.999995605469,2|0|2,0:0|1:0|0:0,0:0:0:0:
281,16,218416,1,2,0:0:0:0:
281,16,218502,1,2,1:3:0:0:
31,84,218674,1,0,1:0:0:0:
282,97,218847,70,0,P|264:149|257:193,1,71.9999978027344,6|0,1:3|0:0,0:0:0:0:
176,215,219019,2,0,P|165:156|155:122,1,71.9999978027344,0|0,1:0|0:0,0:0:0:0:
259,261,219191,5,2,1:3:0:0:
69,167,219364,1,0,1:0:0:0:
357,55,219536,70,0,P|431:42|510:21,1,143.999995605469,4|0,1:0|3:0,0:0:0:0:
391,212,219881,1,0,1:3:0:0:
486,149,220053,1,2,0:0:0:0:
486,149,220139,1,2,0:0:0:0:
486,149,220226,2,0,P|412:129|383:126,1,71.9999978027344,2|0,0:0|0:0,0:0:0:0:
246,7,220398,6,0,P|261:58|268:90,1,71.9999978027344,0|0,1:0|0:0,0:0:0:0:
328,147,220571,1,2,1:3:0:0:
174,243,220743,70,0,P|152:340|148:412,2,143.999995605469,2|0|2,0:0|1:0|0:0,0:0:0:0:
251,211,221260,1,2,1:3:0:0:
47,216,221433,1,2,0:0:0:0:
47,216,221519,1,2,0:0:0:0:
47,216,221605,2,0,B|120:215|98:155|194:162,1,143.999995605469,2|0,0:0|1:0,0:0:0:0:
252,125,221864,1,2,0:0:0:0:
252,125,221950,2,0,P|258:73|266:34,1,71.9999978027344,2|0,1:3|0:0,0:0:0:0:
319,233,222122,2,0,P|285:220|250:210,1,71.9999978027344,2|0,0:2|0:0,0:0:0:0:
0,0,222295,6,0,P|21:60|43:152,1,143.999995605469,4|2,1:0|0:0,0:0:0:0:
174,246,222553,1,2,0:0:0:0:
174,246,222640,2,0,P|160:289|153:332,1,71.9999978027344,2|0,1:3|0:0,0:0:0:0:
68,342,222812,69,2,0:0:0:0:
343,142,222985,1,2,0:0:0:0:
166,21,223157,6,0,P|124:5|79:-2,1,71.9999978027344,0|0,1:0|0:0,0:0:0:0:
0,211,223329,1,2,1:3:0:0:
228,72,223502,70,0,P|326:50|385:10,2,143.999995605469,2|0|2,0:0|1:0|0:0,0:0:0:0:
155,108,223933,1,2,0:0:0:0:
155,108,224019,1,2,1:3:0:0:
426,189,224191,1,2,0:0:0:0:
227,154,224364,6,0,P|247:226|252:270,1,71.9999978027344,6|0,1:3|0:0,0:0:0:0:
427,104,224536,2,0,P|435:68|446:34,1,71.9999978027344,0|0,1:3|0:0,0:0:0:0:
215,13,224709,2,0,P|299:59|362:71,1,143.999995605469,2|0,1:3|0:0,0:0:0:0:
512,294,225053,70,0,P|470:275|432:269,1,71.9999978027344,4|0,1:0|0:0,0:0:0:0:
283,378,225226,1,2,0:0:0:0:
322,192,225398,2,0,P|349:283|365:377,1,143.999995605469,2|2,1:3|0:0,0:0:0:0:
451,384,225657,1,2,0:0:0:0:
451,384,225743,1,2,0:0:0:0:
211,312,225916,5,0,1:0:0:0:
426,189,226088,2,0,P|437:140|448:107,1,71.9999978027344,2|0,1:3|0:0,0:0:0:0:
188,24,226260,1,2,0:0:0:0:
336,23,226433,70,0,P|289:42|254:49,1,71.9999978027344,0|0,1:0|0:0,0:0:0:0:
94,215,226605,2,0,P|138:230|176:248,1,71.9999978027344,2|0,1:2|0:0,0:0:0:0:
363,103,226778,5,2,1:3:0:0:
99,22,226950,69,2,1:2:0:0:
99,22,227036,1,0,0:0:0:0:
99,22,227122,2,0,P|109:73|113:106,1,71.9999978027344,2|0,1:2|0:0,0:0:0:0:
283,221,227295,2,0,P|268:310|261:371,2,143.999995605469,2|2|2,1:2|1:3|1:2,0:0:0:0:
251,98,227726,5,2,0:0:0:0:
251,98,227812,2,0,P|219:72|162:72,1,71.9999978027344,2|0,1:2|0:0,0:0:0:0:
364,231,227985,2,0,P|402:216|431:166,1,71.9999978027344,2|0,1:2|0:0,0:0:0:0:
185,265,228157,2,0,P|178:305|207:355,1,71.9999978027344,2|0,1:3|0:0,0:0:0:0:
432,85,228329,69,2,1:2:0:0:
432,85,228416,1,2,0:0:0:0:
432,85,228502,2,0,P|379:99|337:106,1,71.9999978027344,2|0,1:2|0:0,0:0:0:0:
87,148,228674,2,0,P|122:155|156:165,1,71.9999978027344,2|0,1:2|0:0,0:0:0:0:
302,334,228847,1,2,1:3:0:0:
232,28,229019,5,2,1:2:0:0:
232,28,229105,1,2,0:0:0:0:
232,28,229191,2,0,P|245:72|251:99,1,71.9999978027344,4|0,1:3|0:0,0:0:0:0:
154,344,229364,21,2,1:3:0:0:
131,360,229450,1,0,3:0:0:0:
104,365,229536,1,2,1:3:0:0:
73,361,229623,1,2,3:0:0:0:
47,341,229709,1,0,3:0:0:0:
36,304,229795,1,2,3:0:0:0:
50,262,229881,1,2,1:3:0:0:
87,241,229967,1,2,3:0:0:0:
135,250,230054,1,8,3:0:0:0:
180,228,230140,1,8,3:0:0:0:
193,186,230226,1,8,3:0:0:0:
179,150,230312,1,4,3:0:0:0:
154,129,230399,1,4,3:0:0:0:
130,124,230485,1,4,0:3:0:0:
54,95,230571,22,0,P|167:76|260:52,1,155.999992858887,4|0,1:0|0:0,0:0:0:0:
492,296,230916,2,0,B|438:317|364:279|412:242|337:190|267:233,1,233.999989288331,2|0,1:3|0:0,0:0:0:0:
244,295,231260,38,0,P|255:337|263:379,1,77.9999964294435,2|0,1:3|0:0,0:0:0:0:
293,75,231433,2,0,P|282:33|274:-9,1,77.9999964294435,4|0,1:3|0:0,0:0:0:0:
87,241,231605,38,0,P|123:279|164:282,1,77.9999964294435,2|0,1:3|0:0,0:0:0:0:
468,101,231778,2,0,P|412:125|398:153,1,77.9999964294435,4|0,1:3|0:0,0:0:0:0:
192,0,231950,38,0,P|137:80|202:206,1,233.999989288331,4|0,1:0|0:0,0:0:0:0:
293,75,232295,2,0,B|337:92|441:53|353:4|498:-18|548:32,1,233.999989288331,2|0,1:3|0:0,0:0:0:0:
485,248,232640,38,0,P|474:296|469:331,1,77.9999964294435,6|0,1:3|0:0,0:0:0:0:
304,248,232812,2,0,P|315:200|320:165,1,77.9999964294435,4|0,1:3|0:0,0:0:0:0:
414,172,232985,2,0,P|389:272|374:347,1,155.999992858887,2|0,1:3|0:0,0:0:0:0:
48,157,233329,38,0,P|33:70|10:-41,1,155.999992858887,4|0,1:0|0:0,0:0:0:0:
224,191,233674,2,0,B|174:156|87:217|147:231|72:268|9:249,1,233.999989288331,2|0,1:3|0:0,0:0:0:0:
76,361,234019,38,0,P|118:350|169:340,1,77.9999964294435,2|0,1:3|0:0,0:0:0:0:
190,22,234191,2,0,P|151:13|114:3,1,77.9999964294435,4|0,1:3|0:0,0:0:0:0:
217,283,234364,38,0,P|238:277|304:265,1,77.9999964294435,2|0,1:3|0:0,0:0:0:0:
305,115,234536,2,0,P|285:110|219:95,1,77.9999964294435,6|0,1:3|0:0,0:0:0:0:
288,362,234709,38,0,B|351:373|404:338|384:313|427:279|518:308,1,233.999989288331,4|0,1:0|0:0,0:0:0:0:
468,10,235053,2,0,P|330:39|308:138,1,233.999989288331,2|0,1:3|0:0,0:0:0:0:
398,219,235398,38,0,P|403:168|408:132,1,77.9999964294435,2|0,1:3|0:0,0:0:0:0:
190,22,235571,2,0,P|194:60|198:99,1,77.9999964294435,4|0,1:3|0:0,0:0:0:0:
288,362,235743,2,0,P|294:268|306:185,1,155.999992858887,2|0,1:3|0:0,0:0:0:0:
45,149,236088,38,0,B|92:134|133:171|112:185|154:221|237:189,1,155.999992858887,4|0,1:0|0:0,0:0:0:0:
295,1,236433,1,2,1:3:0:0:
197,382,236605,37,2,1:3:0:0:
197,382,236691,1,2,0:3:0:0:
197,382,236778,2,0,P|189:333|179:289,1,77.9999964294435,4|0,1:3|0:0,1:0:0:0:
222,46,236950,2,0,P|230:95|240:139,1,77.9999964294435,4|0,1:3|0:0,1:0:0:0:
37,46,237122,38,0,P|86:38|130:28,1,77.9999964294435,2|0,1:3|0:0,1:0:0:0:
352,315,237294,2,0,P|303:323|259:333,1,77.9999964294435,4|0,1:3|0:0,1:0:0:0:
97,356,237467,37,4,1:0:0:0:
203,208,237640,1,0,1:0:0:0:
203,208,237726,1,0,1:0:0:0:
203,208,237812,2,0,B|336:229|279:111|452:143,1,233.999989288331,2|0,1:3|0:0,0:0:0:0:
470,246,238157,38,0,P|429:234|380:227,1,77.9999964294435,2|0,1:3|0:0,0:0:0:0:
291,32,238329,2,0,P|329:25|366:14,1,77.9999964294435,4|0,1:3|0:0,0:0:0:0:
495,140,238502,2,0,P|413:121|329:111,1,155.999992858887,2|0,1:3|0:0,0:0:0:0:
37,0,238847,38,0,P|63:94|93:262,1,233.999989288331,4|0,1:0|0:0,0:0:0:0:
64,328,239191,2,0,B|123:350|182:304|153:286|217:244|284:275,1,233.999989288331,2|0,1:3|0:0,0:0:0:0:
334,379,239536,38,0,P|344:326|356:283,1,77.9999964294435,2|0,1:3|0:0,0:0:0:0:
152,115,239709,2,0,P|161:152|168:191,1,77.9999964294435,4|0,1:3|0:0,0:0:0:0:
502,363,239881,38,0,P|463:369|425:377,1,77.9999964294435,2|0,1:3|0:0,0:0:0:0:
224,59,240053,2,0,P|262:52|300:44,1,77.9999964294435,2|0,1:3|0:0,0:0:0:0:
375,8,240226,37,4,1:3:0:0:
440,287,240398,1,0,1:0:0:0:
440,287,240485,1,0,1:0:0:0:
440,287,240571,1,2,1:3:0:0:
355,146,240743,1,4,1:3:0:0:
263,271,240916,6,0,P|290:243|320:218,1,77.9999964294435,2|0,1:3|0:0,0:0:0:0:
511,162,241088,2,0,P|473:151|436:138,1,77.9999964294435,4|0,1:3|0:0,0:0:0:0:
289,3,241260,2,0,P|299:40|305:79,1,77.9999964294435,2|0,1:3|0:0,0:0:0:0:
355,146,241433,1,2,0:3:0:0:
431,384,241605,70,0,P|314:360|185:337,1,233.999989288331,4|0,1:0|0:0,0:0:0:0:
94,323,241950,2,0,P|77:275|53:234,1,77.9999964294435,2|0,1:3|0:0,0:0:0:0:
5,140,242122,2,0,P|43:148|82:151,1,77.9999964294435,2|0,1:3|0:0,0:0:0:0:
197,146,242295,2,0,P|171:176|149:208,1,77.9999964294435,0|0,1:3|0:0,0:0:0:0:
0,319,242467,1,2,1:3:0:0:
60,62,242640,1,2,1:3:0:0:
235,221,242812,1,2,1:3:0:0:
64,251,242985,37,4,1:0:0:0:
202,41,243157,1,0,1:0:0:0:
202,41,243243,1,0,1:0:0:0:
202,41,243329,1,2,1:3:0:0:
317,280,243502,1,0,1:0:0:0:
284,89,243674,38,0,P|292:43|302:-1,1,77.9999964294435,2|0,1:3|0:0,0:0:0:0:
190,131,243847,2,0,P|198:169|204:207,1,77.9999964294435,4|0,1:3|0:0,0:0:0:0:
290,188,244019,2,0,B|331:181|419:187|378:249|450:272|510:249,1,233.999989288331,2|0,1:3|0:0,0:0:0:0:
473,161,244364,38,0,P|488:65|489:1,1,155.999992858887,4|0,1:0|0:0,0:0:0:0:
190,131,244709,2,0,P|185:236|212:392,1,233.999989288331,2|0,1:3|0:0,0:0:0:0:
286,341,245053,2,0,P|276:303|271:264,1,77.9999964294435,2|0,1:3|0:0,0:0:0:0:
111,8,245226,38,0,P|102:43|112:83,1,77.9999964294435,4|0,1:3|0:0,0:0:0:0:
44,308,245398,2,0,P|80:296|108:268,1,77.9999964294435,2|0,1:3|0:0,0:0:0:0:
349,213,245571,2,0,P|320:188|283:178,1,77.9999964294435,2|0,1:3|0:0,0:0:0:0:
24,192,245743,38,0,P|111:178|197:160,1,155.999992858887,4|0,1:0|0:0,0:0:0:0:
418,0,246088,6,0,P|402:60|397:87,1,77.9999964294435,2|0,1:3|0:0,1:3:0:0:
293,348,246260,1,2,1:2:0:0:
293,348,246347,1,2,0:0:0:0:
293,348,246433,2,0,P|383:324|478:315,1,155.999992858887,2|0,1:3|1:0,0:0:0:0:
494,116,246778,2,0,P|378:96|233:13,1,233.999989288331,2|0,1:2|0:0,0:0:0:0:
153,0,247122,22,0,P|161:58|173:90,1,77.9999964294435,4|0,1:0|0:0,0:0:0:0:
379,202,247295,2,0,P|324:179|291:174,1,77.9999964294435,0|0,1:0|0:0,0:0:0:0:
82,293,247467,2,0,P|128:257|152:232,1,77.9999964294435,2|0,1:3|0:0,0:0:0:0:
268,96,247640,37,2,0:0:0:0:
268,96,247726,1,2,0:0:0:0:
268,96,247812,2,0,P|308:60|343:25,1,77.9999964294435,4|0,1:3|0:0,0:0:0:0:
106,146,247985,2,0,P|55:128|7:115,1,77.9999964294435,4|0,1:3|0:0,0:0:0:0:
225,268,248157,2,0,P|234:321|247:369,1,77.9999964294435,2|0,1:3|0:0,0:0:0:0:
203,169,248329,1,0,0:0:0:0:
332,349,248502,38,0,P|415:334|497:322,1,155.999992858887,4|0,1:0|0:0,0:0:0:0:
474,37,248847,2,0,B|422:12|341:39|392:89|317:121|266:95,1,233.999989288331,2|0,1:3|0:0,0:0:0:0:
176,82,249191,38,0,P|170:46|157:0,1,77.9999964294435,2|0,1:3|0:0,0:0:0:0:
448,129,249364,1,4,1:3:0:0:
106,247,249536,2,0,P|196:217|292:204,1,155.999992858887,2|2,1:3|0:0,0:0:0:0:
321,284,249795,37,2,0:0:0:0:
321,284,249881,2,0,P|288:317|243:317,1,77.9999964294435,4|0,1:2|0:0,0:0:0:0:
166,206,250053,2,0,P|153:160|176:121,1,77.9999964294435,2|0,1:3|0:0,0:0:0:0:
305,119,250226,2,0,P|350:131|372:170,1,77.9999964294435,2|0,1:2|0:0,0:0:0:0:
170,298,250398,37,2,1:3:0:0:
170,298,250485,1,0,0:0:0:0:
170,298,250571,2,0,P|123:298|91:266,1,77.9999964294435,4|0,1:2|0:0,0:0:0:0:
224,92,250743,2,0,P|247:51|290:39,1,77.9999964294435,2|0,1:3|0:0,0:0:0:0:
380,232,250916,2,0,P|403:272|391:315,1,77.9999964294435,2|0,1:2|0:0,0:0:0:0:
256,196,251088,1,2,1:3:0:0:
370,37,251260,6,0,P|410:30|460:20,1,77.9999964294435,4|0,1:2|0:0,0:0:0:0:
155,180,251433,1,2,3:3:0:0:
155,180,251519,1,2,3:3:0:0:
155,180,251605,2,0,P|83:163|59:155,1,77.9999964294435,0|0,1:0|0:0,0:0:0:0:
334,359,251778,1,2,3:0:0:0:
334,359,251864,1,2,3:0:0:0:
334,359,251950,2,0,P|389:345|498:327,1,155.999992858887,0|0,1:0|0:0,0:0:0:0:
47,30,252295,5,4,1:3:0:0:
341,184,252467,1,2,0:3:0:0:
74,357,252640,1,4,1:0:0:0:
256,192,252726,12,0,265053,0:0:0:0:
