osu file format v14

[General]
AudioFilename: audio.mp3
AudioLeadIn: 0
PreviewTime: 88197
Countdown: 1
SampleSet: Soft
StackLeniency: 0.2
Mode: 0
LetterboxInBreaks: 0
WidescreenStoryboard: 0

[Editor]
Bookmarks: 8,11042,33111,55180,66214,88283,110352,132421,154490,176559,198628,220697
DistanceSpacing: 0.6
BeatDivisor: 8
GridSize: 16
TimelineZoom: 3

[Metadata]
Title:Crush
TitleUnicode:Crush
Artist:Pendulum
ArtistUnicode:Pendulum
Creator:Raikozen
Version:Irregular
Source:
Tags:
BeatmapID:2151929
BeatmapSetID:1029095

[Difficulty]
HPDrainRate:4
CircleSize:4
OverallDifficulty:9
ApproachRate:9.6
SliderMultiplier:3.4
SliderTickRate:1

[Events]
//Background and Video events
0,0,"H69Xai (1).jpg",0,0
//Break Periods
2,179518,181567
2,185035,187085
2,190552,192602
//Storyboard Layer 0 (Background)
//Storyboard Layer 1 (Fail)
//Storyboard Layer 2 (Pass)
//Storyboard Layer 3 (Foreground)
//Storyboard Layer 4 (Overlay)
//Storyboard Sound Samples

[TimingPoints]
8,344.827586206897,4,2,2,20,1,0
8,-83.3333333333333,4,2,2,20,0,0
352,-200,4,2,2,20,0,0
1042,-133.333333333333,4,2,2,20,0,0
1387,-133.333333333333,4,2,2,20,0,0
1732,-100,4,2,2,20,0,0
2076,-80,4,2,2,20,0,0
2421,-66.6666666666667,4,2,2,20,0,0
2766,-58.8235294117647,4,2,2,20,0,0
3111,-100,4,2,2,20,0,0
3456,-181.818181818181,4,2,2,20,0,0
3801,-95.2380952380951,4,2,2,20,0,0
4145,-133.333333333333,4,2,2,20,0,0
4490,-90.9090909090909,4,2,2,20,0,0
4835,-66.6666666666667,4,2,2,20,0,0
5180,-52.6315789473684,4,2,2,20,0,0
5870,-100,4,2,2,20,0,0
6387,-133.333333333333,4,2,2,20,0,0
6904,-133.333333333333,4,2,2,20,0,0
7249,-86.9565217391303,4,2,2,20,0,0
7594,-66.6666666666667,4,2,2,20,0,0
7939,-52.6315789473684,4,2,2,20,0,0
8628,-100,4,2,2,20,0,0
11042,-71.4285714285714,4,2,2,60,0,0
11128,-71.4285714285714,4,2,2,5,0,0
11214,-50,4,2,2,60,0,0
11301,-50,4,2,2,5,0,0
11387,-50,4,2,2,60,0,0
11732,-100,4,2,2,60,0,0
11818,-100,4,2,2,5,0,0
11904,-100,4,2,2,60,0,0
12076,-50,4,2,2,60,0,0
12421,-66.6666666666667,4,2,2,60,0,0
12766,-66.6666666666667,4,2,2,60,0,0
13714,-66.6666666666667,4,2,2,5,0,0
13801,-66.6666666666667,4,2,2,60,0,0
13887,-66.6666666666667,4,2,2,5,0,0
13973,-50,4,2,2,60,0,0
14059,-50,4,2,2,5,0,0
14145,-50,4,2,2,60,0,0
14490,-76.9230769230769,4,2,2,60,0,0
14576,-76.9230769230769,4,2,2,5,0,0
14663,-55.5555555555556,4,2,2,60,0,0
15180,-71.4285714285714,4,2,2,60,0,0
15525,-100,4,2,2,60,0,0
15611,-100,4,2,2,5,0,0
15697,-100,4,2,2,60,0,0
15783,-100,4,2,2,5,0,0
15870,-100,4,2,2,60,0,0
15956,-100,4,2,2,5,0,0
16042,-100,4,2,2,60,0,0
16214,-66.6666666666667,4,2,2,60,0,0
16473,-66.6666666666667,4,2,2,5,0,0
16559,-50,4,2,2,60,0,0
16645,-50,4,2,2,5,0,0
16732,-50,4,2,2,60,0,0
16818,-50,4,2,2,5,0,0
16904,-50,4,2,2,60,0,0
17249,-100,4,2,2,60,0,0
17335,-100,4,2,2,5,0,0
17421,-100,4,2,2,60,0,0
17594,-66.6666666666667,4,2,2,60,0,0
19232,-66.6666666666667,4,2,2,5,0,0
19318,-50,4,2,2,60,0,0
19404,-50,4,2,2,5,0,0
19490,-50,4,2,2,60,0,0
19576,-50,4,2,2,5,0,0
19663,-50,4,2,2,60,0,0
20008,-100,4,2,2,60,0,0
20094,-100,4,2,2,5,0,0
20180,-100,4,2,2,60,0,0
20352,-55.5555555555556,4,2,2,60,0,0
20697,-71.4285714285714,4,2,2,60,0,0
21214,-100,4,2,2,60,0,0
21732,-222.222222222221,4,2,2,60,0,0
21990,-222.222222222221,4,2,2,5,0,0
22076,-55.5555555555556,4,2,2,60,0,0
22163,-55.5555555555556,4,2,2,5,0,0
22249,-45.4545454545455,4,2,2,60,0,0
22335,-45.4545454545455,4,2,2,5,0,0
22421,-45.4545454545455,4,2,2,60,0,0
22766,-100,4,2,2,60,0,0
22852,-100,4,2,2,5,0,0
22939,-100,4,2,2,60,0,0
23111,-50,4,2,2,60,0,0
23456,-62.5,4,2,2,60,0,0
23887,-62.5,4,2,2,5,0,0
23973,-62.5,4,2,2,60,0,0
24059,-62.5,4,2,2,5,0,0
24145,-62.5,4,2,2,60,0,0
24835,-100,4,2,2,60,0,0
24921,-100,4,2,2,5,0,0
25008,-43.4782608695652,4,2,2,60,0,0
25094,-43.4782608695652,4,2,2,5,0,0
25180,-43.4782608695652,4,2,2,60,0,0
25525,-52.6315789473684,4,2,2,60,0,0
25611,-52.6315789473684,4,2,2,5,0,0
25697,-52.6315789473684,4,2,2,60,0,0
25870,-52.6315789473684,4,2,2,60,0,0
26214,-66.6666666666667,4,2,2,60,0,0
26904,-133.333333333333,4,2,2,60,0,0
27594,-66.6666666666667,4,2,2,60,0,0
27680,-66.6666666666667,4,2,2,5,0,0
27766,-50,4,2,2,60,0,0
27852,-50,4,2,2,5,0,0
27939,-50,4,2,2,60,0,0
28283,-100,4,2,2,60,0,0
28370,-100,4,2,2,5,0,0
28456,-100,4,2,2,60,0,0
28628,-66.6666666666667,4,2,2,60,0,0
29921,-66.6666666666667,4,2,2,5,0,0
30008,-90.9090909090909,4,2,2,60,0,0
30266,-90.9090909090909,4,2,2,5,0,0
30352,-66.6666666666667,4,2,2,60,0,0
30439,-66.6666666666667,4,2,2,5,0,0
30525,-45.4545454545455,4,2,2,60,0,0
30611,-45.4545454545455,4,2,2,5,0,0
30697,-45.4545454545455,4,2,2,60,0,0
31042,-100,4,2,2,60,0,0
31128,-100,4,2,2,5,0,0
31214,-100,4,2,2,60,0,0
31387,-50,4,2,2,60,0,0
31645,-50,4,2,2,60,0,0
31732,-100,4,2,2,60,0,0
31818,-100,4,2,2,5,0,0
31904,-100,4,2,2,60,0,0
31990,-100,4,2,2,5,0,0
32076,-100,4,2,2,60,0,0
32163,-100,4,2,2,5,0,0
32249,-100,4,2,2,60,0,0
32421,-66.6666666666667,4,2,2,60,0,0
32508,-66.6666666666667,4,2,2,5,0,0
32594,-66.6666666666667,4,2,2,60,0,0
33025,-66.6666666666667,4,2,2,5,0,0
33105,-66.6666666666667,4,2,2,60,0,0
33801,-100,4,2,2,60,0,0
33887,-100,4,2,2,5,0,0
33973,-100,4,2,2,60,0,0
34059,-100,4,2,2,5,0,0
34145,-66.6666666666667,4,2,2,60,0,0
34490,-133.333333333333,4,2,2,60,0,0
34835,-100,4,2,2,60,0,0
35525,-62.5,4,2,2,60,0,0
35654,-62.5,4,2,2,5,0,0
35697,-100,4,2,2,60,0,0
35870,-55.5555555555556,4,2,2,60,0,0
36214,-76.9230769230769,4,2,2,60,0,0
36559,-100,4,2,2,60,0,0
36904,-66.6666666666667,4,2,2,60,0,0
37594,-100,4,2,2,60,0,0
38111,-52.6315789473684,4,2,2,60,0,0
38456,-100,4,2,2,60,0,0
38628,-58.8235294117647,4,2,2,60,0,0
38973,-100,4,2,2,60,0,0
39318,-133.333333333333,4,2,2,60,0,0
39663,-66.6666666666667,4,2,2,60,0,0
40352,-133.333333333333,4,2,2,60,0,0
40697,-100,4,2,2,60,0,0
41387,-66.6666666666667,4,2,2,60,0,0
41732,-133.333333333333,4,2,2,60,0,0
42076,-100,4,2,2,60,0,0
43456,-66.6666666666667,4,2,2,60,0,0
45008,-133.333333333333,4,2,2,60,0,0
45180,-66.6666666666667,4,2,2,60,0,0
45525,-133.333333333333,4,2,2,60,0,0
46042,-76.9230769230769,4,2,2,60,0,0
46732,-55.5555555555556,4,2,2,60,0,0
47249,-133.333333333333,4,2,2,60,0,0
47594,-66.6666666666667,4,2,2,60,0,0
48628,-133.333333333333,4,2,2,60,0,0
49145,-100,4,2,2,60,0,0
49663,-66.6666666666667,4,2,2,60,0,0
50180,-50,4,2,2,60,0,0
50352,-142.857142857143,4,2,2,60,0,0
51042,-90.909090909091,4,2,2,60,0,0
51904,-71.4285714285714,4,2,2,60,0,0
53111,-285.714285714284,4,2,2,60,0,0
53283,-66.6666666666667,4,2,2,60,0,0
53801,-83.3333333333333,4,2,2,60,0,0
54145,-100,4,2,2,60,0,0
54232,-100,4,2,2,5,0,0
54318,-100,4,2,2,60,0,0
54576,-100,4,2,2,5,0,0
54663,-100,4,2,2,60,0,0
54749,-100,4,2,2,5,0,0
54835,-66.6666666666667,4,2,2,60,0,0
54921,-66.6666666666667,4,2,2,5,0,0
55008,-66.6666666666667,4,2,2,60,0,0
55094,-66.6666666666667,4,2,2,5,0,0
55180,-66.6666666666667,4,2,2,60,0,0
55266,-66.6666666666667,4,2,2,5,0,0
55352,-50,4,2,2,60,0,0
55439,-50,4,2,2,5,0,0
55525,-50,4,2,2,60,0,0
55870,-100,4,2,2,60,0,0
55956,-100,4,2,2,5,0,0
56042,-100,4,2,2,60,0,0
56128,-100,4,2,2,5,0,0
56214,-100,4,2,2,60,0,0
56301,-100,4,2,2,5,0,0
56387,-100,4,2,2,60,0,0
56473,-100,4,2,2,5,0,0
56559,-58.8235294117647,4,2,2,60,0,0
56818,-58.8235294117647,4,2,2,5,0,0
56904,-100,4,2,2,60,0,0
56990,-100,4,2,2,5,0,0
57076,-66.6666666666667,4,2,2,60,0,0
57335,-66.6666666666667,4,2,2,5,0,0
57421,-100,4,2,2,60,0,0
57508,-100,4,2,2,5,0,0
57594,-66.6666666666667,4,2,2,60,0,0
57852,-66.6666666666667,4,2,2,5,0,0
57939,-66.6666666666667,4,2,2,60,0,0
58025,-66.6666666666667,4,2,2,5,0,0
58111,-50,4,2,2,60,0,0
58197,-50,4,2,2,5,0,0
58283,-50,4,2,2,60,0,0
58628,-100,4,2,2,60,0,0
58714,-100,4,2,2,5,0,0
58801,-100,4,2,2,60,0,0
58887,-100,4,2,2,5,0,0
58973,-100,4,2,2,60,0,0
59059,-100,4,2,2,5,0,0
59145,-100,4,2,2,60,0,0
59232,-100,4,2,2,5,0,0
59318,-66.6666666666667,4,2,2,60,0,0
59576,-66.6666666666667,4,2,2,5,0,0
59663,-66.6666666666667,4,2,2,60,0,0
59749,-66.6666666666667,4,2,2,5,0,0
59835,-66.6666666666667,4,2,2,60,0,0
60094,-66.6666666666667,4,2,2,5,0,0
60180,-66.6666666666667,4,2,2,60,0,0
60266,-66.6666666666667,4,2,2,5,0,0
60352,-66.6666666666667,4,2,2,60,0,0
60439,-66.6666666666667,4,2,2,5,0,0
60525,-66.6666666666667,4,2,2,60,0,0
60611,-66.6666666666667,4,2,2,5,0,0
60697,-66.6666666666667,4,2,2,60,0,0
60783,-66.6666666666667,4,2,2,5,0,0
60870,-45.4545454545455,4,2,2,60,0,0
60956,-45.4545454545455,4,2,2,5,0,0
61042,-45.4545454545455,4,2,2,60,0,0
61387,-66.6666666666667,4,2,2,60,0,0
61473,-45.4545454545455,4,2,2,5,0,0
61559,-45.4545454545455,4,2,2,60,0,0
61904,-55.5555555555556,4,2,2,60,0,0
61990,-45.4545454545455,4,2,2,5,0,0
62076,-45.4545454545455,4,2,2,60,0,0
62508,-45.4545454545455,4,2,2,5,0,0
62594,-45.4545454545455,4,2,2,60,0,0
63025,-45.4545454545455,4,2,2,5,0,0
63111,-45.4545454545455,4,2,2,60,0,0
63197,-45.4545454545455,4,2,2,5,0,0
63283,-45.4545454545455,4,2,2,60,0,0
63370,-45.4545454545455,4,2,2,5,0,0
63456,-66.6666666666667,4,2,2,60,0,0
63542,-66.6666666666667,4,2,2,5,0,0
63628,-50,4,2,2,60,0,0
63714,-50,4,2,2,5,0,0
63801,-43.4782608695652,4,2,2,60,0,0
64145,-66.6666666666667,4,2,2,60,0,0
64232,-66.6666666666667,4,2,2,5,0,0
64318,-66.6666666666667,4,2,2,60,0,0
64404,-66.6666666666667,4,2,2,5,0,0
64490,-66.6666666666667,4,2,2,60,0,0
64576,-66.6666666666667,4,2,2,5,0,0
64663,-66.6666666666667,4,2,2,60,0,0
64921,-66.6666666666667,4,2,2,5,0,0
65008,-66.6666666666667,4,2,2,60,0,0
65094,-66.6666666666667,4,2,2,5,0,0
65180,-66.6666666666667,4,2,2,60,0,0
65266,-66.6666666666667,4,2,2,5,0,0
65352,-66.6666666666667,4,2,2,60,0,0
65525,-66.6666666666667,4,2,2,60,0,0
65611,-66.6666666666667,4,2,2,5,0,0
65697,-66.6666666666667,4,2,2,60,0,0
65783,-66.6666666666667,4,2,2,5,0,0
65870,-66.6666666666667,4,2,2,60,0,0
66214,-66.6666666666667,4,2,2,60,0,0
66904,-181.818181818181,4,2,2,60,0,0
67249,-66.6666666666667,4,2,2,60,0,0
67594,-181.818181818181,4,2,2,60,0,0
67939,-66.6666666666667,4,2,2,60,0,0
68456,-100,4,2,2,60,0,0
68628,-50,4,2,2,60,0,0
68973,-66.6666666666667,4,2,2,60,0,0
70008,-100,4,2,2,60,0,0
71214,-62.5,4,2,2,60,0,0
71559,-100,4,2,2,60,0,0
71732,-333.333333333333,4,2,2,60,0,0
72076,-66.6666666666667,4,2,2,60,0,0
72421,-100,4,2,2,60,0,0
72766,-250,4,2,2,60,0,0
72939,-50,4,2,2,60,0,0
73283,-285.714285714284,4,2,2,60,0,0
73456,-79.9999999999999,4,2,2,60,0,0
73628,-100,4,2,2,60,0,0
73801,-50,4,2,2,60,0,0
73973,-285.714285714284,4,2,2,60,0,0
74145,-100,4,2,2,60,0,0
74490,-66.6666666666667,4,2,2,60,0,0
74835,-133.333333333333,4,2,2,60,0,0
75008,-50,4,2,2,60,0,0
75180,-222.222222222221,4,2,2,60,0,0
75697,-50,4,2,2,60,0,0
75870,-58.8235294117647,4,2,2,60,0,0
76214,-133.333333333333,4,2,2,60,0,0
76732,-66.6666666666667,4,2,2,60,0,0
77421,-133.333333333333,4,2,2,60,0,0
77594,-66.6666666666667,4,2,2,60,0,0
77939,-100,4,2,2,60,0,0
78283,-66.6666666666667,4,2,2,60,0,0
78628,-100,4,2,2,60,0,0
79145,-66.6666666666667,4,2,2,60,0,0
79490,-100,4,2,2,60,0,0
79663,-66.6666666666667,4,2,2,60,0,0
80008,-133.333333333333,4,2,2,60,0,0
80352,-76.9230769230769,4,2,2,60,0,0
80697,-58.8235294117647,4,2,2,60,0,0
80870,-133.333333333333,4,2,2,60,0,0
80999,-100,4,2,2,60,0,0
81387,-133.333333333333,4,2,2,60,0,0
82249,-100,4,2,2,60,0,0
82766,-399.999999999997,4,2,2,60,0,0
83111,-66.6666666666667,4,2,2,60,0,0
84145,-133.333333333333,4,2,2,60,0,0
84490,-66.6666666666667,4,2,2,60,0,0
85180,-50,4,2,2,60,0,0
85525,-133.333333333333,4,2,2,60,0,0
86904,-50,4,2,2,60,0,0
87421,-133.333333333333,4,2,2,60,0,0
87939,-50,4,2,2,60,0,0
88283,-50,4,2,1,70,0,1
88456,-40,4,2,1,70,0,1
88758,-40,4,2,1,5,0,1
88801,-47.6190476190476,4,2,1,70,0,1
89145,-66.6666666666667,4,2,1,70,0,1
89318,-50,4,2,1,70,0,1
89447,-50,4,2,1,5,0,1
89490,-50,4,2,1,70,0,1
91387,-333.333333333333,4,2,1,70,0,1
92249,-50,4,2,1,70,0,1
92594,-181.818181818181,4,2,1,70,0,1
92766,-66.6666666666667,4,2,1,70,0,1
93111,-100,4,2,1,70,0,1
93283,-100,4,2,1,70,0,1
93456,-50,4,2,1,70,0,1
93801,-37.037037037037,4,2,1,70,0,1
94145,-50,4,2,1,70,0,1
94490,-43.4782608695652,4,2,1,70,0,1
94663,-100,4,2,1,70,0,1
94835,-50,4,2,1,70,0,1
95008,-40,4,2,1,70,0,1
95180,-50,4,2,1,70,0,1
95525,-62.5,4,2,1,70,0,1
96559,-47.6190476190476,4,2,1,70,0,1
98068,-47.6190476190476,4,2,1,5,0,1
98111,-100,4,2,1,70,0,1
98283,-66.6666666666667,4,2,1,70,0,1
99490,-40,4,2,1,70,0,1
99835,-55.5555555555556,4,2,1,70,0,1
100654,-55.5555555555556,4,2,1,5,0,1
100697,-55.5555555555556,4,2,1,70,0,1
101559,-45.4545454545455,4,2,1,70,0,1
101904,-133.333333333333,4,2,1,70,0,1
102076,-50,4,2,1,70,0,1
102766,-133.333333333333,4,2,1,70,0,1
103111,-50,4,2,1,70,0,1
103801,-100,4,2,1,70,0,1
104145,-50,4,2,1,70,0,1
105180,-50,4,2,1,70,0,1
105352,-52.6315789473684,4,2,1,70,0,1
105525,-33.3333333333333,4,2,1,70,0,1
105870,-66.6666666666667,4,2,1,70,0,1
106214,-52.6315789473684,4,2,1,70,0,1
106559,-54.054054054054,4,2,1,70,0,1
106904,-60.6060606060606,4,2,1,70,0,1
107249,-52.6315789473684,4,2,1,70,0,1
107594,-66.6666666666667,4,2,1,70,0,1
108456,-153.846153846153,4,2,1,70,0,1
108973,-66.6666666666667,4,2,1,70,0,1
109318,-285.714285714284,4,2,1,70,0,1
110352,-100,4,2,2,60,0,0
111042,-200,4,2,2,60,0,0
111214,-133.333333333333,4,2,2,60,0,0
111387,-100,4,2,2,60,0,0
111559,-66.6666666666667,4,2,2,60,0,0
112766,-1000,4,2,2,60,0,0
113801,-133.333333333333,4,2,2,60,0,0
113973,-100,4,2,2,60,0,0
114145,-71.4285714285714,4,2,2,60,0,0
114318,-55.5555555555556,4,2,2,60,0,0
115525,-666.666666666658,4,2,2,60,0,0
116559,-222.222222222221,4,2,2,60,0,0
116732,-125,4,2,2,60,0,0
116904,-83.3333333333333,4,2,2,60,0,0
117076,-58.8235294117647,4,2,2,60,0,0
118283,-1000,4,2,2,60,0,0
119318,-100,4,2,2,60,0,0
119490,-66.6666666666667,4,2,2,60,0,0
119663,-50,4,2,2,60,0,0
119835,-40,4,2,2,60,0,0
120008,-55.5555555555556,4,2,2,60,0,0
120697,-133.333333333333,4,2,2,60,0,0
122249,-79.9999999999999,4,2,2,60,0,0
122421,-62.5,4,2,2,60,0,0
122594,-50,4,2,2,60,0,0
123801,-1000,4,2,2,60,0,0
124835,-133.333333333333,4,2,2,60,0,0
125008,-79.9999999999999,4,2,2,60,0,0
125180,-60.6060606060606,4,2,2,60,0,0
125352,-50,4,2,2,60,0,0
126559,-1000,4,2,2,60,0,0
127594,-100,4,2,2,60,0,0
127766,-76.9230769230769,4,2,2,60,0,0
127939,-58.8235294117647,4,2,2,60,0,0
128111,-45.4545454545455,4,2,2,60,0,0
129232,-1000,4,2,2,60,0,0
130352,-133.333333333333,4,2,2,60,0,0
130525,-86.9565217391303,4,2,2,60,0,0
130697,-68.9655172413793,4,2,2,60,0,0
130870,-57.1428571428571,4,2,2,60,0,0
131042,-50,4,2,2,60,0,0
132766,-66.6666666666667,4,2,2,60,0,0
133111,-100,4,2,2,60,0,0
133456,-83.3333333333333,4,2,2,60,0,0
133801,-133.333333333333,4,2,2,60,0,0
134145,-66.6666666666667,4,2,2,60,0,0
135180,-58.8235294117647,4,2,2,60,0,0
135525,-71.4285714285714,4,2,2,60,0,0
140525,-100,4,2,2,60,0,0
140697,-76.9230769230769,4,2,2,60,0,0
142076,-133.333333333333,4,2,2,60,0,0
142249,-76.9230769230769,4,2,2,60,0,0
142421,-55.5555555555556,4,2,2,60,0,0
142594,-66.6666666666667,4,2,2,60,0,0
144490,-100,4,2,2,60,0,0
144835,-66.6666666666667,4,2,2,60,0,0
146042,-58.8235294117647,4,2,2,60,0,0
146214,-66.6666666666667,4,2,2,60,0,0
146904,-133.333333333333,4,2,2,60,0,0
147249,-66.6666666666667,4,2,2,60,0,0
147939,-55.5555555555556,4,2,2,60,0,0
148283,-100,4,2,2,60,0,0
148973,-58.8235294117647,4,2,2,60,0,0
149663,-117.647058823529,4,2,2,60,0,0
150008,-66.6666666666667,4,2,2,60,0,0
151732,-133.333333333333,4,2,2,60,0,0
153111,-55.5555555555556,4,2,2,60,0,0
153283,-111.111111111111,4,2,2,60,0,0
153456,-55.5555555555556,4,2,2,60,0,0
154145,-58.8235294117647,4,2,2,60,0,0
154490,-55.5555555555556,4,2,1,70,0,1
154663,-40,4,2,1,70,0,1
155352,-333.333333333333,4,2,1,70,0,1
155870,-66.6666666666667,4,2,1,70,0,1
156042,-45.4545454545455,4,2,1,70,0,1
156171,-45.4545454545455,4,2,1,5,0,1
156214,-52.6315789473684,4,2,1,70,0,1
156387,-100,4,2,1,70,0,1
156559,-52.6315789473684,4,2,1,70,0,1
157249,-100,4,2,1,70,0,1
157594,-50,4,2,1,70,0,1
157939,-500,4,2,1,70,0,1
158283,-66.6666666666667,4,2,1,70,0,1
158973,-76.9230769230769,4,2,1,70,0,1
159663,-66.6666666666667,4,2,1,70,0,1
160008,-45.4545454545455,4,2,1,70,0,1
160697,-100,4,2,1,70,0,1
161042,-166.666666666667,4,2,1,70,0,1
161387,-52.6315789473684,4,2,1,70,0,1
161732,-66.6666666666667,4,2,1,70,0,1
162249,-50,4,2,1,70,0,1
163456,-285.714285714284,4,2,1,70,0,1
163801,-50,4,2,1,70,0,1
164318,-100,4,2,1,70,0,1
164490,-55.5555555555556,4,2,1,70,0,1
164835,-100,4,2,1,70,0,1
165180,-66.6666666666667,4,2,1,70,0,1
166214,-50,4,2,1,70,0,1
166344,-50,4,2,1,5,0,1
166387,-50,4,2,1,70,0,1
166689,-50,4,2,1,5,0,1
166732,-100,4,2,1,70,0,1
166904,-66.6666666666667,4,2,1,70,0,1
167076,-66.6666666666667,4,2,1,70,0,1
168283,-50,4,2,1,70,0,1
168801,-100,4,2,1,70,0,1
168973,-66.6666666666667,4,2,1,70,0,1
169490,-55.5555555555556,4,2,1,70,0,1
169835,-66.6666666666667,4,2,1,70,0,1
171042,-50,4,2,1,70,0,1
171732,-100,4,2,1,70,0,1
171904,-66.6666666666667,4,2,1,70,0,1
172076,-50,4,2,1,70,0,1
173456,-58.8235294117647,4,2,1,70,0,1
174145,-133.333333333333,4,2,1,70,0,1
174490,-66.6666666666667,4,2,1,70,0,1
175008,-50,4,2,1,70,0,1
175352,-66.6666666666667,4,2,1,70,0,1
176559,-222.222222222221,4,2,1,60,0,0
177766,-222.222222222221,4,2,1,5,0,0
177939,-222.222222222221,4,2,1,40,0,0
179145,-222.222222222221,4,2,1,5,0,0
179318,-222.222222222221,4,2,1,40,0,0
182076,-200,4,2,1,40,0,0
183283,-200,4,2,1,5,0,0
183456,-312.5,4,2,1,40,0,0
184663,-312.5,4,2,1,5,0,0
184838,-312.5,4,2,1,40,0,0
187594,-222.222222222221,4,2,1,40,0,0
188801,-222.222222222221,4,2,1,5,0,0
188973,-222.222222222221,4,2,1,40,0,0
190180,-222.222222222221,4,2,1,5,0,0
190352,-222.222222222221,4,2,1,40,0,0
191732,-153.846153846153,4,2,1,40,0,0
194318,-153.846153846153,4,2,1,5,0,0
194490,-153.846153846153,4,2,1,40,0,0
195094,-153.846153846153,4,2,1,5,0,0
195180,-399.999999999997,4,2,1,40,0,0
195352,-399.999999999997,4,2,1,5,0,0
195525,-399.999999999997,4,2,1,40,0,0
195697,-399.999999999997,4,2,1,5,0,0
195870,-500,4,2,1,40,0,0
198628,-500,4,2,1,40,0,0
198801,-200,4,2,1,40,0,0
199145,-125,4,2,1,40,0,0
199490,-100,4,2,1,40,0,0
199835,-71.4285714285715,4,2,1,40,0,0
200525,-133.333333333333,4,2,1,40,0,0
200870,-153.846153846153,4,2,1,40,0,0
201732,-66.6666666666667,4,2,1,40,0,0
202076,-285.714285714284,4,2,1,40,0,0
202249,-181.818181818181,4,2,1,40,0,0
202594,-151.515151515152,4,2,1,40,0,0
202939,-100,4,2,1,40,0,0
203283,-58.8235294117647,4,2,1,40,0,0
203973,-200,4,2,1,40,0,0
204145,-100,4,2,1,40,0,0
204490,-71.4285714285714,4,2,1,40,0,0
205008,-133.333333333333,4,2,1,40,0,0
205352,-66.6666666666667,4,2,1,40,0,0
205870,-133.333333333333,4,2,1,40,0,0
206214,-100,4,2,1,40,0,0
207249,-285.714285714284,4,2,1,40,0,0
207766,-100,4,2,1,40,0,0
208111,-66.6666666666667,4,2,1,40,0,0
208801,-133.333333333333,4,2,1,40,0,0
209663,-76.9230769230769,4,2,1,40,0,0
210180,-125,4,2,1,40,0,0
210525,-83.3333333333333,4,2,1,40,0,0
210870,-66.6666666666667,4,2,1,40,0,0
211559,-100,4,2,1,40,0,0
212076,-133.333333333333,4,2,1,40,0,0
212421,-66.6666666666667,4,2,1,40,0,0
213111,-100,4,2,1,40,0,0
213628,-66.6666666666667,4,2,1,40,0,0
214318,-133.333333333333,4,2,1,40,0,0
215180,-83.3333333333333,4,2,1,40,0,0
215525,-133.333333333333,4,2,1,40,0,0
216387,-100,4,2,1,40,0,0
216732,-66.6666666666667,4,2,1,40,0,0
217594,-100,4,2,1,40,0,0
217939,-133.333333333333,4,2,1,40,0,0
220352,-181.818181818181,4,2,1,40,0,0
221214,-399.999999999997,4,2,1,40,0,0
221732,-666.666666666658,4,2,1,40,0,0

[Colours]
Combo1 : 90,0,164
Combo2 : 128,128,128
Combo3 : 192,192,192
Combo4 : 173,56,56
Combo5 : 255,159,64
Combo6 : 230,199,26
Combo7 : 58,242,13
Combo8 : 4,109,187

[HitObjects]
60,181,8,6,0,L|86:394,1,203.999993774414
165,337,352,6,0,P|233:348|289:363,1,127.5
358,318,697,101,0,0:0:0:0:
288,283,870,1,0,0:0:0:0:
424,384,1042,2,0,P|436:323|455:236,1,127.500004863739
507,89,1387,6,0,P|415:99|389:134,1,127.500004863739
507,89,1732,102,0,B|455:64|413:97|395:122|395:122|421:76|405:31,1,170
507,89,2076,6,0,B|455:64|413:97|395:122|395:122|421:76|414:22,1,212.5
507,89,2421,102,0,B|455:64|413:97|395:122|395:122|421:76|423:33|406:-13,1,255.000009727478
282,19,2766,6,0,P|241:140|181:58,1,289.000005512238
182,60,3111,102,0,P|248:16|218:126,1,255
131,267,3456,5,0,0:0:0:0:
19,60,3628,1,0,0:0:0:0:
0,229,3801,2,0,B|100:219|45:140|168:141,1,178.499994552612
343,272,4145,102,0,P|420:232|447:180,1,127.500004863739
343,272,4490,6,0,B|426:253|464:199|433:127,1,187.000005706787
343,272,4835,102,0,B|426:253|461:199|461:159|432:90|376:118,1,255.000009727478
343,272,5180,6,0,B|480:244|480:132|418:15|291:139|353:243,1,322.99999137497
125,343,5525,102,0,L|453:386,1,322.99999137497
465,375,5870,6,0,L|198:341,1,255
205,329,6214,101,0,0:0:0:0:
165,257,6387,1,0,0:0:0:0:
48,384,6559,2,0,P|33:306|7:226,1,127.500004863739
44,119,6904,6,0,B|36:60|36:60|108:-7|108:-7,1,127.500004863739
44,119,7249,102,0,B|36:60|36:60|108:-7|108:-7|156:83|156:83,1,195.500003728867
44,119,7594,6,0,B|36:60|36:60|108:-7|108:-7|156:83|156:83,1,255.000009727478
44,119,7939,102,0,B|36:60|36:60|108:-7|108:-7|156:83|156:83|114:143,1,322.99999137497
56,228,8283,6,0,B|-24:232|-24:232|21:368|21:368|118:278,1,322.99999137497
94,300,8628,102,0,B|100:231|100:231|-5:247|-5:247|23:345,1,255
77,376,8973,5,0,0:0:0:0:
92,384,9145,5,0,0:0:0:0:
170,379,9318,5,0,0:0:0:0:
269,301,9490,5,0,0:0:0:0:
250,129,9663,5,0,0:0:0:0:
264,121,9749,1,0,0:0:0:0:
270,137,9835,1,0,0:0:0:0:
491,0,10008,5,0,0:0:0:0:
505,9,10094,1,0,0:0:0:0:
496,24,10180,1,0,0:0:0:0:
512,272,10352,5,0,0:0:0:0:
511,286,10439,1,0,0:0:0:0:
496,282,10525,1,0,0:0:0:0:
417,142,10697,21,0,0:0:0:0:
512,102,10870,2,0,L|491:207,1,85
452,384,11042,6,0,L|309:347,1,118.999996368408,4|0,0:0|0:0,0:0:0:0:
0,266,11214,2,0,L|185:204,1,170,2|0,0:0|0:0,0:0:0:0:
327,0,11387,102,0,L|254:372,1,340,10|2,0:0|0:0,0:0:0:0:
13,170,11732,2,0,L|37:62,1,85,2|0,0:0|0:0,0:0:0:0:
403,229,11904,5,0,0:0:0:0:
161,384,12076,2,0,L|113:48,1,340,8|0,0:0|0:0,0:0:0:0:
183,10,12335,1,0,0:0:0:0:
183,10,12421,102,0,L|483:53,1,255.000009727478
72,257,12766,1,8,0:0:0:0:
346,163,12939,5,0,0:0:0:0:
321,196,13025,1,0,0:0:0:0:
278,197,13111,1,0,0:0:0:0:
307,100,13283,101,0,0:0:0:0:
512,334,13456,2,0,L|130:240,1,382.500014591218,8|0,0:0|0:0,0:0:0:0:
0,384,13801,6,0,L|124:293,1,127.500004863739,0|0,0:0|0:0,0:0:0:0:
225,9,13973,2,0,L|179:206,1,170,2|0,0:0|0:0,0:0:0:0:
136,377,14145,102,0,L|81:17,1,340,10|2,0:0|0:0,0:0:0:0:
512,195,14490,2,0,L|388:213,1,110.499994941712,2|0,0:0|0:0,0:0:0:0:
151,0,14663,5,0,0:0:0:0:
336,364,14835,2,0,L|299:31,1,305.999990661621,8|0,0:0|0:0,0:0:0:0:
238,14,15094,1,0,0:0:0:0:
238,14,15180,102,0,L|549:73,1,237.999992736817
45,207,15525,6,0,L|124:151,1,85,8|0,0:0|0:0,0:0:0:0:
213,102,15697,2,0,L|125:60,1,85
38,8,15870,2,0,L|46:104,1,85
193,178,16042,101,0,0:0:0:0:
480,167,16214,2,0,L|65:106,1,382.500014591218,8|0,0:0|0:0,0:0:0:0:
45,207,16559,6,0,L|85:384,1,170,0|0,0:0|0:0,0:0:0:0:
412,19,16732,2,0,L|217:66,1,170,2|0,0:0|0:0,0:0:0:0:
155,321,16904,102,0,L|230:-32,1,340,10|0,0:0|0:0,0:0:0:0:
0,0,17249,2,0,L|24:113,1,85,2|0,0:0|0:0,0:0:0:0:
379,220,17421,5,0,0:0:0:0:
318,118,17594,2,0,L|264:377,1,255.000009727478,8|0,0:0|0:0,0:0:0:0:
193,345,17852,1,0,0:0:0:0:
193,345,17939,102,0,L|175:50,1,255.000009727478
512,0,18283,1,8,0:0:0:0:
272,123,18456,5,0,0:0:0:0:
251,86,18542,1,0,0:0:0:0:
277,48,18628,1,0,0:0:0:0:
454,59,18801,101,0,0:0:0:0:
0,73,18973,2,0,L|406:14,1,382.500014591218,8|0,0:0|0:0,0:0:0:0:
454,59,19318,6,0,L|413:241,1,170,0|0,0:0|0:0,0:0:0:0:
0,316,19490,2,0,L|221:263,1,170,2|0,0:0|0:0,0:0:0:0:
399,384,19663,102,0,L|148:117,1,340,10|2,0:0|0:0,0:0:0:0:
378,17,20008,2,0,L|356:118,1,85,2|0,0:0|0:0,0:0:0:0:
209,341,20180,5,0,0:0:0:0:
248,0,20352,2,0,L|281:353,1,305.999990661621,8|0,0:0|0:0,0:0:0:0:
324,368,20611,1,0,0:0:0:0:
324,368,20697,102,0,L|28:331,1,237.999992736817
437,121,21042,5,8,0:0:0:0:
185,235,21214,2,0,L|166:25,1,170
494,200,21559,101,0,0:0:0:0:
333,149,21732,2,0,L|360:27,1,114.749996498108,8|0,0:0|0:0,0:0:0:0:
425,2,22076,6,0,L|190:40,1,152.999995330811,0|0,0:0|0:0,0:0:0:0:
8,372,22249,2,0,L|69:142,1,187.000005706787,2|0,0:0|0:0,0:0:0:0:
189,0,22421,102,0,L|233:380,1,374.000011413575,10|2,0:0|0:0,0:0:0:0:
13,121,22766,2,0,L|-4:16,1,85,2|0,0:0|0:0,0:0:0:0:
273,99,22939,5,0,0:0:0:0:
55,191,23111,2,0,L|390:244,1,340,8|0,0:0|0:0,0:0:0:0:
427,314,23370,1,0,0:0:0:0:
427,314,23456,102,0,L|476:13,1,272
100,35,23801,2,0,L|245:-4,1,136,8|8,0:0|0:0,0:0:0:0:
321,360,23973,2,0,L|289:210,1,136
309,57,24145,5,0,0:0:0:0:
390,86,24318,1,0,0:0:0:0:
373,125,24404,1,0,0:0:0:0:
337,142,24490,1,8,0:0:0:0:
370,2,24663,101,0,0:0:0:0:
257,119,24835,6,0,L|150:97,1,85,0|0,0:0|0:0,0:0:0:0:
64,380,25008,2,0,L|137:169,1,195.500003728867,2|0,0:0|0:0,0:0:0:0:
389,252,25180,102,0,L|2:304,1,391.000007457733,10|2,0:0|0:0,0:0:0:0:
0,0,25525,2,0,L|43:220,1,161.499995687485,2|0,0:0|0:0,0:0:0:0:
440,181,25697,5,0,0:0:0:0:
246,8,25870,2,0,L|188:363,1,322.99999137497,8|0,0:0|0:0,0:0:0:0:
136,376,26128,1,0,0:0:0:0:
136,376,26214,102,0,L|420:336,1,255.000009727478
101,299,26559,5,8,0:0:0:0:
452,380,26732,1,0,0:0:0:0:
39,369,26904,102,0,B|0:318|0:318|30:237,1,127.500004863739
485,188,27249,2,0,B|498:252|498:252|450:305,1,127.500004863739,8|0,0:0|0:0,0:0:0:0:
65,192,27594,6,0,L|243:153,1,127.500004863739,0|0,0:0|0:0,0:0:0:0:
438,0,27766,2,0,L|364:179,1,170
242,384,27939,102,0,L|196:-14,1,340,8|0,0:0|0:0,0:0:0:0:
376,317,28283,2,0,L|348:208,1,85
121,102,28456,5,0,0:0:0:0:
314,0,28628,2,0,L|255:310,1,255.000009727478,8|0,0:0|0:0,0:0:0:0:
217,310,28887,1,0,0:0:0:0:
217,310,28973,102,0,L|487:362,1,255.000009727478
512,197,29318,5,8,0:0:0:0:
173,384,29490,1,0,0:0:0:0:
37,198,29663,1,0,0:0:0:0:
145,91,29835,102,0,L|104:238,1,127.500004863739
39,383,30008,2,0,L|4:55,1,280.500008560181,8|0,0:0|0:0,0:0:0:0:
70,58,30352,6,0,L|226:32,1,127.500004863739,0|0,0:0|0:0,0:0:0:0:
512,292,30525,2,0,L|329:201,1,187.000005706787
399,0,30697,102,0,L|425:377,1,374.000011413575,8|0,0:0|0:0,0:0:0:0:
501,13,31042,2,0,L|473:164,1,85
268,170,31214,5,0,0:0:0:0:
315,384,31387,2,0,L|284:4,1,340,8|0,0:0|0:0,0:0:0:0:
353,9,31645,1,0,0:0:0:0:
353,9,31732,102,0,L|457:23,1,85
166,173,31904,2,0,L|235:75,1,85
35,378,32076,2,0,L|14:262,1,85,8|0,0:0|0:0,0:0:0:0:
0,0,32248,5,0,0:0:0:0:
9,4,32334,1,0,0:0:0:0:
3,9,32421,2,0,L|113:124,1,127.500004863739,2|0,0:0|0:0,0:0:0:0:
139,384,32594,102,0,L|191:66,1,255.000009727478,2|8,0:0|0:0,0:0:0:0:
180,132,32939,1,0,0:0:0:0:
0,178,33111,21,4,0:0:0:0:
227,299,33283,1,0,0:0:0:0:
50,235,33456,86,0,B|68:271|43:359|43:359|86:300|152:294,1,255.000009727478,8|0,0:0|0:0,0:0:0:0:
321,384,33801,22,0,L|303:242,1,85
512,168,33973,86,0,B|503:124|503:124|457:163,1,85
131,220,34145,2,0,B|148:162|148:162|476:231,1,382.500014591218,8|0,0:0|0:0,0:0:0:0:
468,374,34490,22,0,B|430:380|430:380|404:260,1,127.500004863739
512,0,34835,86,0,L|493:104,1,85,8|0,0:0|0:0,0:0:0:0:
202,309,35008,2,0,B|339:307|250:162|434:182,1,255
463,228,35352,22,0,B|512:209|512:209|474:195,1,85
215,228,35525,2,0,B|205:157|205:157|211:153|211:153|192:6,1,204,8|0,0:0|0:0,0:0:0:0:
199,13,35697,86,0,P|248:44|299:28,1,85
20,176,35870,2,0,L|340:114,1,305.999990661621
512,74,36214,2,0,B|572:17|466:-89|387:24|377:100|455:193,1,331.499984825135,8|0,0:0|0:0,0:0:0:0:
466,375,36559,22,0,B|499:363|499:363|484:308,1,85
66,305,36732,2,0,L|154:321,1,85
421,270,36904,86,0,B|282:284|384:387|178:379,1,255.000009727478,8|0,0:0|0:0,0:0:0:0:
0,73,37249,2,0,B|119:99|119:99|90:250,1,255.000009727478
251,272,37594,22,0,L|238:176,1,85,8|0,0:0|0:0,0:0:0:0:
381,0,37766,1,0,0:0:0:0:
369,8,37852,1,0,0:0:0:0:
376,18,37939,86,0,L|353:115,1,85
512,162,38111,2,0,B|266:114|266:114|283:21,1,322.99999137497,0|8,0:0|0:0,0:0:0:0:
0,147,38456,2,0,B|46:134|23:171|99:136,1,85
128,208,38628,22,0,B|248:103|160:-23|41:-1|82:140,1,289.000005512238
0,291,38973,86,0,L|86:264,1,85,8|0,0:0|0:0,0:0:0:0:
413,364,39145,2,0,L|506:379,1,85
113,330,39318,22,0,B|145:338|145:338|162:292,1,63.7500024318696
350,317,39490,2,0,B|326:328|326:328|334:364,1,63.7500024318696
229,384,39663,86,0,L|268:83,1,255.000009727478,8|0,0:0|0:0,0:0:0:0:
225,66,39921,1,0,0:0:0:0:
235,56,40008,22,0,B|306:54|342:10|342:10|316:83|355:181,1,255.000009727478
166,8,40352,86,0,B|134:20|134:20|156:98,1,63.7500024318696,8|0,0:0|0:0,0:0:0:0:
415,178,40525,2,0,B|432:142|432:142|406:116,1,63.7500024318696
37,142,40697,22,0,L|139:119,1,85
493,71,40870,2,0,L|396:44,1,85
59,51,41042,85,8,0:0:0:0:
497,234,41214,1,0,0:0:0:0:
508,221,41301,1,0,0:0:0:0:
500,205,41387,22,0,L|233:243,1,255
1,380,41732,86,0,B|42:368|42:368|59:322,1,63.7500024318696,8|0,0:0|0:0,0:0:0:0:
210,171,41904,2,0,B|176:191|176:191|170:214,1,63.7500024318696
17,200,42076,22,0,L|1:283,1,85
205,378,42249,2,0,L|189:294,1,85
104,275,42421,85,8,0:0:0:0:
444,345,42594,1,0,0:0:0:0:
456,330,42680,1,0,0:0:0:0:
447,318,42766,22,0,L|216:340,1,170
205,378,43111,1,8,0:0:0:0:
104,275,43283,86,0,B|83:232|83:232|137:202,1,85
409,178,43456,22,0,B|397:225|397:225|118:176,1,255.000009727478
0,166,43801,85,8,0:0:0:0:
284,92,43973,1,0,0:0:0:0:
41,38,44145,22,0,B|101:63|135:129|135:129|121:55|189:-51,1,255.000009727478,4|0,0:0|0:0,0:0:0:0:
232,28,44404,1,0,0:0:0:0:
232,28,44490,2,0,B|228:75|228:75|506:11,1,255.000009727478,8|0,0:0|0:0,0:0:0:0:
386,151,44749,1,0,0:0:0:0:
391,140,44835,86,0,B|430:160|430:160|384:270,1,127.500004863739
183,321,45008,2,0,L|191:393,1,63.7500024318696
157,180,45180,22,0,B|225:146|347:165|266:367|406:372|480:292,1,382.500014591218,8|0,0:0|0:0,0:0:0:0:
459,310,45525,86,0,P|484:240|515:178,1,127.500004863739
207,246,45870,1,8,0:0:0:0:
488,0,46042,22,0,B|408:20|408:20|427:160,1,220.999989883423
190,384,46387,86,0,B|145:364|145:364|166:269,1,110.499994941712
207,246,46559,1,8,0:0:0:0:
0,280,46732,22,0,B|25:314|25:314|316:248,1,305.999990661621
485,208,47076,85,0,0:0:0:0:
486,190,47163,1,0,0:0:0:0:
497,199,47249,2,0,B|518:226|518:226|500:275,1,63.7500024318696,8|0,0:0|0:0,0:0:0:0:
210,163,47421,2,0,L|327:181,1,63.7500024318696
377,384,47594,22,0,B|358:272|358:272|365:265|365:265|339:96,1,255.000009727478
445,11,47852,1,0,0:0:0:0:
453,0,47939,2,0,P|504:30|395:55,1,255.000009727478,8|0,0:0|0:0,0:0:0:0:
1,76,48283,86,0,B|79:21|201:18|263:115|263:115|250:171|301:214,1,382.500014591218
345,135,48628,22,0,L|367:-1,1,127.500004863739,8|0,0:0|0:0,0:0:0:0:
512,328,48973,85,0,0:0:0:0:
512,328,49145,2,0,B|467:255|467:255|339:317,1,170,0|8,0:0|0:0,0:0:0:0:
250,376,49490,2,0,B|288:366|288:366|277:319,1,85
35,0,49663,22,0,B|31:217|230:84|200:309,1,382.500014591218
200,308,50008,86,0,B|143:334|143:334|104:271,1,127.500004863739,8|0,0:0|0:0,0:0:0:0:
40,323,50180,22,0,B|1:241|1:241|72:203,1,170
154,69,50352,86,0,L|147:2,1,59.4999981842042
277,321,50525,2,0,L|296:231,1,59.4999981842042
204,187,50697,21,8,0:0:0:0:
480,367,50870,85,0,0:0:0:0:
468,360,50956,1,0,0:0:0:0:
480,354,51042,2,0,B|441:293|517:300|491:188|491:188|359:231,1,280.500008560181
358,289,51387,21,8,0:0:0:0:
222,95,51559,85,0,0:0:0:0:
510,7,51732,1,0,0:0:0:0:
337,99,51904,22,0,P|326:22|422:74,1,237.999992736817,0|8,0:0|0:0,0:0:0:0:
404,147,52249,1,0,0:0:0:0:
0,187,52421,86,0,B|171:202|171:202|177:199|177:199|430:214,1,356.999989105225
427,262,52766,22,0,P|468:236|450:133,1,118.999996368408,8|0,0:0|0:0,0:0:0:0:
510,7,52939,2,0,P|428:52|443:128,1,118.999996368408
512,342,53111,86,0,L|471:330,1,29.7499990921021
355,209,53283,2,0,B|254:229|199:334|335:418|368:291|322:258,1,255.000009727478,0|8,0:0|0:0,0:0:0:0:
139,18,53628,21,0,0:0:0:0:
149,11,53714,1,0,0:0:0:0:
136,0,53801,2,0,B|155:154|155:154|160:159|160:159|182:358,1,305.999990661621
119,352,54145,86,0,L|17:338,1,85,8|0,0:0|0:0,0:0:0:0:
435,186,54318,21,0,3:0:0:0:
444,176,54404,1,0,3:0:0:0:
431,170,54490,2,0,L|317:227,1,85,0|0,3:0|0:0,0:0:0:0:
208,44,54663,2,0,L|249:156,1,85
251,340,54835,86,0,L|288:138,1,127.500004863739,8|0,0:0|0:0,0:0:0:0:
307,0,55008,2,0,L|319:147,1,127.500004863739
334,381,55180,6,0,L|450:306,1,127.500004863739,4|0,0:0|0:0,0:0:0:0:
51,46,55352,2,0,L|103:240,1,170
162,333,55525,102,0,L|235:-39,1,340,8|0,0:0|0:0,0:0:0:0:
6,382,55870,6,0,L|106:359,1,85
304,49,56042,2,0,L|399:71,1,85
198,260,56214,102,0,L|296:213,1,85,8|0,0:0|0:0,0:0:0:0:
460,4,56387,2,0,L|477:105,1,85
468,167,56559,6,0,L|-29:89,1,433.500008268356
2,171,56904,102,0,L|29:267,1,85,8|0,0:0|0:0,0:0:0:0:
168,6,57076,2,0,L|88:395,1,382.500014591218
213,378,57421,6,0,L|194:277,1,85
39,99,57594,2,0,L|446:45,1,382.500014591218,8|0,0:0|0:0,0:0:0:0:
512,0,57939,102,0,L|459:155,1,127.500004863739
0,287,58111,2,0,L|165:211,1,170
284,384,58283,6,0,L|229:19,1,340,8|0,0:0|0:0,0:0:0:0:
496,222,58628,102,0,L|403:193,1,85
55,52,58801,2,0,L|35:144,1,85
418,48,58973,6,0,L|324:84,1,85,8|0,0:0|0:0,0:0:0:0:
3,277,59145,2,0,L|52:366,1,85
512,130,59318,102,0,L|125:63,1,382.500014591218
0,0,59663,2,0,L|71:116,1,127.500004863739,8|0,0:0|0:0,0:0:0:0:
90,369,59835,6,0,L|179:-21,1,382.500014591218
66,108,60180,2,0,L|36:234,1,127.500004863739
231,372,60352,102,0,L|200:233,1,127.500004863739,8|0,0:0|0:0,0:0:0:0:
373,0,60525,2,0,L|320:144,1,127.500004863739
129,180,60697,6,0,L|269:145,1,127.500004863739
427,384,60870,2,0,L|276:250,1,187.000005706787
88,1,61042,102,0,L|5:396,1,374.000011413575,8|0,0:0|0:0,0:0:0:0:
509,157,61387,6,0,L|317:200,1,127.500004863739
142,276,61559,2,0,L|564:338,1,374.000011413575,0|8,0:0|0:0,0:0:0:0:
374,0,61904,102,0,L|256:149,1,152.999995330811
71,321,62076,2,0,L|481:313,1,374.000011413575
208,0,62421,6,0,L|149:198,1,187.000005706787,8|0,0:0|0:0,0:0:0:0:
11,367,62594,2,0,L|403:298,1,374.000011413575
43,37,62939,102,0,L|73:272,1,187.000005706787
512,176,63111,2,0,L|326:137,1,187.000005706787,8|0,0:0|0:0,0:0:0:0:
218,384,63283,2,0,L|273:156,1,187.000005706787
172,14,63456,6,0,L|256:130,1,127.500004863739
512,0,63628,102,0,L|315:47,1,170
0,131,63801,2,0,L|390:231,1,391.000007457733,8|0,0:0|0:0,0:0:0:0:
2,239,64145,6,0,L|28:363,1,127.500004863739
184,219,64318,2,0,L|45:174,1,127.500004863739
115,384,64490,2,0,L|215:305,1,127.500004863739,8|0,0:0|0:0,0:0:0:0:
102,284,64663,101,0,0:0:0:0:
0,0,64835,6,0,L|93:135,1,127.500004863739
279,57,65008,2,0,L|244:195,1,127.500004863739
479,321,65180,2,0,L|352:394,1,127.500004863739,8|0,0:0|0:0,0:0:0:0:
159,144,65352,101,0,0:0:0:0:
172,138,65439,1,0,0:0:0:0:
167,126,65525,2,0,L|150:-25,1,127.500004863739
483,171,65697,2,0,L|344:282,1,127.500004863739
215,304,65870,6,0,L|296:-5,1,255.000009727478,8|0,0:0|0:0,0:0:0:0:
483,171,66214,101,0,0:0:0:0:
215,304,66387,22,0,B|163:297|163:297|134:191,1,127.500004863739
419,126,66559,2,0,B|427:110|457:95|457:95|366:102|344:253|344:253|290:195|197:242,1,382.500014591218,8|0,0:0|0:0,0:0:0:0:
143,224,66904,86,0,L|164:155,1,46.7500014266968
8,45,67076,2,0,L|-3:-15,1,46.7500014266968
12,151,67249,22,0,B|92:138|109:60|109:60|155:82|155:82|190:39|190:39|248:117|328:81,1,382.500014591218,8|0,0:0|0:0,0:0:0:0:
319,9,67594,86,0,L|379:21,1,46.7500014266968
466,222,67766,2,0,L|511:212,1,46.7500014266968
437,40,67939,22,0,L|409:203,1,127.500004863739,8|0,0:0|0:0,0:0:0:0:
319,384,68111,2,0,B|194:298|179:114|381:141|324:277,1,382.500014591218
190,349,68456,86,0,B|159:347|159:347|143:285,1,85
512,309,68628,22,0,B|502:351|502:351|368:326,1,170,8|0,0:0|0:0,0:0:0:0:
162,201,68801,1,0,0:0:0:0:
0,382,68973,86,0,B|10:234|110:341|80:68,1,255.000009727478
279,85,69318,2,0,B|234:62|198:-8|198:-8|274:164|234:272,1,382.500014591218,8|0,0:0|0:0,0:0:0:0:
202,314,69663,22,0,B|164:307|164:307|159:190,1,127.500004863739
433,126,69835,2,0,B|406:162|406:162|279:138,1,127.500004863739
85,150,70008,86,0,P|47:95|153:116,1,255,8|0,0:0|0:0,0:0:0:0:
14,218,70352,21,0,0:0:0:0:
268,11,70525,2,0,P|242:40|241:126,1,85
119,277,70697,2,0,B|133:198|133:198|142:188|142:188|156:96,1,170,8|0,0:0|0:0,0:0:0:0:
508,98,71042,85,0,0:0:0:0:
268,11,71214,2,0,B|453:3|348:157|565:83,1,272,0|8,0:0|0:0,0:0:0:0:
230,83,71559,2,0,L|254:204,1,85
473,0,71732,22,0,L|462:40,1,25.4999992218018
157,201,71904,2,0,L|168:161,1,25.4999992218018
492,214,72076,86,0,B|365:193|365:193|363:186|363:186|225:162,1,255.000009727478,8|0,0:0|0:0,0:0:0:0:
0,384,72421,22,0,L|116:358,1,85
230,83,72594,2,0,L|209:-17,1,85
65,184,72766,86,0,L|74:231,1,34,8|0,0:0|0:0,0:0:0:0:
288,337,72939,2,0,B|181:334|251:262|120:263,1,170
20,284,73111,21,0,0:0:0:0:
143,263,73283,2,0,L|154:226,1,29.7499990921021
0,7,73456,86,0,L|28:113,1,106.25,8|0,0:0|0:0,0:0:0:0:
277,256,73628,22,0,P|321:237|385:280,1,85
510,380,73801,2,0,P|487:271|389:248,1,170
212,332,73973,86,0,L|204:287,1,29.7499990921021
432,7,74145,2,0,L|395:221,1,170,8|0,0:0|0:0,0:0:0:0:
137,383,74490,22,0,B|0:321|73:145|73:145|246:201,1,382.500014591218
171,177,74835,86,0,B|181:216|181:216|141:248,1,63.7500024318696,8|0,0:0|0:0,0:0:0:0:
2,73,75008,2,0,L|187:62,1,170
324,111,75180,22,0,L|308:164,1,38.2499988327027
240,125,75352,1,0,0:0:0:0:
240,125,75439,1,0,0:0:0:0:
240,125,75525,2,0,L|256:72,1,38.2499988327027,8|0,0:0|0:0,0:0:0:0:
512,0,75697,86,0,L|319:35,1,170
19,150,75870,22,0,B|168:177|168:177|214:275|105:320|105:320|155:295|136:216,1,433.500008268356
172,63,76214,86,0,L|161:-26,1,63.7500024318696,8|0,0:0|0:0,0:0:0:0:
386,121,76387,22,0,L|324:111,1,63.7500024318696
59,248,76559,2,0,P|19:298|25:326,1,63.7500024318696
263,378,76732,86,0,B|251:262|251:262|255:258|255:257|236:93,1,255.000009727478,0|8,0:0|0:0,0:0:0:0:
239,124,77076,21,0,0:0:0:0:
482,205,77249,86,0,L|509:55,1,127.500004863739
46,93,77421,22,0,L|122:76,1,63.7500024318696
443,0,77594,2,0,B|369:68|391:175|391:175|363:68|197:26,1,382.500014591218,8|0,0:0|0:0,0:0:0:0:
171,0,77939,86,0,L|197:124,1,85
3,337,78111,2,0,L|119:356,1,85
260,271,78283,22,0,B|276:233|325:219|325:219|268:300|263:373|263:373|213:306|92:306,1,382.500014591218,8|0,0:0|0:0,0:0:0:0:
86,350,78628,86,0,B|79:275|79:275|83:272|83:272|73:166,1,170
64,6,78973,1,8,0:0:0:0:
512,53,79145,22,0,B|485:176|485:176|327:169|459:43|229:44,1,382.500014591218
215,10,79490,86,0,B|179:37|179:37|189:112,1,85
263,369,79663,1,8,0:0:0:0:
275,362,79749,1,0,0:0:0:0:
267,357,79835,2,0,L|254:188,1,127.500004863739
73,129,80008,22,0,L|150:146,1,63.7500024318696
388,0,80180,2,0,L|363:97,1,63.7500024318696
12,376,80352,86,0,P|132:225|277:240,1,331.499984825135,8|0,0:0|0:0,0:0:0:0:
341,261,80697,22,0,L|319:110,1,144.500002756119
512,61,80870,2,0,L|446:81,1,63.7500024318696
138,134,81042,86,0,B|183:89|175:12|175:12|197:88|248:113,1,255,8|0,0:0|0:0,0:0:0:0:
320,118,81387,22,0,L|400:93,1,63.7500024318696
79,0,81559,2,0,L|92:72,1,63.7500024318696
132,337,81732,85,8,0:0:0:0:
261,304,81904,2,0,L|183:286,1,63.7500024318696
14,382,82076,21,0,0:0:0:0:
324,245,82249,2,0,P|348:297|470:326,1,170,0|8,0:0|0:0,0:0:0:0:
447,163,82594,86,0,P|415:202|420:248,1,85
486,260,82766,22,0,L|507:255,1,21.25
324,5,82939,2,0,L|303:0,1,21.25
69,132,83111,86,0,B|41:190|41:190|89:242,1,127.500004863739,8|0,0:0|0:0,0:0:0:0:
166,221,83283,2,0,B|194:163|194:163|146:111,1,127.500004863739
0,272,83456,22,0,B|160:293|160:293|162:300|162:300|285:315,1,255.000009727478
306,371,83714,1,0,0:0:0:0:
297,379,83801,86,0,L|270:222,1,127.500004863739,8|0,0:0|0:0,0:0:0:0:
324,5,83973,2,0,L|298:167,1,127.500004863739
351,199,84145,22,0,L|416:180,1,63.7500024318696
101,43,84318,1,0,0:0:0:0:
489,289,84490,86,0,P|371:213|262:269,1,255,8|0,0:0|0:0,0:0:0:0:
208,288,84749,1,0,0:0:0:0:
187,286,84835,22,0,P|149:235|190:178,1,127.500004863739
234,9,85008,2,0,P|292:60|245:113,1,127.500004863739
37,141,85180,86,0,L|232:95,1,170,10|0,0:0|0:0,0:0:0:0:
494,115,85352,1,0,0:0:0:0:
501,127,85439,1,0,0:0:0:0:
494,137,85525,22,0,L|513:57,3,63.7500024318696,0|0|0|0,3:2|3:2|3:2|3:2,3:2:0:0:
408,19,85870,2,0,L|421:93,3,63.7500024318696,8|0|0|0,3:2|3:2|3:2|3:2,3:2:0:0:
354,120,86214,85,0,3:2:0:0:
345,129,86301,1,0,3:2:0:0:
321,142,86387,1,0,3:2:0:0:
256,126,86473,1,0,3:2:0:0:
231,53,86559,1,8,3:2:0:0:
155,6,86645,1,0,3:2:0:0:
61,34,86732,1,0,3:2:0:0:
21,128,86818,1,0,3:2:0:0:
66,245,86904,22,0,L|250:268,1,170,0|0,3:2|3:2,3:2:0:0:
345,384,87076,2,0,L|317:203,1,170,0|0,3:2|3:2,3:2:0:0:
450,9,87249,2,0,B|514:44|514:44|477:198,1,170,8|0,3:2|3:2,3:2:0:0:
352,136,87421,85,0,3:2:0:0:
352,136,87508,1,8,3:2:0:0:
352,136,87594,2,0,L|420:122,1,63.7500024318696,0|0,3:2|3:2,3:2:0:0:
512,231,87766,2,0,L|425:210,1,63.7500024318696,0|0,3:2|3:2,3:2:0:0:
74,10,87939,22,0,P|154:140|154:229,1,170,8|0,3:2|3:2,3:2:0:0:
168,384,88111,2,0,P|232:253|281:217,1,170,0|0,3:2|3:2,3:2:0:0:
491,138,88283,85,4,0:0:0:0:
93,237,88456,1,0,0:0:0:0:
83,233,88542,1,0,0:0:0:0:
80,245,88628,2,0,B|124:311|124:311|424:246,1,318.75,8|0,0:0|0:0,0:0:0:0:
439,265,88801,38,0,B|505:133|505:133|515:136|515:136|510:117|510:117|501:124|501:124|404:0|404:0|397:-12|397:-12|401:0|401:0|390:219,1,535.499983657837
512,384,89145,70,0,B|465:348|465:348|388:382,1,127.500004863739
264,20,89318,2,0,B|204:55|204:55|237:251,1,255,8|0,0:0|0:0,0:0:0:0:
259,324,89490,2,0,B|330:290|330:290|308:181,1,170
293,98,89663,37,0,0:0:0:0:
23,223,89835,2,0,B|-6:290|-6:290|-13:295|-13:295|-4:293|-4:293|153:365|153:365|199:260,1,340,0|8,0:0|0:0,0:0:0:0:
499,85,90180,69,0,0:0:0:0:
512,76,90266,1,0,0:0:0:0:
502,63,90352,2,0,L|313:95,1,170
211,67,90525,2,0,B|170:33|170:33|251:227,1,170
259,324,90697,38,0,P|305:80|305:80,1,170,8|0,0:0|0:0,0:0:0:0:
317,0,90870,1,0,0:0:0:0:
0,302,91042,70,0,B|10:362|42:382|106:375|106:375|491:314,1,510
487,240,91387,38,0,L|518:245,1,25.4999992218018,8|0,0:0|0:0,0:0:0:0:
218,4,91559,2,0,L|249:-1,1,25.4999992218018
304,230,91732,69,0,0:0:0:0:
511,113,91904,1,0,0:0:0:0:
319,0,92076,1,8,0:0:0:0:
149,262,92249,38,0,B|139:214|159:179|201:168|201:168|489:114,1,340
105,133,92594,70,0,L|95:59,1,46.7500014266968
399,384,92766,2,0,L|449:2,1,382.500014591218,8|0,0:0|0:0,0:0:0:0:
448,4,93111,38,0,L|339:20,1,85
354,100,93283,2,0,L|261:83,1,85
110,3,93456,70,0,B|169:5|202:43|182:130|182:130|153:272|153:272|145:317|132:360|185:414|277:392|279:296|228:239|193:205,1,510,8|0,0:0|0:0,0:0:0:0:
251,239,93801,38,0,B|507:122|507:122|497:113|497:113|512:106|512:106|507:125|507:125|415:364|415:364|423:357|423:357|425:365|425:365|420:357|420:357|319:300,1,688.500002626419
75,306,94145,70,0,B|51:277|51:277|87:98,1,170,8|0,0:0|0:0,0:0:0:0:
247,0,94318,2,0,B|283:30|283:30|257:175,1,170
1,79,94490,38,0,B|91:67|91:67|99:73|99:73|222:55,1,195.500003728867
512,28,94663,70,0,B|521:62|521:62|486:96,1,85
486,96,94835,38,0,B|440:96|410:129|410:129|408:96|373:55,1,170,8|0,0:0|0:0,0:0:0:0:
310,116,95008,70,0,B|345:0|345:0|436:4,1,212.5
512,229,95180,38,0,B|283:191|283:191|279:195|279:195|-9:142,1,510
11,145,95525,70,0,B|-14:86|-14:86|95:11|95:11|45:150,1,272,8|0,0:0|0:0,0:0:0:0:
6,375,95870,38,0,L|168:338,1,136
365,8,96042,2,0,L|516:47,1,136
78,282,96214,70,0,B|73:259|83:218|137:204|137:204|321:172|321:172|371:163|398:119|385:67,1,408,8|0,0:0|0:0,0:0:0:0:
365,8,96559,38,0,B|294:49|294:49|343:360,1,356.999989105225
71,9,96904,69,8,0:0:0:0:
427,236,97076,2,0,B|510:210|510:210|512:103,1,178.499994552612
365,8,97249,37,0,0:0:0:0:
159,176,97421,2,0,L|532:115,1,356.999989105225,0|8,0:0|0:0,0:0:0:0:
201,10,97766,69,0,0:0:0:0:
101,384,97939,2,0,L|69:99,1,267.749991828919
0,83,98111,38,0,L|22:-21,1,85
512,0,98283,2,0,B|512:59|447:70|447:70|305:94|305:94|221:115|236:201,1,382.500014591218,8|0,0:0|0:0,0:0:0:0:
325,300,98628,70,0,L|304:122,1,127.500004863739
417,99,98801,2,0,L|402:225,1,127.500004863739
512,358,98973,38,0,B|332:328|332:328|323:333|323:333|114:300,1,382.500014591218,8|0,0:0|0:0,0:0:0:0:
71,350,99318,69,4,0:0:0:0:
49,119,99490,2,0,B|36:-4|36:-4|162:123|162:123|89:238,1,425,0|8,0:0|0:0,0:0:0:0:
482,179,99835,2,0,L|0:255,1,458.999985992432
9,323,100180,38,0,B|-11:384|-11:384|98:297,1,152.999995330811
275,243,100352,1,8,0:0:0:0:
207,3,100525,70,0,B|159:37|159:37|194:233,1,229.499992996216
159,280,100697,38,0,B|202:311|202:311|292:229,1,152.999995330811
511,36,100870,2,0,L|169:-2,1,305.999990661621,0|8,0:0|0:0,0:0:0:0:
17,60,101214,70,0,B|68:116|68:116|169:42,1,152.999995330811
80,0,101387,1,0,0:0:0:0:
45,384,101559,38,0,L|66:167,1,187.000005706787
80,0,101732,1,8,0:0:0:0:
422,124,101904,70,0,L|356:100,1,63.7500024318696
134,193,102076,38,0,L|328:153,1,170
512,0,102249,2,0,L|320:31,1,170
45,384,102421,70,0,B|98:370|116:334|111:287|111:287|84:106|84:106|79:60|98:20|124:-1|161:-1|212:25|194:93,1,510,8|0,0:0|0:0,0:0:0:0:
195,56,102766,38,0,L|179:130,1,63.7500024318696
332,255,102939,2,0,L|315:328,1,63.7500024318696
0,205,103111,70,0,L|167:235,1,170,8|0,0:0|0:0,0:0:0:0:
507,213,103283,38,0,B|473:176|473:176|482:167|482:167|471:172|471:172|281:175|281:175|249:237|249:237|252:246|252:246|244:242|244:242|116:268|116:268|153:213|153:213,1,510
191,171,103628,70,0,L|165:-12,1,170
250,20,103801,38,0,L|264:117,1,85,8|0,0:0|0:0,0:0:0:0:
104,129,103973,2,0,L|90:32,1,85
343,13,104145,70,0,L|527:31,1,170
508,105,104318,2,0,L|324:87,1,170
8,137,104490,38,0,L|535:183,1,510,8|0,0:0|0:0,0:0:0:0:
512,0,104835,70,0,B|445:-18|402:39|414:110|414:110|442:273|442:273|456:348|407:387|308:364|346:250,1,510
239,331,105180,38,0,B|270:248|270:248|381:255,1,170,8|0,0:0|0:0,0:0:0:0:
512,181,105352,2,0,L|332:164,1,161.499995687485
0,384,105525,70,0,B|117:357|117:357|153:201,1,255.000009727478
104,2,105697,2,0,B|3:59|3:59|57:275,1,255.000009727478
286,122,105870,38,0,L|130:154,1,127.500004863739,8|0,0:0|0:0,0:0:0:0:
21,332,106042,1,0,0:0:0:0:
12,346,106128,1,0,0:0:0:0:
22,359,106214,2,0,B|107:337|107:337|162:49|162:49|284:25,1,484.499987062455
512,95,106559,70,0,B|466:170|466:170|227:122,1,314.499998800278,8|0,0:0|0:0,0:0:0:0:
0,0,106904,2,0,L|33:287,1,280.500002675057
173,384,107249,2,0,L|228:42,1,322.99999137497,8|0,0:0|0:0,0:0:0:0:
512,0,107594,38,0,B|507:39|480:76|423:68|423:68|160:34,1,382.500014591218
95,1,107939,70,0,B|155:37|155:37|170:122,1,127.500004863739,8|0,0:0|0:0,0:0:0:0:
10,268,108111,2,0,B|24:203|24:203|95:169,1,127.500004863739
332,238,108283,2,0,B|272:260|272:260|176:211,1,127.500004863739
165,171,108456,37,0,0:0:0:0:
165,171,108542,1,0,0:0:0:0:
165,171,108628,2,0,L|231:156,1,55.2499974708558,8|0,0:0|0:0,0:0:0:0:
512,299,108801,2,0,L|454:290,1,55.2499974708558
347,364,108973,70,0,L|330:227,1,127.500004863739
308,27,109145,1,0,0:0:0:0:
253,251,109318,37,8,0:0:0:0:
399,149,109490,2,0,L|365:137,1,29.7499990921021,0|8,0:0|0:0,0:0:0:0:
0,1,109663,69,0,0:0:0:0:
75,110,109835,1,8,0:0:0:0:
205,87,110008,1,8,0:0:0:0:
252,25,110180,1,0,0:0:0:0:
249,7,110352,53,4,0:0:0:0:
512,159,110525,53,2,0:0:0:0:
356,384,110697,1,10,0:0:0:0:
192,220,110870,1,2,0:0:0:0:
284,180,111042,54,0,P|271:172|279:187,1,42.5,2|0,0:0|0:0,0:0:0:0:
341,272,111214,2,0,P|361:258|352:281,1,63.7500024318696
192,346,111387,2,0,P|212:371|183:360,1,85,8|0,0:0|0:0,0:0:0:0:
36,283,111559,2,0,P|-4:308|13:264,1,127.500004863739
39,142,111732,54,0,P|14:26|139:128,1,382.500014591218
110,181,112076,53,8,0:0:0:0:
74,376,112249,1,0,0:0:0:0:
144,272,112421,53,0,0:0:0:0:
133,282,112594,1,0,0:0:0:0:
126,275,112766,2,0,L|133:260,1,17,8|0,0:0|0:0,0:0:0:0:
197,218,113111,53,0,0:0:0:0:
3,0,113283,53,2,0:0:0:0:
295,186,113456,1,10,0:0:0:0:
399,104,113628,1,2,0:0:0:0:
379,4,113801,54,0,P|347:6|335:45,1,63.7500024318696,2|0,0:0|0:0,0:0:0:0:
202,68,113973,2,0,P|198:121|253:146,1,85
206,337,114145,2,0,P|300:324|314:265,1,118.999996368408,8|0,0:0|0:0,0:0:0:0:
507,378,114318,2,0,P|532:295|456:235,1,152.999995330811
91,164,114490,54,0,B|-16:216|-64:354|198:340|328:194|199:129,1,458.999985992432
149,100,114835,53,8,0:0:0:0:
3,3,115008,1,0,0:0:0:0:
321,243,115180,53,0,0:0:0:0:
332,229,115352,1,0,0:0:0:0:
326,240,115525,2,0,L|323:211,1,25.4999992218018,8|0,0:0|0:0,0:0:0:0:
506,4,115870,53,0,0:0:0:0:
225,372,116042,53,2,0:0:0:0:
51,198,116214,1,10,0:0:0:0:
127,48,116387,1,2,0:0:0:0:
214,26,116559,54,0,B|231:8|246:28|213:43,1,38.2499988327027,2|0,0:0|0:0,0:0:0:0:
265,116,116732,2,0,B|300:125|284:162|250:142,1,68
176,221,116904,2,0,B|188:266|120:299|123:207,1,101.999996887207,8|0,0:0|0:0,0:0:0:0:
31,118,117076,2,0,B|-52:121|-6:-2|50:86,1,144.500002756119
361,224,117249,54,0,B|361:164|428:125|450:232|231:334|176:389|496:497|374:223,1,433.500008268356
355,105,117594,53,8,0:0:0:0:
508,2,117766,1,0,0:0:0:0:
474,288,117939,53,0,0:0:0:0:
486,281,118111,1,0,0:0:0:0:
481,295,118283,2,0,L|486:278,1,17,8|0,0:0|0:0,0:0:0:0:
506,208,118628,53,0,0:0:0:0:
12,380,118801,53,2,0:0:0:0:
299,161,118973,1,10,0:0:0:0:
269,57,119145,1,2,0:0:0:0:
75,62,119318,54,0,B|48:83|56:109|56:109|84:106|80:70,1,85,2|0,0:0|0:0,0:0:0:0:
94,194,119490,2,0,B|83:244|119:267|119:267|149:236|108:198,1,127.500004863739
197,313,119663,2,0,B|239:366|292:349|292:349|286:293|214:302,1,170,8|0,0:0|0:0,0:0:0:0:
405,384,119835,2,0,B|480:352|478:286|478:286|411:275|398:360,1,212.5
392,0,120008,54,0,B|353:126|316:38|180:113|233:340|405:365|493:245|415:96|288:-84|293:209|359:215,1,458.999985992432
292,17,120352,53,8,0:0:0:0:
5,44,120525,1,0,0:0:0:0:
13,369,120697,54,0,P|43:340|95:350,1,63.7500024318696
37,321,120870,54,0,P|95:337|95:373,1,63.7500024318696
79,299,121042,54,0,P|112:343|101:370,1,63.7500024318696,8|0,0:0|0:0,0:0:0:0:
128,303,121214,54,0,P|125:356|91:379,1,63.7500024318696
149,328,121387,53,0,0:0:0:0:
507,8,121560,101,2,0:0:0:0:
383,303,121732,1,10,0:0:0:0:
130,161,121904,1,2,0:0:0:0:
150,52,122076,70,0,B|142:17|174:7|174:7|161:48,1,63.7500024318696,2|0,0:0|0:0,0:0:0:0:
245,64,122249,2,0,B|288:25|327:62|327:62|259:76,1,106.25
260,175,122421,2,0,B|331:194|318:262|318:262|256:198,1,136,8|0,0:0|0:0,0:0:0:0:
200,280,122594,2,0,B|229:362|155:395|155:395|174:292,1,170
438,0,122766,54,0,B|569:101|485:373|485:373|259:320,1,510
306,319,123111,53,8,0:0:0:0:
1,362,123283,1,0,0:0:0:0:
371,262,123456,53,0,0:0:0:0:
380,276,123628,1,0,0:0:0:0:
389,259,123801,2,0,L|395:237,1,17,8|0,0:0|0:0,0:0:0:0:
454,190,124145,53,0,0:0:0:0:
1,9,124318,53,2,0:0:0:0:
179,350,124491,1,10,0:0:0:0:
269,305,124663,1,2,0:0:0:0:
249,170,124835,54,0,B|256:164|256:164|241:160|217:175|219:185|219:185|226:182,1,63.7500024318696,2|0,0:0|0:0,0:0:0:0:
155,75,125008,2,0,B|153:59|153:59|132:78|135:126|152:132|152:132|154:120,1,106.25
0,160,125180,2,0,B|-19:151|-19:151|-10:187|46:216|64:200|64:200|51:190,1,140.250001337528,8|0,0:0|0:0,0:0:0:0:
17,371,125352,2,0,B|-3:385|-3:385|39:399|104:356|99:328|99:328|80:335,1,170
257,83,125525,54,0,B|223:59|224:23|224:23|367:-52|506:85|506:85|404:59|326:145,1,510
331,159,125870,53,8,0:0:0:0:
508,380,126042,1,0,0:0:0:0:
466,236,126214,53,0,0:0:0:0:
461,246,126387,1,0,0:0:0:0:
454,240,126559,2,0,L|436:248,1,17,8|0,0:0|0:0,0:0:0:0:
506,177,126904,53,0,0:0:0:0:
0,384,127076,53,2,0:0:0:0:
288,247,127248,1,10,0:0:0:0:
320,59,127421,1,2,0:0:0:0:
243,3,127594,54,0,P|191:24|254:34,1,85,2|0,0:0|0:0,0:0:0:0:
92,64,127766,2,0,P|57:100|129:103,1,110.499994941712
94,285,127939,2,0,P|125:349|184:306,1,144.500002756119,8|0,0:0|0:0,0:0:0:0:
380,355,128111,2,0,P|452:383|465:266,1,187.000005706787
512,108,128283,54,0,B|263:-41|127:188|78:248|503:265|378:-4,1,561.000017120362
448,1,128628,53,8,0:0:0:0:
283,348,128801,1,0,0:0:0:0:
230,15,128973,53,0,0:0:0:0:
244,5,129145,1,0,0:0:0:0:
235,21,129318,2,0,L|240:5,1,17,8|0,0:0|0:0,0:0:0:0:
150,4,129663,53,0,0:0:0:0:
0,384,129835,53,2,0:0:0:0:
366,277,130008,1,10,0:0:0:0:
387,184,130180,1,2,0:0:0:0:
386,49,130352,54,0,B|392:33|377:23|377:23|360:46|394:64,1,63.7500024318696,2|0,0:0|0:0,0:0:0:0:
281,15,130525,2,0,B|265:-6|238:5|238:5|257:49|309:15,1,97.7500018644333
192,88,130697,2,0,B|159:78|142:111|142:111|195:139|221:66,1,123.250003761292,8|0,0:0|0:0,0:0:0:0:
175,243,130870,2,0,B|141:261|155:302|155:302|220:281|180:201,1,148.750001418591
335,316,131042,54,0,B|324:363|374:384|374:384|409:306|300:276,1,170
459,53,131214,2,0,B|504:36|496:-16|496:-16|411:-5|443:102,1,170
153,90,131387,2,0,B|116:58|74:92|74:92|126:160|204:78,1,170,8|0,0:0|0:0,0:0:0:0:
460,227,131559,53,0,0:0:0:0:
460,227,131645,1,0,0:0:0:0:
460,227,131732,2,0,B|496:258|538:224|538:224|486:156|408:238,1,170
315,39,131904,2,0,B|323:-8|273:-27|273:-27|240:51|350:77,1,170
205,276,132076,2,0,B|159:292|167:345|167:345|252:334|220:226,1,170,8|0,0:0|0:0,0:0:0:0:
330,182,132249,53,0,0:0:0:0:
330,182,132335,1,0,0:0:0:0:
330,182,132421,2,0,B|290:140|290:140|312:285|312:285|401:298|402:391,1,340,4|0,0:0|0:0,0:0:0:0:
18,237,132766,70,0,P|135:382|349:344,1,382.500014591218,8|0,0:0|0:0,0:0:0:0:
400,371,133111,38,0,P|404:311|427:267,1,85
464,147,133283,2,0,P|506:209|531:218,1,85
316,369,133456,70,0,P|291:198|239:46,1,305.999990661621,8|0,0:0|0:0,0:0:0:0:
290,8,133801,38,0,B|317:17|351:-6|351:-6|314:37|334:72,1,127.500004863739
249,71,134145,1,8,0:0:0:0:
512,130,134318,70,0,P|315:64|80:54,1,382.500014591218
21,141,134663,2,0,P|48:212|55:298,1,127.500004863739
77,22,134835,38,0,P|143:-8|157:-26,1,63.7500024318696,8|0,0:0|0:0,0:0:0:0:
102,115,134921,2,0,P|160:122|193:114,1,63.7500024318696
67,211,135008,2,0,P|105:232|140:238,1,63.7500024318696
261,384,135180,70,0,B|314:291|236:197|236:197|175:192|164:106,1,289.000005512238
512,96,135525,2,0,B|528:172|528:172|223:113,1,356.999989105225,8|0,0:0|0:0,0:0:0:0:
253,118,135870,38,0,P|234:37|274:-10,1,118.999996368408
134,277,136042,2,0,P|72:302|13:278,1,118.999996368408
77,22,136214,70,0,P|151:111|212:349,1,356.999989105225,8|0,0:0|0:0,0:0:0:0:
150,384,136559,38,0,P|235:365|254:388,1,118.999996368408
505,109,136732,2,0,P|485:160|408:151,1,118.999996368408
367,122,136904,70,0,B|346:49|415:7|415:7|453:84|378:102,1,237.999992736817,8|0,0:0|0:0,0:0:0:0:
4,201,137249,38,0,P|57:235|86:297,1,118.999996368408
218,0,137421,2,0,P|161:113|147:266,1,237.999992736817,0|8,0:0|0:0,0:0:0:0:
367,122,137766,2,0,P|316:88|253:64,1,118.999996368408
2,315,137939,70,0,B|255:272|255:272|291:332|397:312,1,356.999989105225
336,240,138283,38,0,P|353:226|332:240,1,118.999996368408,8|0,0:0|0:0,0:0:0:0:
388,384,138456,2,0,P|421:343|406:273,1,118.999996368408
154,132,138628,2,0,P|191:188|253:185,1,118.999996368408
468,107,138801,70,0,P|504:72|488:-5,1,118.999996368408
431,0,138973,2,0,P|387:20|394:77,1,118.999996368408,8|0,0:0|0:0,0:0:0:0:
457,213,139145,37,0,0:0:0:0:
453,195,139232,1,0,0:0:0:0:
472,189,139318,2,0,P|512:285|358:232,1,356.999989105225
375,166,139663,102,0,P|309:136|248:117,1,118.999996368408,8|0,0:0|0:0,0:0:0:0:
2,0,139835,2,0,P|34:71|48:130,1,118.999996368408
207,287,140008,86,0,P|89:358|90:256,1,297.499990921021
159,220,140352,1,8,0:0:0:0:
11,193,140525,2,0,P|81:175|118:173,1,85
480,251,140697,38,0,B|368:244|304:365|304:365|324:291|281:235,1,331.499984825135
350,199,141042,2,0,B|348:157|376:134|376:134|390:176|339:204,1,110.499994941712,8|0,0:0|0:0,0:0:0:0:
234,318,141214,69,0,0:0:0:0:
228,308,141301,1,0,0:0:0:0:
217,313,141387,2,0,P|174:302|181:236,1,110.499994941712
312,9,141559,2,0,P|337:55|273:87,1,110.499994941712
75,157,141732,38,0,B|66:141|15:125|-25:127|-22:205|208:241|216:51,1,331.499984825135,8|0,0:0|0:0,0:0:0:0:
179,1,142076,70,0,P|143:33|141:70,1,63.7500024318696
169,384,142249,38,0,P|129:331|83:309,1,110.499994941712
169,384,142421,2,0,P|170:293|236:220,1,152.999995330811,8|0,0:0|0:0,0:0:0:0:
426,227,142594,70,0,P|365:245|322:225,1,63.7500024318696
370,161,142680,2,0,P|344:131|352:77,1,63.7500024318696
421,93,142766,2,0,P|440:56|491:58,1,63.7500024318696
512,326,142939,38,0,P|401:274|246:240,1,255.000009727478,0|8,0:0|0:0,0:0:0:0:
0,384,143283,2,0,P|48:307|27:249,1,127.500004863739
257,49,143456,70,0,B|294:61|347:-12|287:-52|177:-33|101:118|205:236,1,382.500014591218
272,243,143801,38,0,P|319:151|301:120,1,127.500004863739,8|0,0:0|0:0,0:0:0:0:
0,118,143973,2,0,P|74:166|87:236,1,127.500004863739
365,384,144145,70,0,B|400:215|400:215|454:217|474:158,1,255.000009727478
463,49,144404,1,0,0:0:0:0:
474,40,144490,38,0,B|387:-15|387:-15|402:164,1,255.000009727478,8|0,0:0|0:0,0:0:0:0:
472,285,144835,70,0,P|351:209|103:154,1,382.500014591218
119,154,145180,2,0,P|113:235|183:231,1,127.500004863739,8|0,0:0|0:0,0:0:0:0:
400,0,145352,38,0,B|275:18|275:18|271:24|271:24|120:47,1,255.000009727478
129,346,145697,70,0,P|165:273|111:238,1,127.500004863739
300,214,145870,2,0,P|231:170|172:214,1,127.500004863739,8|0,0:0|0:0,0:0:0:0:
0,245,146042,38,0,P|46:382|42:406,1,144.500002756119
309,327,146214,70,0,P|346:297|389:295,1,63.7500024318696
300,214,146301,2,0,P|350:210|374:241,1,63.7500024318696
348,106,146387,2,0,P|390:141|399:177,1,63.7500024318696
512,384,146559,38,0,L|114:323,1,382.500014591218,8|0,0:0|0:0,0:0:0:0:
0,245,146904,2,0,L|-11:177,1,63.7500024318696
197,161,147076,2,0,L|212:99,1,63.7500024318696
11,384,147249,70,0,B|43:326|96:320|96:320|68:127|68:127|110:192|175:191,1,382.500014591218,8|0,0:0|0:0,0:0:0:0:
197,161,147594,38,0,P|260:117|327:112,1,127.500004863739
0,0,147766,2,0,P|108:28|128:84,1,127.500004863739
275,355,147939,70,0,P|339:125|417:51,1,305.999990661621,8|0,0:0|0:0,0:0:0:0:
457,60,148197,1,0,0:0:0:0:
471,68,148283,38,0,B|514:116|485:169|485:169|437:148|460:85,1,170
400,2,148628,1,8,0:0:0:0:
400,2,148801,70,0,P|354:37|305:24,1,85
0,0,148973,38,0,P|142:118|229:360,1,433.500008268356
154,383,149318,70,0,P|103:346|144:275,1,144.500002756119,8|0,0:0|0:0,0:0:0:0:
468,128,149490,2,0,P|497:209|405:232,1,144.500002756119
392,181,149663,38,0,P|389:187|388:167,1,72.2500013780594
499,41,149835,2,0,P|501:47|501:31,1,72.2500013780594
461,240,150008,70,0,P|381:223|208:197,1,255.000009727478,8|0,0:0|0:0,0:0:0:0:
51,271,150266,1,0,0:0:0:0:
51,271,150352,38,0,P|46:354|72:384,1,127.500004863739
128,257,150525,2,0,P|163:302|132:379,1,127.500004863739
134,32,150697,70,0,B|202:60|223:123|223:123|213:63|261:-15,1,255.000009727478,8|0,0:0|0:0,0:0:0:0:
499,41,150956,1,0,0:0:0:0:
504,55,151042,2,0,B|331:31|331:31|363:129,1,255.000009727478
434,364,151387,38,0,P|481:342|471:242,1,127.500004863739,8|0,0:0|0:0,0:0:0:0:
355,107,151559,2,0,P|329:177|397:217,1,127.500004863739
438,205,151732,70,0,L|519:183,3,63.7500024318696,0|0|0|0,3:2|3:2|3:2|3:2,3:2:0:0:
495,112,152076,2,0,L|506:41,3,63.7500024318696,8|0|0|0,3:2|3:2|3:2|3:2,3:2:0:0:
441,1,152421,37,0,3:2:0:0:
428,4,152508,1,0,3:2:0:0:
409,26,152594,1,0,3:2:0:0:
395,77,152680,1,0,3:2:0:0:
419,155,152766,1,8,3:2:0:0:
382,238,152852,1,0,3:2:0:0:
283,264,152939,1,0,3:2:0:0:
179,200,153025,1,0,3:2:0:0:
160,84,153111,70,0,P|175:39|283:25,1,152.999995330811,0|0,3:2|3:2,3:2:0:0:
67,384,153283,38,0,P|32:346|-16:340,1,76.4999976654053,0|0,3:2|3:2,3:2:0:0:
67,384,153456,2,0,P|82:282|161:249,1,152.999995330811,8|0,3:2|3:2,3:2:0:0:
480,366,153628,70,0,P|416:334|374:344,1,76.4999976654053,0|0,3:2|3:2,3:2:0:0:
465,214,153714,2,0,P|394:244|385:275,1,76.4999976654053,8|0,3:2|3:2,3:2:0:0:
359,97,153801,2,0,P|341:181|357:204,1,76.4999976654053,0|0,3:2|3:2,3:2:0:0:
275,384,153973,38,0,P|309:293|301:222,1,152.999995330811,0|0,3:2|3:2,3:2:0:0:
512,102,154145,2,0,P|338:17|91:91,1,433.500008268356,8|0,3:2|3:2,3:2:0:0:
62,4,154490,85,4,0:0:0:0:
0,384,154663,2,0,B|66:133|192:343|233:2,1,425,0|8,0:0|0:0,0:0:0:0:
512,340,155008,6,0,P|444:397|379:275,1,212.5
512,0,155181,2,0,P|460:131|439:269,1,212.5
473,272,155352,102,0,L|498:265,1,25.4999992218018
237,6,155525,2,0,L|209:-1,1,25.4999992218018,8|0,0:0|0:0,0:0:0:0:
1,126,155697,21,0,0:0:0:0:
65,172,155783,1,0,0:0:0:0:
135,135,155870,2,0,L|114:-18,1,127.500004863739
0,318,156042,2,0,B|141:348|83:198|172:162|282:239,1,280.500008560181
238,223,156214,86,0,B|244:276|244:276|251:281|251:281|261:390,1,161.499995687485,8|0,0:0|0:0,0:0:0:0:
512,39,156387,22,0,P|475:16|405:-10,1,85
215,126,156559,2,0,P|282:58|317:-23,1,161.499995687485
398,384,156732,2,0,B|356:223|451:220|381:13,1,322.99999137497,0|8,0:0|0:0,0:0:0:0:
15,108,157076,85,0,0:0:0:0:
0,121,157163,1,0,0:0:0:0:
14,126,157249,2,0,P|70:111|130:107,1,85
319,0,157421,2,0,P|306:48|302:115,1,85
190,384,157594,22,0,B|62:250|127:40|297:71|326:232|225:278,1,510,8|0,0:0|0:0,0:0:0:0:
85,382,157939,86,0,L|61:385,1,17
301,82,158111,2,0,L|322:89,1,17
97,112,158283,22,0,P|73:38|19:-13,1,127.500004863739,8|0,0:0|0:0,0:0:0:0:
273,353,158456,2,0,B|356:450|549:407|523:258|434:225|387:341,1,382.500014591218
399,316,158801,86,0,P|377:225|340:178,1,127.500004863739
511,1,158973,2,0,B|452:51|432:118|462:237,1,220.999989883423,8|0,0:0|0:0,0:0:0:0:
6,380,159318,22,0,P|71:378|91:318,1,110.499994941712
370,47,159490,2,0,P|306:9|258:43,1,110.499994941712
162,280,159663,86,0,B|196:306|229:373|229:373|187:252|236:96,1,382.500014591218,8|0,0:0|0:0,0:0:0:0:
104,78,160008,6,0,B|58:34|24:16|-44:42|-92:136|-87:224|231:320|102:75|221:33|326:136,1,561.000017120362
512,0,160352,102,0,B|460:37|432:94|438:162,1,187.000005706787,8|0,0:0|0:0,0:0:0:0:
347,382,160525,2,0,B|357:302|332:234|300:207,1,187.000005706787
363,0,160697,6,0,L|371:84,1,85
256,309,160870,2,0,L|171:296,1,85
176,54,161042,2,0,L|186:4,1,50.9999984436036,8|0,0:0|0:0,0:0:0:0:
468,68,161214,101,0,0:0:0:0:
512,134,161301,1,0,0:0:0:0:
482,209,161387,2,0,B|316:228|316:228|305:223|305:223|-19:262,1,484.499987062455
88,384,161732,22,0,B|73:207|197:333|145:8,1,382.500014591218,8|0,0:0|0:0,0:0:0:0:
0,0,162076,86,0,P|54:79|73:153,1,127.500004863739
252,384,162249,2,0,P|272:306|345:214,1,170
457,33,162421,6,0,B|551:0|669:157|333:269|240:134|212:-17,1,510,8|0,0:0|0:0,0:0:0:0:
132,66,162766,102,0,B|171:18|177:-63|88:-41|55:53|113:176|238:218|225:268|25:383|-10:170|142:102,1,510
226,36,163111,22,8,P|340:26|397:-9,1,170,8|0,0:0|0:0,0:0:0:0:
351,318,163283,2,0,P|473:358|498:393,1,170
457,33,163456,86,0,L|496:41,1,29.7499990921021
178,384,163628,2,0,L|174:347,1,29.7499990921021
512,199,163801,22,0,L|292:170,1,170,8|0,0:0|0:0,0:0:0:0:
0,279,163973,2,0,B|59:147|153:214|235:245|363:116|239:47|160:16|96:183,1,510
93,301,164318,86,0,P|79:368|85:411,1,85
512,268,164490,2,0,P|430:106|130:-6,1,458.999985992432,8|0,0:0|0:0,0:0:0:0:
122,37,164835,22,0,P|86:36|13:13,1,85
481,346,165008,2,0,P|437:355|396:380,1,85
0,241,165180,86,0,L|409:178,1,382.500014591218,8|0,0:0|0:0,0:0:0:0:
488,206,165525,22,0,B|522:123|522:123|478:162,1,127.500004863739
453,276,165697,86,0,B|472:167|472:167|485:157|485:157|514:-4,1,255.000009727478,0|8,0:0|0:0,0:0:0:0:
282,0,166042,2,0,P|222:27|216:119,1,127.500004863739
403,381,166214,22,0,B|252:376|359:295|225:238|119:287,1,255
166,280,166387,2,0,P|130:329|217:335,1,170
375,293,166559,86,0,B|364:161|364:161|369:155|369:155|351:-19,1,255,8|0,0:0|0:0,0:0:0:0:
395,0,166732,2,0,P|382:79|380:110,1,85
320,349,166904,21,0,0:0:0:0:
512,145,167076,2,0,B|521:188|498:198|377:137,1,127.500004863739
108,0,167249,2,0,L|118:142,1,127.500004863739,8|0,0:0|0:0,0:0:0:0:
0,272,167421,86,0,B|-58:325|17:439|129:314|142:182|251:209,1,382.500014591218
329,240,167766,2,0,P|292:305|248:271,1,127.500004863739
271,129,167939,22,0,B|240:11|402:-83|535:109|343:199,1,382.500014591218,8|0,0:0|0:0,0:0:0:0:
116,127,168283,86,0,B|100:327|373:222|481:145|527:194|546:278|482:330,1,510
501,360,168628,22,0,P|426:368|424:270,1,170,8|0,0:0|0:0,0:0:0:0:
486,10,168801,2,0,P|507:49|510:102,1,85
264,384,168973,86,0,B|274:221|333:350|355:148,1,255.000009727478
338,4,169318,1,8,0:0:0:0:
512,172,169490,22,0,B|518:209|378:249|365:198|488:55|162:82|197:98|115:209,1,458.999985992432
82,256,169835,2,0,P|150:282|179:204,1,127.500004863739
240,0,170008,86,0,L|268:304,1,255.000009727478,8|0,0:0|0:0,0:0:0:0:
46,382,170352,2,0,P|19:310|-32:266,1,127.500004863739
402,0,170525,2,0,P|362:38|330:110,1,127.500004863739
0,0,170697,22,0,B|174:15|5:153|97:327|219:242,1,382.500014591218,8|0,0:0|0:0,0:0:0:0:
512,310,171042,86,0,L|-3:358,1,510
0,346,171387,22,0,P|34:270|151:260,1,170,8|0,0:0|0:0,0:0:0:0:
402,0,171559,2,0,P|432:86|515:91,1,170
190,255,171732,86,0,P|203:202|146:173,1,85
273,0,171904,2,0,P|199:24|207:108,1,127.500004863739
211,345,172076,22,0,B|231:398|323:414|350:308|301:154|261:55,1,340,8|0,0:0|0:0,0:0:0:0:
0,121,172335,1,0,0:0:0:0:
6,134,172421,86,0,P|146:161|200:194,1,170
501,8,172594,2,0,P|404:77|371:142,1,170
104,336,172766,22,0,B|50:294|131:100|301:313|401:419|478:299|466:216|399:209,1,510,8|0,0:0|0:0,0:0:0:0:
334,215,173111,85,0,0:0:0:0:
501,8,173283,22,0,B|442:23|417:95|464:158,1,170
511,383,173456,2,0,P|378:312|95:340,1,433.500008268356,8|0,0:0|0:0,0:0:0:0:
6,375,173801,86,0,B|230:253|163:87|33:62|16:187,1,433.500008268356
0,272,174145,22,0,P|32:245|61:234,1,63.7500024318696,8|0,0:0|0:0,0:0:0:0:
386,0,174318,2,0,P|397:46|388:82,1,63.7500024318696
270,197,174490,86,0,P|243:112|307:80,1,127.500004863739
501,131,174663,2,0,P|499:190|414:217,1,127.500004863739
356,134,174835,1,8,0:0:0:0:
0,286,175008,22,0,B|-20:373|81:408|212:401|366:387|404:288|332:197,1,510
270,197,175352,2,0,P|225:240|229:305,1,127.500004863739
437,384,175525,2,0,P|484:330|459:256,1,127.500004863739,8|0,0:0|0:0,0:0:0:0:
356,134,175697,85,0,0:0:0:0:
348,119,175783,1,8,0:0:0:0:
365,111,175870,1,0,0:0:0:0:
465,12,176042,21,0,0:0:0:0:
191,0,176214,1,8,0:0:0:0:
23,195,176387,1,0,0:0:0:0:
68,384,176559,102,0,B|173:323|149:138|149:138|205:314|329:322,1,535.499983657837
437,384,177939,6,0,B|462:198|462:198|470:195|470:195|496:31|496:31|411:12|411:12|461:37|456:92,1,535.499983657837
379,83,179318,101,0,0:0:0:0:
11,5,182076,6,0,B|24:57|24:57|191:73|191:73|202:68|202:68|456:95|456:95|396:127|387:190,1,595
356,248,183456,102,0,B|343:331|336:437|568:429|509:277|453:225,1,380.8
391,174,184835,5,0,0:0:0:0:
12,177,187594,118,0,B|96:158|122:147|77:66|159:51|179:49|179:49|186:38|186:38|197:46|197:46|328:24|328:24|248:37|217:117,1,535.499983657837
441,305,188973,102,0,B|478:349|544:339|565:230|503:160|388:196|337:350|266:205|266:119|272:50|421:83|393:185,1,535.499983657837
363,299,190352,5,0,0:0:0:0:
48,267,193111,102,0,B|34:303|-13:332|-13:332|174:284|174:284|145:139|145:139|149:136|149:136|133:10|133:10|255:52|255:52|223:81|231:133,1,773.499964591982
333,265,194490,6,0,B|335:308|366:330|494:350|482:180|384:158|292:191|269:153|288:66|338:63|341:137,1,386.749982295991
275,214,195180,102,0,L|228:202,1,42.5
365,8,195525,2,0,L|413:-2,1,42.5
162,248,195870,6,0,L|180:387,1,136
332,382,197249,2,0,L|350:248,1,136
256,192,198283,101,0,0:0:0:0:
256,192,198628,21,2,0:0:0:0:
314,136,198801,2,0,B|308:92|308:92|348:55,1,85,2|0,0:0|0:0,0:0:0:0:
173,384,199145,6,0,B|186:326|186:326|193:321|193:321|215:229,1,136,2|0,0:0|0:0,0:0:0:0:
418,342,199490,2,0,P|289:349|242:389,1,170,2|0,0:0|0:0,0:0:0:0:
103,192,199835,102,0,B|90:157|112:130|112:130|63:167|52:221|71:256|71:256|81:257|81:257|119:319|102:371|47:391|47:391|99:356|76:296,1,475.999985473633,2|2,0:0|0:0,0:0:0:0:
80,311,200352,1,0,0:0:0:0:
174,82,200525,6,0,P|235:46|250:-21,1,127.500004863739,2|0,0:0|0:0,0:0:0:0:
0,289,200870,102,0,P|21:244|39:237,1,55.2499974708558,2|0,0:0|0:0,0:0:0:0:
202,215,201042,2,0,P|196:188|177:170,1,55.2499974708558
19,107,201214,5,0,0:0:0:0:
10,118,201301,1,0,0:0:0:0:
19,129,201387,2,0,B|112:149|112:149|116:157|116:157|186:171,1,165.749992412568,2|0,0:0|0:0,0:0:0:0:
327,252,201732,102,0,B|353:123|182:83|182:83|263:112|262:191,1,382.500014591218,2|0,0:0|0:0,0:0:0:0:
176,169,202076,6,0,L|168:206,1,29.7499990921021
502,53,202249,1,2,0:1:0:0:
502,53,202421,102,0,L|452:61,1,46.7500014266968,0|0,0:1|0:1,0:1:0:0:
403,277,202594,2,0,B|344:335|344:335|324:241,1,168.299999486389,2|0,0:1|0:0,0:0:0:0:
254,222,202939,2,0,B|214:328|290:288|259:390,1,170
0,384,203283,6,0,B|40:258|40:258|47:256|47:256|94:128|94:128|38:98|18:21|18:21|29:123|29:123|35:128|35:128|41:226,1,578.000011024475,2|0,0:1|0:0,0:0:0:0:
38,184,203801,101,2,0:0:0:0:
124,49,203973,2,0,P|106:33|104:-1,1,42.5
442,0,204145,6,0,B|299:16|400:161|243:157,1,255,2|0,0:0|0:0,0:0:0:0:
229,232,204490,2,0,B|190:324|268:429|384:388|400:253|290:184,1,356.999989105225
266,156,204835,101,2,0:1:0:0:
327,215,205008,2,0,B|387:221|387:221|393:225|393:225|473:234,1,127.500004863739,2|0,0:1|0:0,0:0:0:0:
56,201,205352,6,0,B|182:176|182:176|193:107|193:107|201:101|201:101|208:42|208:42|357:13|357:13|298:24|282:76,1,510.000019454957,2|0,0:1|0:0,0:0:0:0:
286,63,205870,1,2,0:0:0:0:
423,86,206042,102,0,P|396:100|367:90,1,63.7500024318696
51,25,206214,2,0,B|-17:29|-35:108|-6:149|139:116|126:24,1,255,2|0,0:0|0:0,0:0:0:0:
184,0,206559,2,0,P|206:31|197:88,1,85
24,282,206732,5,0,0:0:0:0:
20,299,206818,1,0,0:0:0:0:
33,296,206904,2,0,P|86:297|148:123,1,255,2|0,0:0|0:0,0:0:0:0:
203,76,207249,102,0,L|238:83,1,29.7499990921021,2|0,0:0|0:0,0:0:0:0:
8,206,207421,2,0,L|45:195,1,29.7499990921021
299,38,207594,6,0,L|295:2,1,29.7499990921021,2|0,0:1|0:0,0:0:0:0:
216,315,207766,2,0,P|290:234|361:234,1,170,2|0,0:1|0:0,0:0:0:0:
440,27,208111,102,0,B|463:38|492:15|492:15|456:38|452:61|452:61|373:77|373:77|366:82|366:82|198:115|198:115|273:96|314:13,1,510.000019454957,2|2,0:1|0:1,0:0:0:0:
300,39,208628,5,2,0:1:0:0:
0,0,208801,2,0,B|39:18|39:18|63:146,1,127.500004863739,2|0,0:1|0:1,0:0:0:0:
144,0,209145,102,0,L|132:74,1,63.7500024318696,2|0,0:1|0:0,0:0:0:0:
3,215,209318,2,0,L|76:193,1,63.7500024318696,2|0,0:1|0:0,0:0:0:0:
128,144,209490,1,0,0:0:0:0:
2,384,209663,6,0,B|28:286|122:244|199:268|199:268|148:266|122:311,1,331.499984825135,2|0,0:0|0:0,0:0:0:0:
190,344,210008,1,2,0:0:0:0:
512,326,210180,102,0,B|399:307|399:307|394:312|394:312|283:294,1,204,2|0,0:0|0:0,0:0:0:0:
288,384,210525,2,0,B|277:253|277:253|283:249|283:249|272:71,1,305.999990661621,2|0,0:0|0:0,0:0:0:0:
468,45,210870,6,0,B|488:47|504:27|504:27|489:56|494:71|494:71|308:40|308:40|301:47|301:47|22:4,1,510.000019454957,2|2,0:0|0:0,0:0:0:0:
80,12,211387,1,0,0:0:0:0:
5,228,211559,102,0,P|44:304|98:204,1,255,2|0,0:0|0:0,0:0:0:0:
40,154,211904,1,2,0:0:0:0:
97,203,212076,6,0,L|181:217,1,63.7500024318696
0,17,212249,2,0,L|11:89,1,63.7500024318696
215,303,212421,102,0,B|223:221|317:202|317:202|328:209|328:209|432:178|432:178|436:120|481:80|481:80|400:95|397:173,1,510.000019454957,2|2,0:0|0:0,0:0:0:0:
398,155,212939,5,0,0:0:0:0:
469,384,213111,2,0,B|483:309|483:309|488:309|488:309|510:187,2,170,2|2|0,0:1|0:1|0:0,0:0:0:0:
205,60,213628,102,0,B|179:104|120:102|120:102|225:120|225:120|230:127|230:127|317:143|317:143|313:251|208:234|208:234|246:225|256:197,1,510.000019454957,2|0,0:1|0:0,0:0:0:0:
242,218,214145,5,2,0:0:0:0:
285,49,214318,2,0,L|381:27,1,63.7500024318696
147,184,214490,101,2,0:0:0:0:
436,62,214663,2,0,L|419:-30,1,63.7500024318696
88,249,214835,6,0,P|138:304|144:379,1,127.500004863739,2|0,0:0|0:0,0:0:0:0:
503,272,215180,102,0,B|466:244|490:122|490:122|439:221|317:192,1,305.999990661621,2|0,0:0|0:0,0:0:0:0:
298,179,215525,2,0,P|305:121|380:145,1,127.500004863739,2|0,0:0|0:0,0:0:0:0:
374,112,216042,6,0,P|321:102|308:109,1,63.7500024318696,2|0,0:1|0:1,0:1:0:0:
357,229,216214,2,0,P|387:216|394:178,1,63.7500024318696,2|0,0:1|0:1,0:1:0:0:
217,0,216387,102,0,B|225:88|225:88|233:95|233:95|246:220,1,170
250,287,216732,1,0,0:0:0:0:
37,238,216904,6,0,B|55:324|-12:376|-12:376|89:382|129:337|153:267|193:230|193:230|154:269|187:350,1,510.000019454957,2|0,0:0|0:0,0:0:0:0:
174,310,217421,101,0,0:0:0:0:
486,261,217594,2,0,L|275:225,1,170
107,196,217939,6,0,P|84:138|31:72,1,127.500004863739,2|0,0:0|0:0,0:0:0:0:
395,8,218283,2,0,P|305:66|230:167,1,191.250007295609,2|0,0:0|0:0,0:0:0:0:
215,198,218628,101,0,0:0:0:0:
198,42,218801,1,2,0:1:0:0:
167,120,218973,1,0,0:0:0:0:
230,331,219145,6,0,B|360:339|279:226|445:243,1,191.250007295609,2|0,0:1|0:0,0:0:0:0:
389,322,219490,102,0,L|375:390,1,63.7500024318696,2|0,0:1|0:0,0:0:0:0:
319,132,219663,2,0,L|302:222,1,63.7500024318696
387,242,219835,6,0,L|172:205,1,191.250007295609,2|0,0:1|0:0,0:0:0:0:
135,220,220180,102,0,L|219:205,1,63.7500024318696,2|0,0:1|0:0,0:0:0:0:
21,384,220352,2,0,L|36:328,2,46.7500014266968,2|0|0,0:1|0:0|0:0,0:0:0:0:
85,283,220697,53,0,0:0:0:0:
179,143,220870,1,0,0:0:0:0:
12,231,221042,1,0,0:0:0:0:
61,167,221214,6,0,B|48:126|48:126|86:81,1,85
320,90,221732,101,0,0:0:0:0:
365,384,221904,2,0,L|371:357,1,25.4999992218018
434,317,222249,5,0,0:0:0:0:
297,338,222421,1,0,0:0:0:0:
505,228,222594,102,0,B|479:245|479:245|450:237,1,50.9999984436036
355,287,223111,2,0,L|360:272,1,12.7499996109009
38,246,223283,2,0,L|41:265,1,12.7499996109009
1,326,223456,5,0,0:0:0:0:
1,326,223801,101,0,0:0:0:0:
1,326,223973,1,0,0:0:0:0:
1,326,224145,1,0,0:0:0:0:
59,379,224318,2,0,L|87:371,1,25.4999992218018
110,34,224663,6,0,B|103:62|103:62|116:88,1,50.9999984436036
186,49,225180,101,0,0:0:0:0:
0,120,225352,2,0,B|31:130|31:130|51:118,1,50.9999984436036
186,49,225870,6,0,L|193:29,1,12.7499996109009
455,4,226042,2,0,L|460:20,1,12.7499996109009
509,71,226214,101,0,0:0:0:0:
296,149,226387,1,0,0:0:0:0:
377,0,226559,1,0,0:0:0:0:
458,133,226732,6,0,B|436:117|436:117|435:86,1,50.9999984436036
509,71,227249,101,0,0:0:0:0:
446,234,227421,2,0,L|440:201,1,25.4999992218018
106,104,227767,5,0,0:0:0:0:
326,13,227939,1,0,0:0:0:0:
58,167,228111,2,0,L|32:171,1,25.4999992218018
37,42,228456,102,0,L|32:62,1,12.7499996109009
173,182,228628,2,0,L|176:204,1,12.7499996109009
3,317,228801,2,0,L|-2:335,1,12.7499996109009
27,247,228973,5,0,0:0:0:0:
97,357,229145,2,0,B|123:377|123:377|148:369,1,50.9999984436036
255,333,229663,102,0,L|252:307,1,25.4999992218018
394,204,230008,1,0,0:0:0:0:
512,337,230180,2,0,L|499:361,1,25.4999992218018
367,382,230525,5,0,0:0:0:0:
505,194,230697,1,0,0:0:0:0:
380,0,230870,2,0,L|350:4,1,25.4999992218018
5,113,231214,102,0,L|-3:97,1,12.7499996109009
228,16,231387,2,0,L|232:3,1,12.7499996109009
394,204,231559,2,0,L|410:199,1,12.7499996109009
30,22,231732,6,0,B|55:42|55:42|79:34,1,50.9999984436036
146,2,232249,1,0,0:0:0:0:
81,182,232421,102,0,L|77:155,1,25.4999992218018
121,94,232766,1,0,0:0:0:0:
18,373,232939,6,0,B|11:344|11:344|29:326,1,50.9999984436036
192,381,233456,101,0,0:0:0:0:
102,340,233628,2,0,B|109:370|109:370|92:388,1,50.9999984436036
58,356,234145,6,0,L|66:330,1,25.4999992218018
267,357,234490,101,0,0:0:0:0:
0,105,234835,5,0,0:0:0:0:
58,51,235008,1,0,0:0:0:0:
126,95,235180,2,0,L|121:119,2,25.4999992218018
156,0,235697,102,0,B|176:21|176:21|205:14,1,50.9999984436036
503,98,236214,1,0,0:0:0:0:
425,36,236387,2,0,L|430:64,1,25.4999992218018
507,196,236732,6,0,L|486:191,1,12.7499996109009
256,181,236904,2,0,L|243:187,1,12.7499996109009
11,198,237076,2,0,L|-2:193,1,12.7499996109009
255,40,237249,102,0,B|262:72|262:72|252:100,2,50.9999984436036
186,7,238111,5,0,0:0:0:0:
327,133,238283,1,0,0:0:0:0:
91,258,238456,102,0,L|86:232,1,25.4999992218018
510,55,238801,5,0,0:0:0:0:
388,234,238973,1,0,0:0:0:0:
195,142,239145,2,0,L|188:111,1,25.4999992218018
457,142,239490,101,0,0:0:0:0:
422,344,239663,2,0,L|447:335,1,25.4999992218018
496,277,240008,5,0,0:0:0:0:
296,238,240180,1,0,0:0:0:0:
207,371,240352,1,0,0:0:0:0:
6,166,240525,101,0,0:0:0:0:
60,224,240697,1,0,0:0:0:0:
30,296,240870,1,0,0:0:0:0:
147,180,241042,5,0,0:0:0:0:
0,67,241214,102,0,B|29:73|29:73|56:57,1,50.9999984436036
99,1,241731,1,0,0:0:0:0:
255,244,241904,6,0,B|231:231,1,25.4999992218018
241,156,242249,1,0,0:0:0:0:
494,292,242421,102,0,L|472:298,1,12.7499996109009
410,313,242594,2,0,L|390:319,1,12.7499996109009
512,384,242766,21,4,0:0:0:0:
