osu file format v14

[General]
AudioFilename: audio.mp3
AudioLeadIn: 0
PreviewTime: 110376
Countdown: 1
SampleSet: None
StackLeniency: 0.7
Mode: 2
LetterboxInBreaks: 0
WidescreenStoryboard: 0

[Editor]
Bookmarks: 11066,33135,88307,143480
DistanceSpacing: 1.2
BeatDivisor: 4
GridSize: 8
TimelineZoom: 3.099999

[Metadata]
Title:Crush (Radio Edit)
TitleUnicode:Crush (Radio Edit)
Artist:Pendulum
ArtistUnicode:Pendulum
Creator:[-naniwa-]
Version:Overdose
Source:
Tags:Immersion
BeatmapID:2020042
BeatmapSetID:964952

[Difficulty]
HPDrainRate:7
CircleSize:4.5
OverallDifficulty:9.5
ApproachRate:9.5
SliderMultiplier:1.8
SliderTickRate:1

[Events]
//Background and Video events
0,0,"Fantasy-Art-Chao-Ghosts-and-Monsters-992x487.jpg",0,0
//Break Periods
//Storyboard Layer 0 (Background)
//Storyboard Layer 1 (Fail)
//Storyboard Layer 2 (Pass)
//Storyboard Layer 3 (Foreground)
//Storyboard Sound Samples

[TimingPoints]
32,344.827586206897,4,2,0,70,1,0
11066,-100,4,2,0,100,0,0
33135,-100,4,2,0,90,0,0
55204,-100,4,2,0,100,0,1
58307,-83.3333333333333,4,2,0,100,0,1
58825,-66.6666666666667,4,2,0,100,0,1
59342,-100,4,2,0,100,0,1
59687,-83.3333333333333,4,2,0,100,0,1
60032,-66.6666666666667,4,2,0,100,0,1
60721,-100,4,2,0,100,0,1
77273,-100,4,2,0,80,0,0
88307,-100,4,2,0,90,0,0
110376,-100,4,2,0,100,0,1
129859,-66.6666666666667,4,2,0,100,0,1
130376,-100,4,2,0,100,0,1
132445,-100,4,2,0,80,0,0
154514,-100,4,2,0,85,0,0
160032,-100,4,2,0,90,0,0
162790,-100,4,2,0,93,0,0
164169,-100,4,2,0,95,0,0
165549,-66.6666666666667,4,2,0,100,0,1
184859,-83.3333333333333,4,2,0,100,0,1
187618,-100,4,2,0,100,0,0
187704,-100,4,2,0,70,0,0
188997,-100,4,2,0,50,0,0
190376,-100,4,2,0,40,0,0
191756,-100,4,2,0,30,0,0

[Colours]
Combo1 : 246,245,247
Combo2 : 0,128,255
Combo3 : 0,0,0
Combo4 : 239,35,35

[HitObjects]
296,160,32,6,0,L|192:160,2,90,4|0|2,0:3|0:0|0:3,0:0:0:0:
144,160,722,1,2,0:0:0:0:
256,160,894,1,0,0:0:0:0:
80,160,1066,1,2,0:0:0:0:
344,160,1238,6,0,L|136:160,1,180,2|0,0:3|0:0,0:0:0:0:
344,160,1756,2,0,L|416:88,1,90,2|0,0:3|0:0,0:0:0:0:
224,160,2100,2,0,L|152:88,1,90,2|0,0:0|0:0,0:0:0:0:
344,112,2445,1,2,0:3:0:0:
464,112,2618,2,0,L|400:112,1,45
216,160,2790,6,0,L|336:160,2,90,4|0|2,0:3|0:0|0:3,0:0:0:0:
368,160,3480,1,2,0:0:0:0:
224,160,3652,2,0,L|152:160,1,45
120,160,3825,1,2,0:3:0:0:
288,160,3997,1,0,0:0:0:0:
424,160,4169,1,2,0:0:0:0:
453,192,4255,1,0,0:0:0:0:
452,236,4341,1,2,0:0:0:0:
421,267,4427,1,0,0:0:0:0:
184,160,4514,5,2,0:3:0:0:
312,160,4687,2,0,L|376:160,1,45,2|0,0:0|0:0,0:0:0:0:
224,160,4859,1,2,0:0:0:0:
168,160,4945,1,0,0:0:0:0:
224,160,5032,1,0,0:0:0:0:
280,160,5118,1,0,0:0:0:0:
104,160,5204,1,2,0:3:0:0:
264,168,5376,2,0,L|320:168,1,45
80,176,5549,5,4,0:3:0:0:
170,176,5721,1,0,0:0:0:0:
260,176,5893,1,2,0:3:0:0:
432,168,6238,1,2,0:0:0:0:
312,168,6411,1,0,0:0:0:0:
472,168,6583,1,2,0:3:0:0:
224,160,6756,6,0,L|416:160,1,180,2|2,0:0|0:0,0:0:0:0:
256,104,7273,6,0,L|352:104,1,90,2|0,0:3|0:0,0:0:0:0:
166,104,7618,2,0,L|256:104,1,90,2|0,0:0|0:0,0:0:0:0:
408,104,7963,1,2,0:3:0:0:
256,104,8135,2,0,L|184:104,1,45
436,104,8307,5,4,0:3:0:0:
346,104,8479,1,0,0:0:0:0:
256,104,8652,1,2,0:3:0:0:
400,104,8997,1,2,0:0:0:0:
256,104,9169,2,0,L|192:104,1,45
136,104,9342,2,0,L|248:104,1,90,2|0,0:3|0:0,0:0:0:0:
456,104,9687,5,2,0:3:0:0:
411,104,9773,1,0,0:0:0:0:
366,104,9859,1,2,0:0:0:0:
232,160,10032,2,0,L|320:160,2,45,2|0|2,0:3|0:0|0:0,0:0:0:0:
96,160,10376,2,0,L|51:160,2,45,2|0|2,0:3|0:0|0:0,0:0:0:0:
256,160,10721,2,0,L|360:160,1,90,2|0,0:0|0:0,0:0:0:0:
80,256,11066,6,0,L|64:152,1,90,4|0,0:0|0:0,0:0:0:0:
208,144,11411,2,0,L|104:144,1,90,2|0,0:3|0:0,0:0:0:0:
328,144,11756,1,2,0:0:0:0:
168,144,11928,2,0,L|280:144,2,90,4|2|2,0:3|0:3|0:0,0:0:0:0:
416,280,12445,5,4,0:3:0:0:
343,233,12617,1,0,0:0:0:0:
349,148,12789,1,2,0:3:0:0:
426,111,12962,1,2,0:0:0:0:
256,112,13135,2,0,L|352:112,1,90,2|4,0:0|0:3,0:0:0:0:
184,112,13480,2,0,L|144:224,1,90,2|2,0:3|0:0,0:0:0:0:
424,168,13825,6,0,L|320:168,1,90,4|0,0:3|0:0,0:0:0:0:
168,168,14169,2,0,L|264:168,1,90,2|0,0:3|0:0,0:0:0:0:
88,168,14514,1,2,0:0:0:0:
256,168,14687,1,4,0:3:0:0:
166,168,14859,1,2,0:3:0:0:
76,168,15031,1,2,0:0:0:0:
344,168,15204,6,0,L|376:72,1,90,4|0,0:3|0:0,0:0:0:0:
80,120,15549,1,2,0:3:0:0:
312,120,15721,2,0,L|200:120,1,90,2|2,0:0|0:0,0:0:0:0:
376,120,16066,2,0,L|472:120,2,90,4|2|2,0:3|0:3|0:0,0:0:0:0:
104,256,16583,6,0,L|80:160,1,90,4|0,0:3|0:0,0:0:0:0:
208,136,16928,2,0,L|312:136,1,90,2|0,0:3|0:0,0:0:0:0:
144,136,17273,2,0,L|256:136,2,90,2|4|2,0:0|0:3|0:3,0:0:0:0:
32,136,17790,1,2,0:0:0:0:
288,136,17963,6,0,L|192:136,1,90,4|0,0:3|0:0,0:0:0:0:
352,136,18307,2,0,L|456:136,1,90,2|2,0:3|0:0,0:0:0:0:
256,160,18652,1,2,0:0:0:0:
232,77,18824,1,4,0:3:0:0:
297,21,18996,1,2,0:3:0:0:
375,55,19169,1,2,0:0:0:0:
128,168,19342,6,0,L|32:168,1,90,4|2,0:3|0:0,0:0:0:0:
192,168,19687,2,0,L|288:168,1,90,2|2,0:3|0:0,0:0:0:0:
80,168,20032,1,0,0:0:0:0:
256,176,20204,2,0,L|360:176,2,90,4|2|2,0:3|0:3|0:0,0:0:0:0:
488,232,20721,6,0,L|464:144,1,90,4|0,0:3|0:0,0:0:0:0:
320,232,21066,1,2,0:3:0:0:
40,232,21238,2,0,L|130:232,1,90,0|2,0:0|0:0,0:0:0:0:
384,232,21583,1,2,0:3:0:0:
128,232,21756,2,0,L|104:136,1,90,4|2,0:3|0:0,0:0:0:0:
424,232,22100,5,4,0:3:0:0:
449,148,22272,1,2,0:0:0:0:
403,74,22444,1,2,0:3:0:0:
317,59,22617,1,2,0:0:0:0:
448,72,22790,1,2,0:0:0:0:
208,72,22963,2,0,L|312:72,1,90,4|2,0:3|0:3,0:0:0:0:
448,72,23307,1,0,0:0:0:0:
144,72,23480,5,4,0:3:0:0:
288,72,23652,1,2,0:0:0:0:
56,72,23825,2,0,L|160:72,2,90,2|0|2,0:3|0:0|0:0,0:0:0:0:
288,72,24342,1,4,0:3:0:0:
88,72,24514,2,0,L|64:176,1,90,2|2,0:3|0:0,0:0:0:0:
320,136,24859,5,4,0:3:0:0:
230,136,25031,1,2,0:0:0:0:
140,136,25203,1,2,0:3:0:0:
50,136,25376,1,2,0:0:0:0:
144,136,25549,1,2,0:0:0:0:
376,136,25721,2,0,L|272:136,1,90,4|2,0:3|0:3,0:0:0:0:
440,136,26066,1,0,0:0:0:0:
160,128,26238,6,0,L|128:224,1,90,4|2,0:3|0:0,0:0:0:0:
384,216,26583,1,2,0:3:0:0:
224,128,26756,2,0,L|184:248,1,90,0|2,0:0|0:0,0:0:0:0:
472,216,27100,2,0,L|360:216,2,90,4|2|2,0:3|0:3|0:0,0:0:0:0:
136,216,27618,6,0,L|248:216,1,90,4|2,0:3|0:0,0:0:0:0:
376,216,27963,2,0,L|264:216,1,90,2|2,0:3|0:0,0:0:0:0:
104,216,28307,1,0,0:0:0:0:
376,216,28480,1,4,0:3:0:0:
192,216,28652,2,0,L|120:144,1,90,2|0,0:3|0:0,0:0:0:0:
416,216,28997,5,4,0:3:0:0:
224,216,29169,1,2,0:0:0:0:
480,216,29342,2,0,L|504:120,1,90,2|0,0:3|0:0,0:0:0:0:
360,120,29687,1,2,0:0:0:0:
88,120,29859,1,4,0:3:0:0:
360,120,30032,2,0,L|432:48,1,90,2|2,0:3|0:0,0:0:0:0:
168,112,30376,6,0,L|264:112,1,90,4|2,0:3|0:0,0:0:0:0:
104,112,30721,2,0,L|72:208,1,90,2|2,0:3|0:0,0:0:0:0:
288,112,31066,1,2,0:0:0:0:
48,112,31238,1,4,0:3:0:0:
352,112,31411,1,2,0:3:0:0:
200,112,31583,1,0,0:0:0:0:
448,112,31756,6,0,L|472:200,1,90,4|2,0:3|0:0,0:0:0:0:
136,96,32100,2,0,L|256:96,2,90,2|0|2,0:3|0:0|0:0,0:0:0:0:
368,104,32618,1,4,0:3:0:0:
224,232,32790,1,2,0:0:0:0:
186,209,32876,1,0,0:0:0:0:
172,167,32963,1,2,0:0:0:0:
191,128,33048,1,0,0:0:0:0:
376,128,33135,6,0,L|264:128,1,90,4|2,0:3|0:0,0:0:0:0:
432,128,33480,2,0,L|464:224,1,90,0|2,0:0|0:0,0:0:0:0:
320,224,33825,1,2,0:0:0:0:
80,224,33997,1,2,0:3:0:0:
384,224,34169,1,4,0:3:0:0:
200,224,34342,2,0,L|245:224,1,45
384,224,34514,6,0,L|280:224,1,90,4|2,0:3|0:0,0:0:0:0:
424,168,34859,1,2,0:3:0:0:
488,168,34945,1,0,0:0:0:0:
424,168,35031,1,2,0:0:0:0:
256,168,35204,1,2,0:0:0:0:
488,168,35376,1,2,0:3:0:0:
336,168,35549,1,4,0:3:0:0:
381,168,35635,1,0,0:0:0:0:
426,168,35721,1,0,0:0:0:0:
168,168,35894,6,0,L|272:168,1,90,4|2,0:3|0:0,0:0:0:0:
488,168,36238,1,2,0:3:0:0:
360,168,36411,1,2,0:0:0:0:
224,168,36583,1,2,0:0:0:0:
456,168,36756,1,2,0:3:0:0:
152,168,36928,2,0,L|80:96,1,90,4|0,0:3|0:0,0:0:0:0:
336,80,37273,5,4,0:3:0:0:
420,107,37445,1,2,0:0:0:0:
471,179,37617,1,2,0:3:0:0:
469,267,37790,1,2,0:0:0:0:
296,264,37963,1,2,0:0:0:0:
472,264,38135,1,2,0:3:0:0:
200,272,38307,2,0,L|296:272,1,90,4|0,0:3|0:0,0:0:0:0:
40,272,38652,6,0,L|144:272,3,90,4|2|2|2,0:3|0:0|0:3|0:0,0:0:0:0:
288,288,39342,2,0,L|352:224,1,90,2|2,0:0|0:3,0:0:0:0:
192,272,39687,2,0,L|102:272,1,90,4|0,0:3|0:0,0:0:0:0:
464,272,40032,6,0,L|374:272,1,90,4|2,0:3|0:0,0:0:0:0:
224,272,40376,2,0,L|328:272,1,90,2|0,0:3|0:0,0:0:0:0:
464,272,40721,1,2,0:0:0:0:
224,272,40894,1,2,0:3:0:0:
496,272,41066,2,0,L|496:176,1,90,4|0,0:3|0:0,0:0:0:0:
224,232,41411,6,0,L|344:232,1,90,4|2,0:3|0:0,0:0:0:0:
464,176,41756,2,0,L|360:176,2,90,2|2|2,0:3|0:0|0:0,0:0:0:0:
312,176,42273,1,2,0:3:0:0:
64,184,42445,2,0,L|184:184,1,90,4|0,0:3|0:0,0:0:0:0:
288,160,42790,6,0,L|192:160,1,90,4|2,0:3|0:0,0:0:0:0:
352,160,43135,1,2,0:3:0:0:
397,160,43221,1,0,0:0:0:0:
442,160,43307,1,2,0:0:0:0:
312,160,43480,1,2,0:0:0:0:
80,160,43652,1,2,0:3:0:0:
392,160,43825,2,0,L|416:72,1,90,4|0,0:3|0:0,0:0:0:0:
144,160,44169,6,0,L|264:160,1,90,4|2,0:3|0:0,0:0:0:0:
384,160,44514,2,0,L|264:160,1,90,2|2,0:3|0:0,0:0:0:0:
54,160,44859,2,0,L|182:160,2,90,0|2|4,0:0|0:3|0:3,0:0:0:0:
208,160,45376,1,2,0:0:0:0:
448,168,45549,6,0,P|456:224|360:296,1,180,4|2,0:3|0:3,0:0:0:0:
224,296,46066,1,2,0:0:0:0:
368,296,46238,1,2,0:0:0:0:
120,296,46411,1,2,0:3:0:0:
432,296,46583,1,4,0:3:0:0:
296,296,46756,1,2,0:0:0:0:
56,296,46928,6,0,L|160:296,1,90,4|2,0:3|0:0,0:0:0:0:
288,296,47273,2,0,L|408:296,1,90,2|2,0:3|0:0,0:0:0:0:
224,296,47618,1,0,0:0:0:0:
468,296,47790,2,0,L|364:296,2,90,2|4|2,0:3|0:3|0:0,0:0:0:0:
224,184,48307,6,0,L|416:184,1,180,4|2,0:3|0:3,0:0:0:0:
288,184,48825,1,0,0:0:0:0:
136,184,48997,2,0,L|112:88,1,90,2|4,0:0|0:3,0:0:0:0:
352,184,49342,2,0,L|448:184,1,90,2|0,0:3|0:0,0:0:0:0:
168,104,49687,5,4,0:3:0:0:
124,179,49859,1,2,0:0:0:0:
151,262,50031,1,2,0:3:0:0:
232,296,50204,1,2,0:0:0:0:
440,296,50376,2,0,L|328:296,3,90,2|2|4|2,0:0|0:3|0:3|0:0,0:0:0:0:
112,240,51066,6,0,L|216:240,1,90,4|2,0:3|0:0,0:0:0:0:
48,240,51411,2,0,L|24:128,1,90,2|0,0:3|0:0,0:0:0:0:
200,224,51756,2,0,L|110:224,1,90,2|2,0:0|0:3,0:0:0:0:
360,224,52100,1,4,0:3:0:0:
224,224,52273,1,2,0:0:0:0:
480,224,52445,6,0,P|496:160|400:88,1,180,4|2,0:3|0:3,0:0:0:0:
256,88,52963,2,0,L|352:88,1,90,2|0,0:0|0:0,0:0:0:0:
120,88,53307,1,2,0:3:0:0:
416,88,53480,1,4,0:3:0:0:
288,88,53652,2,0,L|216:88,1,45,2|0,0:0|0:0,0:0:0:0:
56,96,53825,6,0,L|248:96,1,180,4|2,0:3|0:3,0:0:0:0:
144,96,54342,1,2,0:0:0:0:
56,96,54514,1,0,0:0:0:0:
320,96,54687,1,4,0:3:0:0:
88,96,54859,2,0,L|24:96,2,45,2|0|2,0:3|0:0|0:0,0:0:0:0:
328,216,55204,5,4,0:3:0:0:
283,216,55290,1,0,0:0:0:0:
238,216,55376,1,2,0:0:0:0:
193,216,55463,1,0,0:0:0:0:
368,216,55549,2,0,L|488:216,2,90,2|0|2,0:3|0:0|0:0,0:0:0:0:
144,216,56066,1,2,0:3:0:0:
288,216,56238,2,0,L|192:216,1,90,4|0,0:3|0:0,0:0:0:0:
424,224,56583,6,0,L|448:120,1,90,4|2,0:3|0:0,0:0:0:0:
200,232,56928,2,0,P|156:162|220:90,1,180,2|2,0:3|0:0,0:0:0:0:
472,232,57445,1,2,0:3:0:0:
88,224,57618,2,0,L|192:224,1,90,4|2,0:3|0:0,0:0:0:0:
232,224,57876,1,0,0:0:0:0:
408,224,57963,6,0,L|296:224,1,90,4|2,0:3|0:0,0:0:0:0:
72,224,58307,2,0,L|200:224,2,107.999996704102,2|2|2,0:1|0:3|0:1,0:0:0:0:
440,224,58825,2,0,L|288:224,2,135.000005149842,2|4|2,0:1|0:3|0:0,0:0:0:0:
200,224,59342,6,0,L|312:224,1,90,4|2,0:3|0:0,0:0:0:0:
32,224,59687,2,0,L|168:224,1,107.999996704102,2|2,0:1|0:3,0:0:0:0:
200,224,59945,1,0,0:0:0:0:
480,224,60032,1,2,0:1:0:0:
345,224,60204,1,2,0:1:0:0:
210,224,60376,1,4,0:3:0:0:
345,224,60548,1,2,0:0:0:0:
400,224,60635,1,0,0:0:0:0:
152,216,60721,6,0,L|40:216,1,90,4|2,0:3|0:0,0:0:0:0:
264,224,61066,2,0,L|344:144,1,90,2|2,0:3|0:0,0:0:0:0:
232,120,61325,1,0,0:0:0:0:
56,120,61411,1,2,0:0:0:0:
224,120,61583,1,2,0:3:0:0:
456,120,61756,2,0,L|344:120,1,90,4|0,0:3|0:0,0:0:0:0:
120,248,62100,6,0,L|88:144,1,90,4|2,0:3|0:0,0:0:0:0:
288,192,62445,2,0,L|184:192,2,90,2|0|2,0:3|0:0|0:0,0:0:0:0:
32,160,62963,1,2,0:3:0:0:
352,192,63135,1,4,0:3:0:0:
200,192,63307,1,0,0:0:0:0:
432,192,63480,6,0,L|456:88,1,90,4|2,0:3|0:0,0:0:0:0:
224,192,63825,2,0,L|96:192,1,90,2|2,0:1|0:0,0:0:0:0:
192,192,64083,1,0,0:0:0:0:
288,192,64169,1,2,0:1:0:0:
44,192,64342,2,0,L|172:192,2,90,2|4|2,0:1|0:3|0:0,0:0:0:0:
288,200,64859,6,0,L|192:200,1,90,4|2,0:3|0:0,0:0:0:0:
442,200,65204,2,0,L|352:200,1,90,2|2,0:1|0:0,0:0:0:0:
112,200,65549,1,2,0:1:0:0:
400,200,65721,1,2,0:1:0:0:
48,200,65894,2,0,L|112:136,1,90,2|2,0:1|0:0,0:0:0:0:
400,136,66238,5,4,0:3:0:0:
224,136,66411,1,2,0:0:0:0:
464,136,66583,1,2,0:3:0:0:
160,136,66756,2,0,L|352:136,1,180,2|2,0:0|0:3,0:0:0:0:
168,192,67273,2,0,L|96:192,2,45,4|0|0,0:3|0:0|0:0,0:0:0:0:
432,208,67618,6,0,L|304:208,1,90,4|2,0:3|0:0,0:0:0:0:
136,216,67963,2,0,L|232:216,2,90,2|0|2,0:3|0:0|0:0,0:0:0:0:
384,224,68480,1,2,0:3:0:0:
72,216,68652,2,0,L|112:120,1,90,4|0,0:3|0:0,0:0:0:0:
344,216,68997,6,0,L|240:216,1,90,4|2,0:3|0:0,0:0:0:0:
482,216,69342,2,0,L|392:216,1,90,2|2,0:1|0:0,0:0:0:0:
120,216,69687,1,2,0:1:0:0:
392,216,69859,1,2,0:1:0:0:
56,216,70032,2,0,L|176:216,1,90,4|2,0:3|0:0,0:0:0:0:
392,224,70376,6,0,L|304:136,1,90,4|2,0:3|0:0,0:0:0:0:
96,224,70721,2,0,L|51:224,2,45,2|0|2,0:1|0:0|0:0,0:0:0:0:
240,224,71066,1,2,0:1:0:0:
480,224,71238,1,2,0:1:0:0:
200,224,71411,2,0,L|312:224,1,90,4|2,0:3|0:0,0:0:0:0:
64,112,71756,6,0,L|32:208,1,90,4|2,0:3|0:0,0:0:0:0:
288,184,72100,2,0,L|400:184,1,90,2|2,0:3|0:0,0:0:0:0:
320,184,72359,1,0,0:0:0:0:
224,184,72445,2,0,L|112:184,1,90,2|2,0:0|0:3,0:0:0:0:
440,176,72790,2,0,L|360:96,1,90,4|2,0:3|0:0,0:0:0:0:
144,112,73135,5,4,0:3:0:0:
320,112,73307,1,2,0:0:0:0:
88,264,73480,1,2,0:3:0:0:
142,196,73652,1,2,0:0:0:0:
117,113,73824,1,2,0:0:0:0:
35,85,73997,1,2,0:3:0:0:
288,200,74169,2,0,L|184:200,1,90,4|0,0:3|0:0,0:0:0:0:
456,216,74514,6,0,L|488:128,1,90,4|2,0:3|0:0,0:0:0:0:
416,112,74773,1,0,0:0:0:0:
256,192,74859,2,0,L|376:192,1,90,2|2,0:1|0:0,0:0:0:0:
152,272,75204,1,2,0:1:0:0:
114,192,75376,1,2,0:1:0:0:
144,110,75548,1,4,0:3:0:0:
225,75,75721,1,2,0:0:0:0:
280,72,75807,1,0,0:0:0:0:
456,72,75894,6,0,L|360:72,2,90,4|2|2,0:3|0:0|0:3,0:0:0:0:
309,72,76411,2,0,L|264:72,1,45,2|0,0:0|0:0,0:0:0:0:
136,72,76583,1,2,0:0:0:0:
408,72,76756,1,4,0:3:0:0:
256,88,76928,2,0,L|352:88,1,90,4|2,0:3|0:0,0:3:0:0:
96,288,77273,5,4,0:3:0:0:
50,214,77445,1,2,0:0:0:0:
81,133,77617,1,2,0:0:0:0:
164,109,77790,1,2,0:0:0:0:
348,109,77963,1,2,0:0:0:0:
96,112,78135,1,2,0:3:0:0:
256,112,78307,2,0,L|152:112,1,90,4|0,0:3|0:0,0:0:0:0:
432,208,78652,6,0,L|464:112,1,90,4|2,0:3|0:0,0:0:0:0:
224,200,78997,1,2,0:3:0:0:
464,208,79169,2,0,L|416:96,1,90,0|2,0:0|0:0,0:0:0:0:
88,184,79514,2,0,L|192:184,2,90,2|4|2,0:3|0:3|0:0,0:0:0:0:
344,200,80032,6,0,L|240:200,1,90,4|2,0:3|0:0,0:0:0:0:
400,304,80376,1,2,0:0:0:0:
446,230,80548,1,2,0:0:0:0:
421,146,80720,1,2,0:0:0:0:
342,110,80893,1,2,0:3:0:0:
488,144,81066,2,0,L|368:144,1,90,4|0,0:3|0:0,0:0:0:0:
168,112,81411,6,0,L|258:112,1,90,2|2,0:1|0:0,0:0:0:0:
32,112,81756,1,2,0:3:0:0:
288,112,81928,2,0,L|160:112,1,90,2|2,0:1|0:0,0:0:0:0:
352,112,82273,2,0,L|456:112,2,90,2|2|2,0:3|0:1|0:0,0:0:0:0:
70,112,82790,5,4,0:3:0:0:
216,120,82963,2,0,L|280:120,1,45,2|0,0:0|0:0,0:0:0:0:
440,120,83135,2,0,L|336:120,1,90,2|2,0:0|0:0,0:0:0:0:
162,120,83480,1,2,0:0:0:0:
400,120,83652,2,0,L|496:120,2,90,2|4|2,0:3|0:3|0:0,0:0:0:0:
160,128,84169,6,0,L|256:128,2,90,4|2|2,0:3|0:0|0:3,0:0:0:0:
376,128,84687,2,0,L|280:128,2,90,2|2|2,0:0|0:0|0:3,0:0:0:0:
72,72,85204,2,0,L|192:72,1,90,4|2,0:3|0:0,0:0:0:0:
392,288,85549,5,4,0:3:0:0:
459,233,85721,1,2,0:0:0:0:
452,147,85893,1,2,0:0:0:0:
368,104,86066,1,2,0:0:0:0:
224,104,86238,1,2,0:0:0:0:
456,112,86411,1,2,0:3:0:0:
160,104,86583,2,0,L|136:192,1,90,4|0,0:3|0:0,0:0:0:0:
392,192,86928,6,0,L|488:192,2,90,2|2|2,0:1|0:0|0:3,0:0:0:0:
224,288,87445,1,2,0:1:0:0:
360,288,87618,1,2,0:0:0:0:
104,288,87790,2,0,L|160:288,1,45,2|0,0:3|0:0,0:0:0:0:
360,296,87963,1,2,0:0:0:0:
388,262,88049,1,0,0:0:0:0:
386,218,88135,1,2,0:0:0:0:
355,188,88221,1,0,0:0:0:0:
152,192,88307,6,0,L|56:192,1,90,4|2,3:0|0:0,0:0:0:0:
216,192,88652,2,0,L|296:112,1,90,2|2,0:3|0:0,0:0:0:0:
128,112,88997,1,2,0:0:0:0:
416,192,89169,2,0,L|448:88,1,90,4|2,0:3|0:3,0:0:0:0:
312,96,89514,1,0,0:0:0:0:
72,272,89687,6,0,P|48:232|144:152,1,180,4|2,0:3|0:3,0:0:0:0:
256,152,90204,1,2,0:0:0:0:
96,144,90376,1,2,0:0:0:0:
376,152,90549,1,4,0:3:0:0:
286,152,90721,1,2,0:3:0:0:
196,152,90893,1,0,0:0:0:0:
472,152,91066,6,0,L|352:152,2,90,4|2|0,0:3|0:0|0:3,0:0:0:0:
320,152,91583,1,2,0:0:0:0:
192,152,91756,1,2,0:0:0:0:
432,152,91928,1,4,0:3:0:0:
128,152,92100,1,2,0:3:0:0:
288,152,92273,1,2,0:0:0:0:
96,152,92445,6,0,L|16:232,2,90,4|2|2,0:3|0:0|0:3,0:0:0:0:
224,152,92963,1,0,0:0:0:0:
392,160,93135,2,0,L|496:160,1,90,2|4,0:0|0:3,0:0:0:0:
328,160,93480,2,0,L|232:160,1,90,2|2,0:3|0:0,0:0:0:0:
464,280,93825,5,4,0:3:0:0:
476,193,93997,1,2,0:0:0:0:
422,123,94169,1,2,0:3:0:0:
335,114,94342,1,2,0:0:0:0:
176,120,94514,2,0,L|280:120,2,90,2|4|2,0:0|0:3|0:3,0:0:0:0:
328,120,95032,1,2,0:0:0:0:
176,240,95204,6,0,L|136:328,1,90,4|2,0:3|0:0,0:0:0:0:
328,240,95549,2,0,L|368:320,1,90,2|2,0:3|0:0,0:0:0:0:
152,200,95894,1,2,0:0:0:0:
62,200,96066,1,4,0:3:0:0:
152,200,96238,1,2,0:3:0:0:
242,200,96410,1,2,0:0:0:0:
80,312,96583,5,4,0:3:0:0:
44,232,96755,1,2,0:0:0:0:
88,158,96927,1,2,0:3:0:0:
174,150,97100,1,2,0:0:0:0:
352,304,97273,2,0,L|384:200,1,90,2|4,0:0|0:3,0:0:0:0:
224,216,97618,2,0,L|192:120,1,90,2|2,0:3|0:0,0:0:0:0:
448,192,97963,6,0,L|344:192,1,90,4|2,0:3|0:0,0:0:0:0:
64,192,98307,2,0,L|256:192,1,180,2|2,0:3|0:0,0:0:0:0:
96,192,98825,1,4,0:3:0:0:
416,192,98997,2,0,L|440:96,1,90,2|2,0:3|0:0,0:0:0:0:
96,192,99342,6,0,L|72:96,1,90,4|0,0:3|0:0,0:0:0:0:
344,88,99687,1,2,0:3:0:0:
224,160,99859,2,0,L|160:160,1,45
288,160,100032,1,2,0:0:0:0:
112,160,100204,1,2,0:3:0:0:
384,160,100376,2,0,P|416:112|376:48,1,135,4|0,0:3|0:0,0:0:0:0:
112,240,100721,6,0,L|232:240,2,90,4|2|2,0:3|0:0|0:3,0:0:0:0:
264,240,101238,1,0,0:0:0:0:
48,240,101411,2,0,L|16:136,1,90,2|2,0:0|0:3,0:0:0:0:
288,224,101756,1,4,0:3:0:0:
152,224,101928,1,2,0:0:0:0:
448,224,102100,6,0,L|352:224,2,90,4|2|2,0:3|0:0|0:3,0:0:0:0:
296,224,102618,1,2,0:0:0:0:
64,224,102790,2,0,L|160:224,2,90,2|2|4,0:0|0:3|0:3,0:0:0:0:
216,224,103308,1,2,0:0:0:0:
480,224,103480,5,4,0:3:0:0:
390,224,103652,1,0,0:0:0:0:
300,224,103825,2,0,L|416:224,1,90,2|2,0:3|0:0,0:0:0:0:
240,224,104169,1,2,0:0:0:0:
472,224,104342,1,2,0:3:0:0:
176,224,104514,1,4,0:3:0:0:
344,224,104687,1,2,0:0:0:0:
64,104,104859,5,4,0:3:0:0:
27,183,105031,1,2,0:0:0:0:
65,261,105203,1,2,0:3:0:0:
150,281,105376,1,2,0:0:0:0:
304,280,105549,2,0,L|200:280,1,90,2|2,0:0|0:3,0:0:0:0:
62,280,105894,2,0,L|152:280,1,90,4|2,0:3|0:0,0:0:0:0:
424,288,106238,6,0,L|448:184,1,90,4|2,0:3|0:0,0:0:0:0:
320,192,106583,1,2,0:3:0:0:
88,192,106756,1,2,0:0:0:0:
224,192,106928,2,0,L|128:192,3,90,2|2|4|2,0:0|0:3|0:3|0:0,0:0:0:0:
408,288,107618,5,4,0:3:0:0:
354,220,107790,1,2,0:0:0:0:
386,140,107962,1,2,0:3:0:0:
471,127,108135,1,2,0:0:0:0:
384,96,108307,1,2,0:0:0:0:
128,96,108480,1,4,0:3:0:0:
416,96,108652,1,2,0:3:0:0:
371,96,108738,1,0,0:0:0:0:
326,96,108824,1,2,0:0:0:0:
96,96,108997,6,0,L|216:96,2,90,4|2|2,0:3|0:0|0:3,0:0:0:0:
256,96,109514,2,0,L|336:96,1,45,2|0,0:0|0:0,0:0:0:0:
384,96,109687,1,2,0:0:0:0:
128,96,109859,1,4,0:3:0:0:
384,160,110032,1,2,0:3:0:0:
429,160,110118,1,0,0:0:0:0:
384,160,110204,1,2,0:0:0:0:
339,160,110290,1,0,0:0:0:0:
152,152,110376,6,0,L|208:152,1,45,4|0,0:3|0:0,0:0:0:0:
360,152,110549,2,0,L|440:152,1,45,2|0,0:0|0:0,0:0:0:0:
224,104,110721,2,0,L|336:104,1,90,2|2,0:3|0:0,0:0:0:0:
256,104,110980,1,0,0:0:0:0:
96,104,111066,2,0,L|56:224,1,90,2|2,0:0|0:3,0:0:0:0:
360,104,111411,2,0,L|456:104,1,90,4|2,0:3|0:0,0:0:0:0:
152,104,111756,6,0,L|32:104,1,90,4|2,0:3|0:0,0:0:0:0:
288,104,112100,2,0,P|240:128|200:272,1,180,2|2,0:3|0:0,0:0:0:0:
320,112,112618,1,4,0:3:0:0:
64,240,112790,2,0,L|32:144,1,90,2|0,0:3|0:0,0:0:0:0:
288,192,113135,6,0,L|184:192,1,90,4|2,0:3|0:0,0:0:0:0:
352,192,113480,1,2,0:1:0:0:
448,192,113652,2,0,L|464:144,1,45,2|0,0:0|0:0,0:0:0:0:
256,136,113825,2,0,L|136:136,2,90,2|2|4,0:1|0:1|0:3,0:0:0:0:
104,136,114342,1,2,0:0:0:0:
448,192,114514,6,0,L|336:192,1,90,4|2,0:3|0:0,0:0:0:0:
104,200,114859,2,0,L|64:296,1,90,2|2,0:1|0:0,0:0:0:0:
160,288,115118,1,0,0:0:0:0:
344,288,115204,2,0,L|464:288,2,90,2|2|2,0:1|0:1|0:3,0:0:0:0:
472,288,115721,1,2,0:0:0:0:
224,216,115894,6,0,L|168:216,1,45,4|0,0:3|0:0,0:0:0:0:
344,216,116066,2,0,L|424:216,1,45,2|0,0:0|0:0,0:0:0:0:
176,152,116238,2,0,L|304:152,1,90,2|2,0:3|0:0,0:0:0:0:
208,152,116497,1,0,0:0:0:0:
56,152,116583,2,0,L|152:152,2,90,2|4|2,0:0|0:3|0:3,0:0:0:0:
184,152,117100,1,0,0:0:0:0:
416,152,117273,6,0,L|312:152,1,90,4|2,0:3|0:0,0:0:0:0:
480,152,117618,2,0,L|512:64,1,90,2|2,0:3|0:0,0:0:0:0:
368,152,117963,1,2,0:0:0:0:
128,152,118135,1,4,0:3:0:0:
432,152,118307,2,0,L|464:64,1,90,2|0,0:3|0:0,0:0:0:0:
224,160,118652,6,0,L|320:160,1,90,4|2,0:3|0:0,0:0:0:0:
160,160,118997,1,2,0:1:0:0:
432,160,119169,2,0,L|320:160,2,90,2|2|2,0:0|0:1|0:1,0:0:0:0:
96,160,119687,2,0,L|64:72,1,90,4|0,0:3|0:0,0:0:0:0:
392,248,120032,6,0,L|496:248,1,90,4|2,0:3|0:0,0:0:0:0:
238,248,120376,2,0,L|328:248,1,90,2|2,0:1|0:0,0:0:0:0:
176,248,120721,1,2,0:1:0:0:
440,248,120894,1,2,0:1:0:0:
112,248,121066,1,2,0:1:0:0:
288,248,121238,1,0,0:0:0:0:
40,112,121411,6,0,L|160:112,2,90,4|2|2,0:3|0:0|0:3,0:0:0:0:
256,112,121928,1,2,0:0:0:0:
166,112,122100,1,0,0:0:0:0:
76,112,122272,1,4,0:3:0:0:
346,112,122445,2,0,L|456:112,1,90,2|0,0:3|0:0,0:0:0:0:
166,112,122790,5,4,0:3:0:0:
288,112,122963,1,2,0:0:0:0:
48,112,123135,1,2,0:3:0:0:
224,112,123307,2,0,L|112:112,2,90,2|0|4,0:0|0:0|0:3,0:0:0:0:
464,120,123825,1,2,0:3:0:0:
312,120,123997,1,0,0:0:0:0:
72,128,124169,6,0,L|176:128,1,90,4|2,0:3|0:0,0:0:0:0:
350,128,124514,2,0,L|464:128,1,90,2|2,0:1|0:0,0:0:0:0:
120,128,124859,1,2,0:1:0:0:
400,128,125032,1,2,0:1:0:0:
40,128,125204,2,0,L|8:224,1,90,4|0,0:3|0:0,0:0:0:0:
288,128,125549,5,4,0:3:0:0:
152,128,125721,1,2,0:0:0:0:
400,128,125894,1,2,0:1:0:0:
224,120,126066,2,0,L|328:120,1,90,2|2,0:0|0:1,0:0:0:0:
80,120,126411,1,2,0:1:0:0:
288,120,126583,2,0,L|224:120,1,45,4|0,0:3|0:0,0:0:0:0:
184,120,126756,2,0,L|120:120,1,45,2|0,0:0|0:0,0:0:0:0:
352,120,126928,5,4,0:3:0:0:
224,120,127100,1,2,0:0:0:0:
472,120,127273,2,0,L|360:120,2,90,2|2|2,0:3|0:0|0:0,0:0:0:0:
160,120,127790,1,4,0:3:0:0:
472,120,127963,2,0,L|440:216,1,90,2|0,0:3|0:0,0:0:0:0:
192,216,128307,5,4,0:3:0:0:
40,216,128480,1,2,0:0:0:0:
256,216,128652,2,0,L|296:320,1,90,2|2,0:3|0:0,0:0:0:0:
120,216,128997,1,2,0:0:0:0:
288,216,129169,1,4,0:3:0:0:
56,216,129342,2,0,L|104:112,1,90,2|0,0:3|0:0,0:0:0:0:
352,136,129687,5,4,0:3:0:0:
200,136,129859,2,0,L|112:136,1,67.5000025749208,2|0,0:0|0:0,0:0:0:0:
80,136,130032,2,0,L|208:64,1,135.000005149842,2|2,0:1|0:0,0:0:0:0:
456,136,130376,1,2,0:1:0:0:
120,136,130549,1,2,0:1:0:0:
368,136,130721,1,4,0:3:0:0:
200,136,130894,2,0,L|120:136,1,45,2|0,0:0|0:0,0:0:0:0:
432,136,131066,5,4,0:3:0:0:
288,136,131238,1,2,0:3:0:0:
40,136,131411,1,8,0:3:0:0:
184,136,131583,1,2,0:3:0:0:
320,136,131756,1,4,0:3:0:0:
144,136,131928,1,2,0:3:0:0:
464,136,132100,1,8,0:3:0:0:
320,136,132273,1,2,0:3:0:0:
72,136,132445,6,0,L|72:272,1,135,2|0,0:3|0:0,0:0:0:0:
256,280,132790,1,2,0:3:0:0:
136,272,132963,1,2,0:0:0:0:
320,280,133135,2,0,L|432:280,2,90,2|0|2,0:3|0:0|0:0,0:0:0:0:
72,271,133652,6,0,P|64:207|168:159,1,180,2|0,0:3|0:0,0:0:0:0:
288,152,134169,1,2,0:0:0:0:
440,152,134342,2,0,P|440:200|312:280,1,180,2|2,0:3|0:0,0:0:0:0:
224,104,134859,1,2,0:3:0:0:
384,104,135032,2,0,L|320:104,1,45,2|0,0:0|0:0,0:0:0:0:
160,104,135204,6,0,L|304:104,1,135,2|0,0:3|0:0,0:0:0:0:
128,104,135549,2,0,L|8:104,2,90,2|2|2,0:3|0:0|0:3,0:0:0:0:
384,104,136066,1,2,0:0:0:0:
224,104,136238,1,0,0:0:0:0:
456,104,136411,6,0,P|432:168|472:288,1,180,2|0,0:3|0:0,0:0:0:0:
369,310,136928,1,2,0:0:0:0:
144,296,137100,2,0,L|336:296,1,180,2|2,0:3|0:0,0:0:0:0:
176,296,137618,1,2,0:3:0:0:
136,276,137704,1,0,0:0:0:0:
123,235,137790,1,2,0:0:0:0:
144,197,137876,1,0,0:0:0:0:
392,296,137963,6,0,L|240:296,1,135,2|0,0:3|0:0,0:0:0:0:
456,296,138307,1,2,0:3:0:0:
328,296,138480,2,0,L|456:168,1,180,2|2,0:0|0:3,0:0:0:0:
320,144,138997,1,2,0:0:0:0:
88,296,139169,6,0,P|48:264|64:136,1,180,2|0,0:3|0:0,0:0:0:0:
176,144,139687,1,2,0:0:0:0:
424,144,139859,2,0,L|272:296,1,180,2|2,0:3|0:0,0:0:0:0:
456,288,140376,2,0,L|496:184,1,90,2|2,0:3|0:0,0:0:0:0:
256,104,140721,6,0,P|264:184|336:184,1,135,2|0,0:3|0:0,0:0:0:0:
448,200,141066,1,2,0:3:0:0:
304,200,141238,1,2,0:3:0:0:
480,200,141411,1,2,0:0:0:0:
336,200,141583,2,0,L|440:200,1,90,2|2,0:3|0:0,0:0:0:0:
176,200,141928,6,0,P|120:160|192:96,1,180,2|2,0:3|0:3,0:0:0:0:
333,92,142445,1,2,0:0:0:0:
96,96,142618,1,2,0:3:0:0:
224,96,142790,2,0,L|160:96,2,45,2|0|2,0:0|0:0|0:3,0:0:0:0:
464,96,143135,1,2,0:0:0:0:
328,96,143307,1,2,0:0:0:0:
48,96,143480,5,2,0:3:0:0:
288,104,143825,1,2,0:0:0:0:
134,104,143997,2,0,L|224:104,2,90,2|0|2,0:0|0:0|0:0,0:0:0:0:
32,104,144514,1,0,0:0:0:0:
288,104,144687,6,0,L|72:104,1,180,2|2,0:3|0:0,0:0:0:0:
200,104,145204,1,2,0:3:0:0:
320,104,145376,2,0,P|352:152|304:272,1,180,2|2,0:3|0:0,0:0:0:0:
192,261,145894,1,2,0:0:0:0:
88,264,146066,1,0,0:0:0:0:
424,264,146238,5,2,0:3:0:0:
224,224,146583,2,0,L|192:120,1,90,2|0,0:0|0:0,0:0:0:0:
368,224,146928,2,0,L|400:112,1,90,2|0,0:0|0:0,0:0:0:0:
224,136,147273,1,2,0:0:0:0:
456,136,147445,6,0,L|264:136,1,180,2|0,0:3|0:0,0:0:0:0:
392,136,147963,1,2,0:0:0:0:
56,136,148135,2,0,L|248:136,1,180,2|2,0:3|0:0,0:0:0:0:
120,136,148653,1,2,0:0:0:0:
392,136,148997,5,2,0:3:0:0:
224,136,149342,2,0,L|200:248,1,90,2|2,0:3|0:0,0:0:0:0:
328,136,149687,2,0,L|432:136,2,90,0|2|2,0:0|0:3|0:0,0:0:0:0:
80,136,150204,6,0,P|40:200|96:296,1,180,2|0,0:3|0:0,0:0:0:0:
224,296,150721,1,2,0:0:0:0:
80,288,150894,2,0,L|224:144,1,180,2|2,0:3|0:0,0:0:0:0:
448,160,151411,1,2,0:3:0:0:
336,160,151583,2,0,L|288:160,1,45,2|0,0:0|0:0,0:0:0:0:
64,160,151756,5,2,0:3:0:0:
224,80,152100,1,2,0:3:0:0:
280,144,152272,1,0,0:0:0:0:
251,224,152444,1,2,0:0:0:0:
166,237,152617,1,2,0:3:0:0:
288,240,152790,1,2,0:3:0:0:
56,240,152963,5,2,0:3:0:0:
224,240,153307,2,0,L|296:240,2,45,2|0|2,0:3|0:0|0:0,0:0:0:0:
456,240,153652,2,0,L|256:240,1,180,2|2,0:3|0:0,0:0:0:0:
368,240,154169,1,2,0:0:0:0:
413,240,154255,1,0,0:0:0:0:
458,240,154341,1,2,0:0:0:0:
168,248,154514,6,0,P|144:192|248:128,1,180,2|2,0:3|0:0,0:0:0:0:
56,128,155032,2,0,L|168:128,2,90,2|0|2,0:3|0:0|0:3,0:0:0:0:
208,128,155549,1,0,0:0:0:0:
344,128,155721,6,0,L|152:128,1,180,2|2,0:3|0:0,0:0:0:0:
288,128,156238,2,0,L|416:128,1,90,2|2,0:3|0:0,0:0:0:0:
224,128,156583,2,0,L|104:128,2,90,0|2|2,0:0|0:3|0:0,0:0:0:0:
72,128,157100,1,0,0:0:0:0:
408,128,157273,6,0,L|432:216,1,90,2|2,0:3|0:0,0:0:0:0:
256,64,157618,1,2,0:3:0:0:
188,120,157790,1,2,0:3:0:0:
165,206,157962,1,2,0:0:0:0:
195,289,158135,1,2,0:3:0:0:
268,340,158307,1,2,0:0:0:0:
352,304,158480,6,0,L|456:304,2,90,2|0|2,0:3|0:0|0:0,0:0:0:0:
224,304,158997,2,0,L|192:216,1,90,2|2,0:0|0:3,0:0:0:0:
352,256,159342,2,0,L|408:160,1,90,2|2,0:0|0:3,0:0:0:0:
200,160,159687,2,0,L|256:80,1,90,2|2,0:3|0:0,0:0:0:0:
400,168,160032,6,0,L|216:168,1,180,2|2,0:3|0:3,0:0:0:0:
312,168,160549,1,0,0:0:0:0:
400,48,160721,1,2,0:0:0:0:
464,106,160893,1,2,0:3:0:0:
464,194,161065,1,2,0:3:0:0:
312,256,161238,1,2,0:0:0:0:
168,256,161411,6,0,L|72:256,3,90,2|0|2|2,0:0|0:0|0:3|0:0,0:0:0:0:
232,256,162100,2,0,L|336:256,3,90,2|2|2|2,0:0|0:3|0:3|0:0,0:0:0:0:
128,344,162790,5,8,0:3:0:0:
63,283,162962,1,2,0:0:0:0:
36,198,163134,1,4,0:3:0:0:
54,111,163307,1,2,0:0:0:0:
113,44,163479,1,4,0:3:0:0:
197,14,163652,1,2,0:0:0:0:
285,30,163824,1,4,0:3:0:0:
353,87,163996,1,2,0:0:0:0:
159,87,164169,5,8,0:3:0:0:
320,88,164342,1,2,0:3:0:0:
96,88,164514,1,4,0:3:0:0:
288,88,164687,1,2,0:3:0:0:
32,88,164859,1,4,0:3:0:0:
352,88,165032,1,2,0:3:0:0:
96,88,165204,2,0,L|120:184,1,90,4|2,0:0|0:0,0:0:0:0:
360,192,165549,6,8,L|400:48,1,135.000005149842,4|0,0:3|0:0,0:0:0:0:
224,160,165894,2,0,L|376:160,2,135.000005149842,8|0|2,0:3|0:0|0:3,0:0:0:0:
456,160,166411,1,4,0:3:0:0:
192,160,166583,2,0,L|336:160,1,135.000005149842,8|2,0:3|0:0,0:0:0:0:
80,248,166928,6,0,L|64:112,1,135.000005149842,4|2,0:3|0:0,0:0:0:0:
160,96,167187,1,0,0:0:0:0:
288,104,167273,2,0,L|152:104,1,135.000005149842,8|2,0:3|0:0,0:0:0:0:
256,104,167618,1,2,0:3:0:0:
488,104,167790,1,4,0:3:0:0:
152,104,167963,2,0,L|120:248,1,135.000005149842,8|2,0:3|0:0,0:0:0:0:
352,224,168307,6,0,L|456:120,1,135.000005149842,4|2,0:3|0:0,0:0:0:0:
152,216,168652,2,0,L|287:216,2,135.000005149842,2|2|2,0:1|0:0|0:1,0:0:0:0:
424,272,169169,1,2,0:1:0:0:
289,272,169341,1,8,0:3:0:0:
154,272,169513,1,2,0:0:0:0:
224,272,169600,1,0,0:0:0:0:
424,272,169687,6,0,L|320:168,1,135.000005149842,4|2,0:3|0:0,0:0:0:0:
89,272,170032,2,0,L|225:272,2,135.000005149842,2|2|2,0:1|0:0|0:1,0:0:0:0:
288,272,170549,2,0,L|320:136,1,135.000005149842,2|8,0:1|0:3,0:0:0:0:
160,272,170894,1,2,0:0:0:0:
423,272,171066,6,0,L|279:272,1,135.000005149842,4|2,0:3|0:0,0:0:0:0:
360,272,171325,1,0,0:0:0:0:
128,272,171411,1,8,0:3:0:0:
100,152,171583,1,2,0:0:0:0:
217,116,171755,1,2,0:3:0:0:
392,128,171928,2,0,L|256:128,2,135.000005149842,4|8|2,0:3|0:3|0:0,0:0:0:0:
104,256,172445,6,0,L|80:112,1,135.000005149842,4|2,0:3|0:0,0:0:0:0:
256,120,172790,2,0,L|189:120,2,67.5000025749208,8|0|2,0:3|0:0|0:0,0:0:0:0:
488,128,173135,1,2,0:3:0:0:
192,120,173307,1,4,0:3:0:0:
392,120,173480,1,8,0:3:0:0:
288,120,173652,1,2,0:0:0:0:
48,112,173825,6,0,L|24:264,1,135.000005149842,4|2,0:3|0:0,0:0:0:0:
288,112,174169,2,0,L|144:112,2,135.000005149842,2|2|2,0:1|0:0|0:1,0:0:0:0:
96,112,174687,1,2,0:1:0:0:
360,112,174859,2,0,L|464:216,1,135.000005149842,8|2,0:3|0:0,0:0:0:0:
184,112,175204,5,4,0:3:0:0:
360,112,175376,1,2,0:0:0:0:
88,112,175549,2,0,L|224:112,2,135.000005149842,2|0|2,0:1|0:0|0:1,0:0:0:0:
424,112,176066,1,2,0:1:0:0:
152,112,176238,2,0,L|136:256,1,135.000005149842,2|2,0:1|0:0,0:0:0:0:
427,112,176583,6,0,L|360:112,1,67.5000025749208,4|0,0:3|0:0,0:0:0:0:
160,112,176756,2,0,L|248:112,1,67.5000025749208,2|0,0:0|0:0,0:0:0:0:
424,112,176928,2,0,L|280:112,1,135.000005149842,8|2,0:3|0:0,0:0:0:0:
192,112,177187,1,0,0:0:0:0:
352,112,177273,2,0,L|408:248,1,135.000005149842,2|4,0:3|0:3,0:0:0:0:
108,236,177618,1,8,0:3:0:0:
256,240,177790,2,0,L|336:240,1,67.5000025749208,2|0,0:0|0:0,0:0:0:0:
488,240,177963,6,0,L|332:240,1,135.000005149842,4|2,0:3|0:0,0:0:0:0:
159,240,178307,2,0,L|8:240,1,135.000005149842,8|2,0:3|0:0,0:0:0:0:
96,240,178566,1,0,0:0:0:0:
288,240,178652,1,2,0:3:0:0:
96,240,178825,2,0,L|240:240,2,135.000005149842,4|8|2,0:3|0:3|0:0,0:0:0:0:
448,232,179342,6,0,L|344:128,1,135.000005149842,4|2,0:3|0:0,0:0:0:0:
192,144,179687,2,0,L|384:144,1,135.000005149842,2|2,0:1|0:0,0:0:0:0:
96,144,180032,1,2,0:1:0:0:
408,144,180204,1,2,0:1:0:0:
224,144,180376,2,0,L|328:248,1,135.000005149842,8|2,0:3|0:0,0:0:0:0:
64,144,180721,6,0,L|48:288,1,135.000005149842,4|2,0:3|0:0,0:0:0:0:
288,144,181066,2,0,L|152:144,2,135.000005149842,2|2|2,0:1|0:0|0:1,0:0:0:0:
120,144,181583,1,2,0:1:0:0:
352,144,181756,2,0,L|272:144,1,67.5000025749208,8|0,0:3|0:0,0:0:0:0:
224,144,181928,2,0,L|304:144,1,67.5000025749208,2|0,0:0|0:0,0:0:0:0:
472,144,182100,6,0,L|368:248,1,135.000005149842,4|2,0:3|0:0,0:0:0:0:
135,239,182445,1,8,0:3:0:0:
256,240,182618,1,2,0:0:0:0:
72,240,182790,1,2,0:3:0:0:
320,240,182963,2,0,L|384:176,1,67.5000025749208,4|0,0:3|0:0,0:0:0:0:
224,240,183135,2,0,L|128:144,1,135.000005149842,8|2,0:3|0:0,0:0:0:0:
424,240,183480,6,0,L|440:88,1,135.000005149842,4|2,0:3|0:0,0:0:0:0:
184,216,183825,2,0,L|336:216,2,135.000005149842,8|2|2,0:3|0:0|0:3,0:0:0:0:
424,216,184342,1,4,0:3:0:0:
120,216,184514,1,8,0:3:0:0:
288,216,184687,1,2,0:0:0:0:
32,216,184859,6,0,L|152:216,2,107.999996704102,4|4|8,0:3|0:3|0:3,0:0:0:0:
336,216,185376,2,0,L|216:216,2,107.999996704102,4|4|4,0:3|0:3|0:3,0:0:0:0:
64,160,185894,2,0,L|184:160,1,107.999996704102,8|4,0:3|0:3,0:0:0:0:
400,160,186238,5,4,0:3:0:0:
256,160,186411,1,4,0:3:0:0:
488,160,186583,2,0,L|504:88,1,53.9999983520508,8|0,0:3|0:0,0:0:0:0:
440,80,186756,2,0,L|360:80,1,53.9999983520508,4|0,0:3|0:0,0:0:0:0:
128,80,186928,1,4,0:3:0:0:
384,80,187100,1,4,0:3:0:0:
64,80,187273,2,0,L|152:168,1,107.999996704102,8|4,0:3|0:3,0:0:0:0:
256,192,187618,12,0,198652,0:0:0:0:
