osu file format v14

[General]
AudioFilename: audio.mp3
AudioLeadIn: 0
PreviewTime: 47317
Countdown: 0
SampleSet: Normal
StackLeniency: 0.7
Mode: 0
LetterboxInBreaks: 0
WidescreenStoryboard: 0

[Editor]
Bookmarks: 29845,49788,69731,89674,109617,139204,149175,169118,189061,209004
DistanceSpacing: 0.9
BeatDivisor: 4
GridSize: 4
TimelineZoom: 1.7

[Metadata]
Title:Blood Sugar
TitleUnicode:Blood Sugar
Artist:Pendulum
ArtistUnicode:Pendulum
Creator:Natteke
Version:Nsane
Source:
Tags:
BeatmapID:1088503
BeatmapSetID:512152

[Difficulty]
HPDrainRate:7
CircleSize:4
OverallDifficulty:8
ApproachRate:9.5
SliderMultiplier:1.9
SliderTickRate:1

[Events]
//Background and Video events
0,0,"bg.jpg",0,0
//Break Periods
//Storyboard Layer 0 (Background)
//Storyboard Layer 1 (Fail)
//Storyboard Layer 2 (Pass)
//Storyboard Layer 3 (Foreground)
//Storyboard Sound Samples

[TimingPoints]
9925,311.607374707868,4,1,1,55,1,0
78712,-125,4,1,0,55,0,0
79023,-100,4,1,0,55,0,0
86502,-100,4,1,0,15,0,0
86892,-100,4,1,1,55,0,0
129233,311.607374707868,4,1,1,55,1,0

[Colours]
Combo1 : 17,254,176
Combo2 : 173,255,95
Combo3 : 255,88,100
Combo4 : 255,94,55

[HitObjects]
86,313,29867,6,0,P|152:240|145:123,1,190
256,348,30491,1,0,0:0:0:0:
220,32,30802,1,0,0:0:0:0:
444,176,31114,5,0,0:0:0:0:
352,80,31270,1,0,0:0:0:0:
266,253,31425,2,0,L|254:357,1,95
132,224,31737,2,0,L|96:36,1,190
415,37,32360,6,0,L|380:224,1,190
448,320,32828,1,0,0:0:0:0:
316,316,32983,2,0,P|224:324|136:272,1,190
112,36,33607,1,0,0:0:0:0:
228,152,33762,1,0,0:0:0:0:
56,188,33918,1,0,0:0:0:0:
208,52,34074,1,0,0:0:0:0:
40,96,34230,2,0,P|132:120|144:216,1,190
20,324,34853,6,0,P|116:320|216:340,1,190
476,240,35476,2,0,P|381:254|286:293,1,190
192,40,35944,1,0,0:0:0:0:
200,236,36100,2,0,P|152:240|96:236,1,95
284,136,36411,2,0,P|330:142|376:156,1,95
80,151,36723,2,0,P|162:105|208:24,1,190
232,364,37346,6,0,P|224:292|192:224,1,142.5
124,216,37658,1,0,0:0:0:0:
416,160,37813,1,0,0:0:0:0:
248,40,37969,2,0,P|252:128|308:220,1,190
400,316,38437,1,0,0:0:0:0:
68,60,38592,6,0,L|80:160,1,95
400,190,38904,2,0,L|412:96,1,95
241,170,39216,2,0,B|236:240|236:240|204:276|204:276|200:348,1,190
74,77,39839,6,0,P|104:114|148:141,1,95
340,68,40150,2,0,P|303:98|276:141,1,95
268,312,40462,2,0,P|237:275|96:236,1,190
28,304,40929,1,0,0:0:0:0:
484,200,41085,6,0,P|448:228|392:240,1,95
224,312,41397,2,0,P|269:323|307:352,1,95
76,240,41708,2,0,P|52:160|92:80,1,142.5
252,128,42020,2,0,L|157:138,1,95
304,284,42332,6,0,L|512:268,1,190
256,216,42799,1,0,0:0:0:0:
18,269,42955,2,0,L|208:284,1,190
208,284,43578,1,0,0:0:0:0:
164,152,43734,1,0,0:0:0:0:
304,32,43890,1,0,0:0:0:0:
348,164,44046,1,0,0:0:0:0:
212,288,44201,2,0,B|224:236|268:220|268:220|300:256|364:252,1,190
444,316,44825,5,0,0:0:0:0:
456,216,44980,1,0,0:0:0:0:
372,256,45136,1,0,0:0:0:0:
366,155,45291,1,0,0:0:0:0:
288,228,45448,1,0,0:0:0:0:
264,129,45603,1,0,0:0:0:0:
200,216,45759,1,0,0:0:0:0:
159,122,45914,1,0,0:0:0:0:
104,212,46071,5,0,0:0:0:0:
184,32,46227,2,0,P|192:88|204:128,1,95
256,344,46538,1,0,0:0:0:0:
309,124,46694,2,0,P|321:79|328:32,1,95
408,212,47006,1,0,0:0:0:0:
104,172,47162,1,0,0:0:0:0:
220,304,47317,5,0,0:0:0:0:
256,216,47473,1,0,0:0:0:0:
320,292,47629,1,0,0:0:0:0:
182,234,47785,5,0,0:0:0:0:
278,347,47941,1,0,0:0:0:0:
332,216,48096,1,0,0:0:0:0:
168,348,48252,5,0,0:0:0:0:
246,157,48408,1,0,0:0:0:0:
386,321,48564,1,0,0:0:0:0:
388,60,48720,5,0,0:0:0:0:
84,152,48875,1,0,0:0:0:0:
436,144,49031,5,0,0:0:0:0:
53,237,49186,1,0,0:0:0:0:
449,247,49343,1,0,0:0:0:0:
32,176,49499,2,0,L|6:172,5,23.75
44,56,49810,6,2,P|106:69|147:73,1,95,6|0,0:0|0:0,0:0:0:0:
380,128,50122,2,2,P|427:122|473:111,1,95,8|2,0:0|0:0,0:0:0:0:
224,248,50433,2,2,P|168:266|80:300,1,142.5,2|0,0:0|0:0,0:0:0:0:
224,340,50745,2,2,P|280:353|332:356,1,95,10|0,0:0|0:0,0:0:0:0:
104,96,51057,5,6,0:0:0:0:
224,340,51212,1,2,0:0:0:0:
348,188,51368,2,2,P|364:136|360:80,1,95,8|2,0:0|0:0,0:0:0:0:
104,96,51680,2,2,P|112:157|140:216,1,95,2|0,0:0|0:0,0:0:0:0:
156,260,51914,1,0,0:0:0:0:
156,260,51991,1,8,0:0:0:0:
228,24,52147,1,0,0:0:0:0:
264,336,52303,6,0,P|252:232|248:160,1,142.5,6|0,0:0|0:0,0:0:0:0:
288,128,52615,1,8,0:0:0:0:
452,200,52771,1,2,0:0:0:0:
144,312,52926,1,2,0:0:0:0:
8,244,53082,1,0,0:0:0:0:
120,56,53238,2,0,P|148:132|156:168,1,95,8|0,0:0|0:0,0:0:0:0:
164,224,53472,1,0,0:0:0:0:
164,224,53550,5,6,0:0:0:0:
320,236,53705,1,2,0:0:0:0:
484,244,53861,1,8,0:0:0:0:
320,248,54017,1,2,0:0:0:0:
160,236,54173,2,2,P|104:268|52:288,1,95,2|0,0:0|0:0,0:0:0:0:
152,48,54484,1,8,0:0:0:0:
152,48,54562,1,0,0:0:0:0:
152,48,54640,1,0,0:0:0:0:
152,48,54718,1,0,0:0:0:0:
156,52,54796,6,0,P|200:72|252:80,1,95,6|0,0:0|0:0,0:0:0:0:
128,240,55108,2,2,P|92:284|72:328,1,95,10|0,0:0|0:0,0:0:0:0:
444,340,55419,2,2,P|432:276|392:220,1,95,2|0,0:0|0:0,0:0:0:0:
364,200,55653,1,0,0:0:0:0:
364,200,55731,2,2,L|256:196,1,95,8|0,0:0|0:0,0:0:0:0:
28,152,56042,6,2,L|128:156,1,95,4|2,0:0|0:0,0:0:0:0:
260,356,56354,2,0,L|268:256,1,95,8|2,0:0|0:0,0:0:0:0:
456,40,56666,2,0,L|444:236,1,190,2|8,0:0|0:0,0:0:0:0:
232,312,57133,1,0,0:0:0:0:
232,312,57211,1,0,0:0:0:0:
232,312,57289,6,0,L|132:308,1,95,6|0,0:0|0:0,0:0:0:0:
368,328,57600,1,10,0:0:0:0:
108,120,57756,1,2,0:0:0:0:
288,200,57912,2,2,L|124:192,1,142.5,2|0,0:0|0:0,0:0:0:0:
68,188,58224,2,0,P|84:240|108:276,1,95,8|0,0:0|0:0,0:0:0:0:
232,32,58535,5,2,0:0:0:0:
212,120,58691,1,2,0:0:0:0:
268,184,58847,1,10,0:0:0:0:
212,252,59003,2,2,P|216:308|332:352,1,190,2|0,0:0|0:0,0:0:0:0:
312,256,59470,1,10,0:0:0:0:
44,320,59626,1,2,0:0:0:0:
112,48,59782,6,0,P|132:120|164:200,1,142.5,6|0,0:0|0:0,0:0:0:0:
356,200,60093,2,2,L|456:208,1,95,10|0,0:0|0:0,0:0:0:0:
212,344,60405,2,2,L|112:340,1,95,2|0,0:0|0:0,0:0:0:0:
244,48,60717,2,2,L|252:196,1,142.5,10|0,0:0|0:0,0:0:0:0:
160,248,61028,5,6,0:0:0:0:
432,268,61184,1,2,0:0:0:0:
128,320,61340,2,0,P|88:280|80:236,1,95,8|2,0:0|0:0,0:0:0:0:
144,24,61651,2,2,P|184:64|192:108,1,95,2|0,0:0|0:0,0:0:0:0:
200,176,61885,1,0,0:0:0:0:
200,176,61963,2,0,L|344:180,1,142.5,8|0,0:0|0:0,0:0:0:0:
448,136,62275,6,2,L|456:36,1,95,6|0,0:0|0:0,0:0:0:0:
56,41,62586,2,0,L|64:136,1,95,8|2,0:0|0:0,0:0:0:0:
292,216,62898,2,2,P|296:168|296:121,1,95,2|0,0:0|0:0,0:0:0:0:
200,28,63209,1,8,0:0:0:0:
252,332,63365,1,0,0:0:0:0:
384,296,63521,6,0,L|488:288,1,95,6|2,0:0|0:0,0:0:0:0:
128,256,63833,2,2,L|24:248,1,95,8|2,0:0|0:0,0:0:0:0:
184,36,64144,2,0,P|192:84|196:136,1,95,2|0,0:0|0:0,0:0:0:0:
264,348,64456,2,0,P|268:280|292:200,1,142.5,8|0,0:0|0:0,0:0:0:0:
364,148,64767,6,0,P|413:146|464:136,1,95,6|0,0:0|0:0,0:0:0:0:
288,236,65079,2,0,P|333:248|387:250,1,95,10|0,0:0|0:0,0:0:0:0:
184,288,65391,2,2,P|224:311|276:327,1,95,2|0,0:0|0:0,0:0:0:0:
48,292,65702,2,2,P|80:324|127:354,1,95,10|0,0:0|0:0,0:0:0:0:
68,40,66014,6,0,P|122:78|174:147,1,142.5,6|0,0:0|0:0,0:0:0:0:
240,236,66325,2,2,P|250:191|260:136,1,95,10|0,0:0|0:0,0:0:0:0:
112,268,66637,1,2,0:0:0:0:
324,356,66793,1,0,0:0:0:0:
324,356,66871,1,0,0:0:0:0:
324,356,66949,1,10,0:0:0:0:
304,64,67104,1,0,0:0:0:0:
96,48,67260,6,0,P|88:104|88:144,1,95,4|2,0:0|0:0,0:0:0:0:
412,116,67572,2,0,P|420:172|420:212,1,95,8|0,0:0|0:0,0:0:0:0:
72,216,67883,2,0,P|43:256|8:289,1,95,2|0,0:0|0:0,0:0:0:0:
408,284,68195,2,2,P|437:324|472:357,1,95,10|0,0:0|0:0,0:0:0:0:
84,364,68507,5,8,0:0:0:0:
104,328,68585,1,8,0:0:0:0:
116,288,68662,1,0,0:0:0:0:
392,224,68818,1,8,0:0:0:0:
372,188,68896,1,8,0:0:0:0:
360,148,68973,1,0,0:0:0:0:
164,108,69130,1,8,0:0:0:0:
184,72,69208,1,8,0:0:0:0:
196,32,69285,1,0,0:0:0:0:
255,209,69442,2,0,L|244:352,1,142.5,8|0,0:0|0:0,0:0:0:0:
373,270,69753,6,0,L|380:176,1,95,6|0,0:0|0:0,0:0:0:0:
476,340,70065,1,8,0:0:0:0:
472,96,70221,1,0,0:0:0:0:
276,235,70376,2,0,P|229:229|186:209,1,95
188,56,70688,1,8,0:0:0:0:
328,96,70844,1,0,0:0:0:0:
76,216,71000,6,0,P|43:275|115:371,1,190,0|8,0:0|0:0,0:0:0:0:
340,184,71467,2,0,P|246:168|151:169,1,190
36,140,71934,2,0,L|24:32,1,95,8|0,0:0|0:0,0:0:0:0:
289,190,72246,6,0,L|300:96,1,95,6|0,0:0|0:0,0:0:0:0:
151,169,72558,1,8,0:0:0:0:
411,188,72713,2,0,P|457:107|430:19,1,190
304,168,73181,1,8,0:0:0:0:
484,272,73337,1,0,0:0:0:0:
188,200,73492,6,0,P|141:210|97:227,1,95
332,100,73804,2,0,P|379:98|426:99,1,95,8|0,0:0|0:0,0:0:0:0:
296,272,74116,1,0,0:0:0:0:
160,104,74271,1,0,0:0:0:0:
404,172,74427,1,8,0:0:0:0:
264,356,74583,1,0,0:0:0:0:
243,28,74739,6,0,P|289:15|336:8,1,95,6|0,0:0|0:0,0:0:0:0:
404,172,75050,1,8,0:0:0:0:
168,140,75206,2,0,P|98:84|-5:70,1,190
120,348,75674,2,0,P|151:312|173:270,1,95,8|0,0:0|0:0,0:0:0:0:
340,84,75985,6,0,L|343:178,1,95
172,96,76297,2,0,L|175:1,1,95,8|0,0:0|0:0,0:0:0:0:
252,164,76608,1,0,0:0:0:0:
64,120,76764,1,0,0:0:0:0:
447,119,76920,2,0,L|444:25,1,95,8|0,0:0|0:0,0:0:0:0:
164,200,77232,6,0,L|167:294,1,95,6|0,0:0|0:0,0:0:0:0:
360,76,77543,1,8,0:0:0:0:
208,116,77699,2,0,P|113:113|27:75,1,190
335,183,78167,2,0,P|340:231|329:277,1,95,8|0,0:0|0:0,0:0:0:0:
312,80,78478,5,6,0:0:0:0:
312,80,78634,1,0,0:0:0:0:
416,108,78790,2,0,P|453:102|488:88,1,76,8|0,0:0|0:0,0:0:0:0:
480,244,79101,1,2,0:2:0:0:
480,244,79257,1,2,0:2:0:0:
32,244,79413,5,8,0:0:0:0:
32,244,79725,6,0,L|24:149,1,95,6|0,0:0|0:0,0:0:0:0:
124,364,80036,1,8,0:0:0:0:
139,144,80192,2,0,L|144:40,1,95
0,0,80504,1,0,0:0:0:0:
252,128,80659,2,0,P|300:112|336:78,1,95,8|2,0:0|0:0,0:0:0:0:
416,297,80971,6,0,P|326:290|236:338,1,190,2|8,0:0|0:0,0:0:0:0:
488,352,81438,1,0,0:0:0:0:
268,216,81594,1,0,0:0:0:0:
432,168,81750,1,0,0:0:0:0:
80,104,81906,2,0,P|85:163|95:197,1,95,8|0,0:0|0:0,0:0:0:0:
416,197,82217,6,0,P|428:151|432:104,1,95,6|0,0:0|0:0,0:0:0:0:
128,32,82529,1,8,0:0:0:0:
223,208,82685,2,0,P|269:195|317:191,1,95
392,292,82996,1,0,0:0:0:0:
144,296,83152,2,0,P|97:288|52:272,1,95,8|0,0:0|0:0,0:0:0:0:
392,292,83464,6,0,P|436:275|483:268,1,95
291,180,83775,2,0,P|335:161|371:131,1,95,8|0,0:0|0:0,0:0:0:0:
268,332,84087,1,0,0:0:0:0:
468,360,84243,1,0,0:0:0:0:
88,356,84399,2,0,P|78:317|78:261,1,95,8|0,0:0|0:0,0:0:0:0:
307,39,84710,6,0,P|350:123|336:216,1,190,6|8,0:0|0:0,0:0:0:0:
212,84,85178,1,0,0:0:0:0:
212,84,85489,1,0,0:0:0:0:
284,312,85645,2,0,P|236:312|191:324,1,95,10|0,0:0|0:0,0:0:0:0:
484,376,85957,6,0,P|480:281|486:186,1,190,6|8,0:0|0:0,0:0:0:0:
512,76,86424,1,0,0:0:0:0:
404,48,86580,6,2,L|392:28,7,23.75,2|2|2|2|2|2|2|2,0:2|0:2|0:2|0:2|0:2|0:2|0:2|0:2,0:2:0:0:
376,159,86892,6,0,P|336:216|267:221,1,142.5,8|0,0:0|0:0,0:0:0:0:
172,204,87203,6,0,P|182:157|186:110,1,95,6|0,0:0|0:0,0:0:0:0:
287,313,87515,2,0,P|273:267|267:221,1,95,10|0,0:0|0:0,0:0:0:0:
120,336,87826,1,2,0:0:0:0:
120,336,87982,1,0,0:0:0:0:
376,320,88138,2,0,P|418:332|465:355,1,95,10|0,0:0|0:0,0:0:0:0:
262,119,88450,6,0,P|308:111|352:91,1,95,6|0,0:0|0:0,0:0:0:0:
176,248,88761,2,0,P|221:260|264:280,1,95,10|0,0:0|0:0,0:0:0:0:
72,320,89073,1,2,0:0:0:0:
0,88,89229,1,2,0:0:0:0:
392,200,89384,2,0,P|440:198|486:185,1,95,10|0,0:0|0:0,0:0:0:0:
