osu file format v14

[General]
AudioFilename: audio.mp3
AudioLeadIn: 0
PreviewTime: -1
Countdown: 0
SampleSet: Soft
StackLeniency: 0.2
Mode: 0
LetterboxInBreaks: 0
WidescreenStoryboard: 0

[Editor]
Bookmarks: 113418,132472
DistanceSpacing: 0.8
BeatDivisor: 16
GridSize: 4
TimelineZoom: 8

[Metadata]
Title:No Mercy
TitleUnicode:No Mercy
Artist:PelleK
ArtistUnicode:PelleK
Creator:ju_
Version:AAAAAAAAAAAAAAAAAAAAAAAAA
Source:
Tags:tracer
BeatmapID:1891386
BeatmapSetID:906327

[Difficulty]
HPDrainRate:10
CircleSize:4
OverallDifficulty:10
ApproachRate:9.6
SliderMultiplier:2
SliderTickRate:1

[Events]
//Background and Video events
//Break Periods
//Storyboard Layer 0 (Background)
//Storyboard Layer 1 (Fail)
//Storyboard Layer 2 (Pass)
//Storyboard Layer 3 (Foreground)
//Storyboard Sound Samples

[TimingPoints]
9240,285.714285714286,4,2,0,100,1,0
99525,-50,4,2,0,100,0,0
102954,-33.3333333333333,4,2,0,100,0,0
110954,-28.5714285714286,4,2,0,100,0,0
112097,-25,4,2,0,100,0,0
113811,-100,4,2,0,100,0,0
131525,-100,4,2,0,100,0,0

[HitObjects]
232,317,94954,5,0,0:0:0:0:
185,299,95025,1,0,0:0:0:0:
147,267,95096,1,0,0:0:0:0:
124,223,95168,1,0,0:0:0:0:
119,173,95239,1,0,0:0:0:0:
131,125,95311,1,0,0:0:0:0:
160,85,95382,1,0,0:0:0:0:
202,58,95453,1,0,0:0:0:0:
250,47,95525,1,0,0:0:0:0:
299,55,95596,1,0,0:0:0:0:
342,80,95668,1,0,0:0:0:0:
373,119,95739,1,0,0:0:0:0:
388,166,95811,1,0,0:0:0:0:
385,216,95882,1,0,0:0:0:0:
364,261,95953,1,0,0:0:0:0:
329,296,96025,1,0,0:0:0:0:
283,315,96096,5,0,0:0:0:0:
250,47,96240,1,0,0:0:0:0:
152,314,96382,1,0,0:0:0:0:
469,240,96525,1,0,0:0:0:0:
34,75,96668,1,0,0:0:0:0:
249,347,96811,1,0,0:0:0:0:
463,49,96954,1,0,0:0:0:0:
32,330,97097,1,0,0:0:0:0:
245,33,97240,5,0,0:0:0:0:
330,342,97382,1,0,0:0:0:0:
245,33,97525,1,0,0:0:0:0:
165,332,97668,1,0,0:0:0:0:
245,33,97811,1,0,0:0:0:0:
330,342,97954,1,0,0:0:0:0:
245,33,98097,1,0,0:0:0:0:
165,332,98240,1,0,0:0:0:0:
45,51,98382,6,0,L|88:81,1,50
457,237,98525,2,0,L|411:181,1,50
314,29,98668,2,0,L|261:97,1,50
84,297,98811,2,0,L|160:289,1,50
432,283,98954,2,0,L|395:229,1,50
302,40,99097,2,0,L|348:120,1,50
432,283,99240,2,0,L|392:222,1,50
307,38,99382,2,0,L|340:108,1,50
33,82,99525,6,0,L|143:111,1,100
481,124,99668,2,0,L|327:163,1,100
14,162,99811,2,0,L|124:191,1,100
462,204,99954,2,0,L|308:243,1,100
24,244,100097,2,0,L|134:273,1,100
472,286,100240,2,0,L|318:325,1,100
24,244,100382,2,0,L|134:273,1,100
472,286,100525,2,0,L|318:325,1,100
35,342,100668,5,0,0:0:0:0:
100,33,100811,1,0,0:0:0:0:
160,344,100954,1,0,0:0:0:0:
229,37,101097,1,0,0:0:0:0:
279,344,101240,1,0,0:0:0:0:
353,40,101382,1,0,0:0:0:0:
405,340,101525,1,0,0:0:0:0:
483,33,101668,1,0,0:0:0:0:
480,342,101811,5,0,0:0:0:0:
457,191,101882,1,0,0:0:0:0:
419,40,101954,1,0,0:0:0:0:
385,192,102025,1,0,0:0:0:0:
333,340,102097,1,0,0:0:0:0:
314,194,102168,1,0,0:0:0:0:
270,46,102240,1,0,0:0:0:0:
249,193,102311,1,0,0:0:0:0:
204,337,102382,1,0,0:0:0:0:
192,198,102454,1,0,0:0:0:0:
158,35,102525,1,0,0:0:0:0:
129,199,102597,1,0,0:0:0:0:
79,338,102668,1,0,0:0:0:0:
66,199,102740,1,0,0:0:0:0:
6,35,102811,1,0,0:0:0:0:
5,203,102882,1,0,0:0:0:0:
12,340,102954,6,0,L|172:286,1,150.000005722046
500,340,103097,6,0,L|340:286,1,150.000005722046
8,261,103240,6,0,L|168:207,1,150.000005722046
496,261,103383,6,0,L|336:207,1,150.000005722046
14,181,103525,6,0,L|174:127,1,150.000005722046
502,181,103668,6,0,L|342:127,1,150.000005722046
11,105,103811,6,0,L|171:51,1,150.000005722046
499,105,103954,6,0,L|339:51,1,150.000005722046
3,25,104097,6,0,L|130:68,1,75.0000028610231
491,25,104168,6,0,L|359:70,1,75.0000028610231
0,74,104240,6,0,L|127:117,1,75.0000028610231
488,74,104311,6,0,L|356:119,1,75.0000028610231
0,118,104382,6,0,L|127:161,1,75.0000028610231
488,118,104453,6,0,L|356:163,1,75.0000028610231
0,164,104525,6,0,L|127:207,1,75.0000028610231
488,164,104596,6,0,L|356:209,1,75.0000028610231
0,203,104668,6,0,L|127:246,1,75.0000028610231
488,203,104739,6,0,L|356:248,1,75.0000028610231
0,247,104811,6,0,L|127:290,1,75.0000028610231
488,247,104882,6,0,L|356:292,1,75.0000028610231
0,284,104954,6,0,L|127:327,1,75.0000028610231
488,284,105025,6,0,L|356:329,1,75.0000028610231
0,334,105097,6,0,L|127:377,1,75.0000028610231
488,334,105168,6,0,L|356:379,1,75.0000028610231
54,102,105240,5,0,0:0:0:0:
254,351,105382,1,0,0:0:0:0:
454,98,105525,1,0,0:0:0:0:
254,351,105668,1,0,0:0:0:0:
54,282,105811,5,0,0:0:0:0:
254,33,105953,1,0,0:0:0:0:
454,286,106096,1,0,0:0:0:0:
254,33,106239,1,0,0:0:0:0:
346,31,106382,5,0,0:0:0:0:
97,190,106524,1,0,0:0:0:0:
351,345,106667,1,0,0:0:0:0:
97,190,106810,1,0,0:0:0:0:
166,348,106954,5,0,0:0:0:0:
415,193,107096,1,0,0:0:0:0:
156,32,107239,1,0,0:0:0:0:
415,193,107382,1,0,0:0:0:0:
256,348,107525,5,0,0:0:0:0:
256,35,107668,1,0,0:0:0:0:
145,302,107811,1,0,0:0:0:0:
366,81,107954,1,0,0:0:0:0:
99,191,108097,1,0,0:0:0:0:
412,192,108240,1,0,0:0:0:0:
145,81,108382,1,0,0:0:0:0:
366,302,108525,1,0,0:0:0:0:
99,191,108668,5,0,0:0:0:0:
412,192,108811,1,0,0:0:0:0:
46,136,108954,1,0,0:0:0:0:
470,247,109097,1,0,0:0:0:0:
17,67,109240,1,0,0:0:0:0:
503,316,109382,1,0,0:0:0:0:
1,2,109525,1,0,0:0:0:0:
508,379,109668,1,0,0:0:0:0:
41,38,109811,6,0,L|79:189,1,150.000005722046
99,365,109954,2,0,L|137:214,1,150.000005722046
140,38,110097,6,0,L|178:189,1,150.000005722046
198,365,110240,2,0,L|236:214,1,150.000005722046
246,34,110382,6,0,L|284:185,1,150.000005722046
304,361,110525,2,0,L|342:210,1,150.000005722046
359,32,110668,6,0,L|397:183,1,150.000005722046
417,359,110811,2,0,L|455:208,1,150.000005722046
475,32,110954,6,0,L|444:160,1,87.500000834465
417,359,111025,2,0,L|384:225,1,87.500000834465
359,32,111097,6,0,L|328:160,1,87.500000834465
301,359,111168,2,0,L|268:225,1,87.500000834465
246,34,111240,6,0,L|215:162,1,87.500000834465
188,361,111311,2,0,L|155:227,1,87.500000834465
140,38,111382,6,0,L|109:166,1,87.500000834465
82,365,111453,2,0,L|49:231,1,87.500000834465
24,38,111525,6,0,L|55:166,1,87.500000834465
82,365,111596,2,0,L|115:231,1,87.500000834465
140,38,111668,6,0,L|171:166,1,87.500000834465
198,365,111739,2,0,L|231:231,1,87.500000834465
253,40,111811,6,0,L|284:168,1,87.500000834465
311,367,111882,2,0,L|344:233,1,87.500000834465
359,44,111953,6,0,L|390:172,1,87.500000834465
417,371,112024,2,0,L|450:237,1,87.500000834465
474,35,112097,6,0,L|475:100,1,50
474,349,112132,6,0,L|475:284,1,50
441,35,112168,6,0,L|442:100,1,50
441,349,112203,6,0,L|442:284,1,50
400,36,112240,6,0,L|401:101,1,50
400,350,112275,6,0,L|401:285,1,50
356,37,112311,6,0,L|357:102,1,50
356,351,112346,6,0,L|357:286,1,50
318,41,112382,6,0,L|319:106,1,50
318,355,112417,6,0,L|319:290,1,50
275,42,112454,6,0,L|276:107,1,50
275,356,112489,6,0,L|276:291,1,50
224,42,112525,6,0,L|225:107,1,50
224,356,112560,6,0,L|225:291,1,50
178,39,112597,6,0,L|179:104,1,50
178,353,112632,6,0,L|179:288,1,50
38,35,112668,6,0,L|37:100,1,50
38,349,112703,6,0,L|37:284,1,50
71,35,112739,6,0,L|70:100,1,50
71,349,112774,6,0,L|70:284,1,50
112,36,112811,6,0,L|111:101,1,50
112,350,112846,6,0,L|111:285,1,50
156,37,112882,6,0,L|125:103,1,50
156,351,112917,6,0,L|131:290,1,50
53,188,112954,5,0,0:0:0:0:
463,191,112972,5,0,0:0:0:0:
82,87,112990,5,0,0:0:0:0:
435,294,113008,5,0,0:0:0:0:
78,290,113025,5,0,0:0:0:0:
434,87,113043,5,0,0:0:0:0:
435,294,113061,5,0,0:0:0:0:
395,293,113079,1,0,0:0:0:0:
347,291,113097,1,0,0:0:0:0:
303,295,113115,1,0,0:0:0:0:
266,291,113132,1,0,0:0:0:0:
223,295,113150,1,0,0:0:0:0:
188,293,113168,1,0,0:0:0:0:
142,288,113186,1,0,0:0:0:0:
78,290,113204,1,0,0:0:0:0:
82,87,113222,5,0,0:0:0:0:
122,88,113240,1,0,0:0:0:0:
170,90,113258,1,0,0:0:0:0:
214,86,113276,1,0,0:0:0:0:
251,90,113293,1,0,0:0:0:0:
294,86,113311,1,0,0:0:0:0:
329,88,113329,1,0,0:0:0:0:
375,93,113347,1,0,0:0:0:0:
439,91,113365,1,0,0:0:0:0:
53,188,113382,6,0,L|108:188,1,50
459,188,113400,6,0,L|404:188,1,50
53,188,113418,6,0,L|108:188,1,50
459,188,113436,6,0,L|404:188,1,50
53,188,113454,6,0,L|108:188,1,50
459,188,113472,6,0,L|404:188,1,50
53,188,113490,6,0,L|108:188,1,50
459,188,113508,6,0,L|404:188,1,50
95,36,113525,5,0,0:0:0:0:
30,101,113543,1,0,0:0:0:0:
97,169,113561,1,0,0:0:0:0:
156,101,113579,1,0,0:0:0:0:
411,42,113597,5,0,0:0:0:0:
346,107,113615,1,0,0:0:0:0:
413,175,113633,1,0,0:0:0:0:
472,107,113651,1,0,0:0:0:0:
100,229,113668,5,0,0:0:0:0:
35,294,113686,1,0,0:0:0:0:
102,362,113704,1,0,0:0:0:0:
161,294,113722,1,0,0:0:0:0:
411,248,113740,5,0,0:0:0:0:
346,313,113758,1,0,0:0:0:0:
413,381,113776,1,0,0:0:0:0:
472,313,113794,1,0,0:0:0:0:
254,195,113811,5,0,0:0:0:0:
122,88,113954,1,0,0:0:0:0:
102,362,114097,1,0,0:0:0:0:
441,316,114240,1,0,0:0:0:0:
392,146,114382,6,0,P|322:59|214:336,1,600
411,307,115525,1,0,0:0:0:0:
75,96,115811,1,0,0:0:0:0:
415,81,116097,1,0,0:0:0:0:
94,314,116382,1,0,0:0:0:0:
423,195,116668,6,0,L|264:131,1,150
185,160,116954,2,0,L|281:205,1,100
309,278,117168,2,0,L|147:213,1,150
108,253,117454,2,0,L|300:335,1,200
175,346,117811,2,0,L|287:131,1,200
250,43,118382,5,0,0:0:0:0:
112,223,118525,1,0,0:0:0:0:
377,214,118668,1,0,0:0:0:0:
252,320,118954,6,0,P|153:302|99:195,1,200
252,320,119454,2,0,P|351:302|405:195,1,200
251,64,120097,6,0,P|152:82|98:189,1,200
251,64,120597,2,0,P|350:82|404:189,1,200
135,279,121240,1,0,0:0:0:0:
302,50,121525,1,0,0:0:0:0:
302,333,121668,1,0,0:0:0:0:
135,104,121954,1,0,0:0:0:0:
404,192,122240,1,0,0:0:0:0:
184,192,122525,5,0,0:0:0:0:
330,193,122668,1,0,0:0:0:0:
141,102,122811,1,0,0:0:0:0:
365,271,122954,1,0,0:0:0:0:
216,32,123097,1,0,0:0:0:0:
296,340,123240,1,0,0:0:0:0:
466,200,123525,6,0,B|324:51|181:312|28:195,1,450
248,45,124382,1,0,0:0:0:0:
107,187,124668,1,0,0:0:0:0:
256,331,124954,1,0,0:0:0:0:
384,192,125240,5,0,0:0:0:0:
256,191,125382,1,0,0:0:0:0:
107,187,125525,1,0,0:0:0:0:
107,187,125811,6,0,L|261:187,1,150
384,192,126168,2,0,L|166:189,1,200
106,185,126597,2,0,L|371:183,1,250
258,51,127382,5,0,0:0:0:0:
250,330,127524,1,0,0:0:0:0:
385,106,127667,1,0,0:0:0:0:
122,262,127810,1,0,0:0:0:0:
72,62,128025,6,0,P|108:122|291:117,1,250
199,81,128525,2,0,P|298:51|363:131,1,200
255,229,128954,1,0,0:0:0:0:
448,226,129097,1,0,0:0:0:0:
53,301,129240,6,0,L|79:181,1,100
13,82,129668,1,0,0:0:0:0:
203,134,129954,1,0,0:0:0:0:
423,38,130382,6,0,P|472:129|438:198,1,175
479,357,130811,5,0,0:0:0:0:
29,31,131097,1,0,0:0:0:0:
256,33,131525,6,0,L|255:54,1,12.5
256,351,131543,6,0,L|257:330,1,12.5
310,42,131561,6,0,L|302:61,1,12.5
201,341,131579,6,0,L|209:322,1,12.5
358,70,131615,6,0,L|343:85,1,12.5
153,313,131633,6,0,L|168:298,1,12.5
393,112,131668,6,0,L|375:122,1,12.5
118,271,131686,6,0,L|136:261,1,12.5
412,164,131722,6,0,L|391:167,1,12.5
99,219,131740,6,0,L|120:216,1,12.5
412,219,131775,6,0,L|392:214,1,12.5,0|0,3:0|3:0,3:0:0:0:
99,164,131793,6,0,L|119:169,1,12.5,0|0,3:0|3:0,3:0:0:0:
393,271,131829,6,0,L|376:260,1,12.5
118,112,131847,6,0,L|135:123,1,12.5
358,313,131882,6,0,L|345:297,1,12.5
153,70,131900,6,0,L|166:86,1,12.5
310,341,131936,6,0,L|304:321,1,12.5
201,42,131954,6,0,L|207:62,1,12.5
256,351,131990,6,0,L|257:330,1,12.5
256,33,132008,6,0,L|255:54,1,12.5
201,341,132043,6,0,L|209:322,1,12.5
310,42,132061,6,0,L|302:61,1,12.5
153,313,132097,6,0,L|168:298,1,12.5
358,70,132115,6,0,L|343:85,1,12.5
118,271,132150,6,0,L|136:261,1,12.5
393,112,132168,6,0,L|375:122,1,12.5
99,219,132204,6,0,L|120:216,1,12.5
412,164,132222,6,0,L|391:167,1,12.5
99,164,132257,6,0,L|119:169,1,12.5,0|0,3:0|3:0,3:0:0:0:
412,219,132275,6,0,L|392:214,1,12.5,0|0,3:0|3:0,3:0:0:0:
118,112,132311,6,0,L|135:123,1,12.5
393,271,132329,6,0,L|376:260,1,12.5
153,70,132365,6,0,L|166:86,1,12.5,0|0,3:0|3:0,3:0:0:0:
358,313,132383,6,0,L|345:297,1,12.5,0|0,3:0|3:0,3:0:0:0:
256,32,132418,6,0,L|254:54,1,12.5,0|0,3:0|3:0,3:0:0:0:
255,351,132436,6,0,L|257:330,1,12.5,0|0,3:0|3:0,3:0:0:0:
183,192,132472,5,0,0:0:0:0:
330,193,132490,1,0,0:0:0:0:
257,125,132507,1,0,0:0:0:0:
257,258,132525,1,0,0:0:0:0:
183,192,132543,5,0,0:0:0:0:
330,193,132561,1,0,0:0:0:0:
257,125,132578,1,0,0:0:0:0:
257,258,132596,1,0,0:0:0:0:
183,192,132615,5,0,0:0:0:0:
330,193,132633,1,0,0:0:0:0:
257,125,132650,1,0,0:0:0:0:
257,258,132668,1,0,0:0:0:0:
