osu file format v14

[General]
AudioFilename: audio.mp3
AudioLeadIn: 0
PreviewTime: 55717
Countdown: 0
SampleSet: Normal
StackLeniency: 0.7
Mode: 3
LetterboxInBreaks: 0
SpecialStyle: 0
WidescreenStoryboard: 0

[Editor]
Bookmarks: 6626,18262,29898,41535,56080,67717,76444,79353,88080,93898
DistanceSpacing: 1
BeatDivisor: 4
GridSize: 4
TimelineZoom: 2

[Metadata]
Title:Butter-Fly
TitleUnicode:Butter-Fly
Artist:Pekka Kuorikoski
ArtistUnicode:Pekka Kuorikoski
Creator:Wh1teh
Version:k
Source:Digimon Adventure
Tags:Finnish Finland Suomi
BeatmapID:1485101
BeatmapSetID:701767

[Difficulty]
HPDrainRate:8.5
CircleSize:4
OverallDifficulty:8.5
ApproachRate:5
SliderMultiplier:1.4
SliderTickRate:1

[Events]
//Background and Video events
0,0,"digimonbg.jpg",0,0
//Break Periods
//Storyboard Layer 0 (Background)
//Storyboard Layer 1 (Fail)
//Storyboard Layer 2 (Pass)
//Storyboard Layer 3 (Foreground)
//Storyboard Sound Samples

[TimingPoints]
444,363.636363636364,4,1,1,100,1,0
808,363.636363636364,4,1,1,100,1,0

[HitObjects]
448,192,686,5,0,0:0:0:0:
320,192,747,1,0,0:0:0:0:
192,192,808,1,0,0:0:0:0:
64,192,868,1,0,0:0:0:0:
320,192,868,1,0,0:0:0:0:
448,192,868,1,0,0:0:0:0:
320,192,1171,1,0,0:0:0:0:
320,192,1353,1,0,0:0:0:0:
64,192,1535,1,0,0:0:0:0:
448,192,1535,1,0,0:0:0:0:
64,192,1717,1,0,0:0:0:0:
448,192,1717,1,0,0:0:0:0:
320,192,1898,1,0,0:0:0:0:
192,192,2080,1,0,0:0:0:0:
320,192,2262,1,0,0:0:0:0:
64,192,2262,1,0,0:0:0:0:
320,192,2444,1,0,0:0:0:0:
64,192,2444,1,0,0:0:0:0:
64,192,2626,1,0,0:0:0:0:
192,192,2626,1,0,0:0:0:0:
320,192,2762,1,0,0:0:0:0:
192,192,2808,128,0,3080:0:0:0:0:
448,192,2808,128,0,3080:0:0:0:0:
64,192,3171,1,0,0:0:0:0:
192,192,3171,1,0,0:0:0:0:
320,192,3171,1,0,0:0:0:0:
448,192,3353,1,0,0:0:0:0:
320,192,3353,1,0,0:0:0:0:
64,192,3353,1,0,0:0:0:0:
64,192,3535,1,0,0:0:0:0:
320,192,3535,1,0,0:0:0:0:
448,192,3535,1,0,0:0:0:0:
192,192,3717,1,0,0:0:0:0:
64,192,3717,1,0,0:0:0:0:
320,192,3717,1,0,0:0:0:0:
448,192,3717,1,0,0:0:0:0:
320,192,4080,1,0,0:0:0:0:
320,192,4262,1,0,0:0:0:0:
192,192,4444,1,0,0:0:0:0:
64,192,4444,1,0,0:0:0:0:
64,192,4626,1,0,0:0:0:0:
192,192,4626,1,0,0:0:0:0:
448,192,4717,1,0,0:0:0:0:
320,192,4808,1,0,0:0:0:0:
448,192,4808,1,0,0:0:0:0:
192,192,4989,1,0,0:0:0:0:
448,192,5171,1,0,0:0:0:0:
320,192,5201,1,0,0:0:0:0:
192,192,5232,1,0,0:0:0:0:
64,192,5262,1,0,0:0:0:0:
448,192,5292,1,0,0:0:0:0:
320,192,5323,1,0,0:0:0:0:
192,192,5353,1,0,0:0:0:0:
64,192,5383,1,0,0:0:0:0:
448,192,5414,1,0,0:0:0:0:
320,192,5444,1,0,0:0:0:0:
192,192,5489,1,0,0:0:0:0:
64,192,5535,1,0,0:0:0:0:
448,192,5580,1,0,0:0:0:0:
320,192,5626,1,0,0:0:0:0:
192,192,5671,1,0,0:0:0:0:
64,192,5717,1,0,0:0:0:0:
448,192,5762,1,0,0:0:0:0:
320,192,5808,1,0,0:0:0:0:
192,192,5853,1,0,0:0:0:0:
448,192,5898,1,0,0:0:0:0:
64,192,5898,1,0,0:0:0:0:
320,192,5989,1,0,0:0:0:0:
64,192,6080,1,0,0:0:0:0:
192,192,6080,1,0,0:0:0:0:
320,192,6171,1,0,0:0:0:0:
448,192,6171,1,0,0:0:0:0:
192,192,6262,1,0,0:0:0:0:
64,192,6262,1,0,0:0:0:0:
320,192,6353,1,0,0:0:0:0:
448,192,6353,1,0,0:0:0:0:
192,192,6444,1,0,0:0:0:0:
64,192,6444,1,0,0:0:0:0:
320,192,6535,1,0,0:0:0:0:
448,192,6535,1,0,0:0:0:0:
192,192,6626,1,0,0:0:0:0:
64,192,6626,1,0,0:0:0:0:
320,192,6686,1,0,0:0:0:0:
448,192,6747,1,0,0:0:0:0:
64,192,6808,1,0,0:0:0:0:
448,192,6868,1,0,0:0:0:0:
320,192,6929,1,0,0:0:0:0:
192,192,6989,1,0,0:0:0:0:
64,192,7050,1,0,0:0:0:0:
448,192,7111,1,0,0:0:0:0:
320,192,7171,1,0,0:0:0:0:
448,192,7232,1,0,0:0:0:0:
192,192,7262,1,0,0:0:0:0:
64,192,7292,1,0,0:0:0:0:
320,192,7353,1,0,0:0:0:0:
192,192,7414,1,0,0:0:0:0:
448,192,7444,1,0,0:0:0:0:
64,192,7474,1,0,0:0:0:0:
320,192,7535,1,0,0:0:0:0:
448,192,7595,1,0,0:0:0:0:
64,192,7656,1,0,0:0:0:0:
320,192,7717,1,0,0:0:0:0:
192,192,7717,1,0,0:0:0:0:
448,192,7777,1,0,0:0:0:0:
64,192,7838,1,0,0:0:0:0:
192,192,7898,1,0,0:0:0:0:
320,192,7959,1,0,0:0:0:0:
448,192,8020,1,0,0:0:0:0:
64,192,8080,1,0,0:0:0:0:
320,192,8080,1,0,0:0:0:0:
192,192,8141,1,0,0:0:0:0:
448,192,8201,1,0,0:0:0:0:
64,192,8262,1,0,0:0:0:0:
320,192,8323,1,0,0:0:0:0:
448,192,8383,1,0,0:0:0:0:
192,192,8444,1,0,0:0:0:0:
320,192,8504,1,0,0:0:0:0:
64,192,8565,1,0,0:0:0:0:
448,192,8626,1,0,0:0:0:0:
192,192,8626,1,0,0:0:0:0:
320,192,8686,1,0,0:0:0:0:
448,192,8747,1,0,0:0:0:0:
64,192,8808,1,0,0:0:0:0:
320,192,8868,1,0,0:0:0:0:
192,192,8929,1,0,0:0:0:0:
448,192,8989,1,0,0:0:0:0:
320,192,9050,1,0,0:0:0:0:
192,192,9111,1,0,0:0:0:0:
64,192,9171,1,0,0:0:0:0:
448,192,9232,1,0,0:0:0:0:
64,192,9292,1,0,0:0:0:0:
192,192,9353,1,0,0:0:0:0:
448,192,9414,1,0,0:0:0:0:
320,192,9444,1,0,0:0:0:0:
64,192,9474,1,0,0:0:0:0:
448,192,9535,1,0,0:0:0:0:
192,192,9595,1,0,0:0:0:0:
64,192,9656,1,0,0:0:0:0:
448,192,9717,1,0,0:0:0:0:
320,192,9777,1,0,0:0:0:0:
64,192,9838,1,0,0:0:0:0:
448,192,9898,1,0,0:0:0:0:
192,192,9959,1,0,0:0:0:0:
64,192,10020,1,0,0:0:0:0:
320,192,10080,1,0,0:0:0:0:
448,192,10141,1,0,0:0:0:0:
192,192,10171,1,0,0:0:0:0:
320,192,10201,1,0,0:0:0:0:
64,192,10262,1,0,0:0:0:0:
192,192,10323,1,0,0:0:0:0:
448,192,10353,1,0,0:0:0:0:
64,192,10383,1,0,0:0:0:0:
320,192,10444,1,0,0:0:0:0:
192,192,10504,1,0,0:0:0:0:
448,192,10565,1,0,0:0:0:0:
64,192,10626,1,0,0:0:0:0:
320,192,10626,1,0,0:0:0:0:
192,192,10686,1,0,0:0:0:0:
64,192,10747,1,0,0:0:0:0:
448,192,10808,1,0,0:0:0:0:
320,192,10868,1,0,0:0:0:0:
192,192,10929,1,0,0:0:0:0:
448,192,10989,1,0,0:0:0:0:
320,192,10989,1,0,0:0:0:0:
64,192,11050,1,0,0:0:0:0:
192,192,11111,1,0,0:0:0:0:
320,192,11171,1,0,0:0:0:0:
448,192,11232,1,0,0:0:0:0:
320,192,11292,1,0,0:0:0:0:
192,192,11353,1,0,0:0:0:0:
448,192,11414,1,0,0:0:0:0:
320,192,11474,1,0,0:0:0:0:
192,192,11535,1,0,0:0:0:0:
64,192,11535,1,0,0:0:0:0:
320,192,11595,1,0,0:0:0:0:
192,192,11656,1,0,0:0:0:0:
64,192,11717,1,0,0:0:0:0:
448,192,11777,1,0,0:0:0:0:
192,192,11838,1,0,0:0:0:0:
320,192,11898,1,0,0:0:0:0:
64,192,11959,1,0,0:0:0:0:
192,192,12020,1,0,0:0:0:0:
320,192,12080,1,0,0:0:0:0:
448,192,12141,1,0,0:0:0:0:
64,192,12201,1,0,0:0:0:0:
320,192,12262,1,0,0:0:0:0:
448,192,12323,1,0,0:0:0:0:
192,192,12353,1,0,0:0:0:0:
320,192,12383,1,0,0:0:0:0:
64,192,12444,1,0,0:0:0:0:
192,192,12504,1,0,0:0:0:0:
448,192,12565,1,0,0:0:0:0:
320,192,12626,1,0,0:0:0:0:
192,192,12686,1,0,0:0:0:0:
64,192,12747,1,0,0:0:0:0:
448,192,12808,1,0,0:0:0:0:
64,192,12868,1,0,0:0:0:0:
192,192,12929,1,0,0:0:0:0:
320,192,12989,1,0,0:0:0:0:
448,192,13050,1,0,0:0:0:0:
192,192,13080,1,0,0:0:0:0:
64,192,13111,1,0,0:0:0:0:
320,192,13171,1,0,0:0:0:0:
192,192,13232,1,0,0:0:0:0:
448,192,13262,1,0,0:0:0:0:
64,192,13292,1,0,0:0:0:0:
320,192,13353,1,0,0:0:0:0:
448,192,13414,1,0,0:0:0:0:
320,192,13474,1,0,0:0:0:0:
64,192,13535,1,0,0:0:0:0:
192,192,13535,1,0,0:0:0:0:
448,192,13595,1,0,0:0:0:0:
64,192,13656,1,0,0:0:0:0:
192,192,13717,1,0,0:0:0:0:
320,192,13777,1,0,0:0:0:0:
448,192,13838,1,0,0:0:0:0:
64,192,13898,1,0,0:0:0:0:
320,192,13898,1,0,0:0:0:0:
192,192,13959,1,0,0:0:0:0:
64,192,14020,1,0,0:0:0:0:
448,192,14080,1,0,0:0:0:0:
192,192,14141,1,0,0:0:0:0:
320,192,14201,1,0,0:0:0:0:
64,192,14262,1,0,0:0:0:0:
192,192,14323,1,0,0:0:0:0:
320,192,14383,1,0,0:0:0:0:
448,192,14444,1,0,0:0:0:0:
64,192,14444,1,0,0:0:0:0:
320,192,14504,1,0,0:0:0:0:
192,192,14565,1,0,0:0:0:0:
64,192,14626,1,0,0:0:0:0:
448,192,14686,1,0,0:0:0:0:
64,192,14747,1,0,0:0:0:0:
192,192,14808,1,0,0:0:0:0:
320,192,14868,1,0,0:0:0:0:
448,192,14929,1,0,0:0:0:0:
192,192,14989,1,0,0:0:0:0:
320,192,15050,1,0,0:0:0:0:
64,192,15111,1,0,0:0:0:0:
448,192,15171,1,0,0:0:0:0:
192,192,15232,1,0,0:0:0:0:
320,192,15262,1,0,0:0:0:0:
64,192,15292,1,0,0:0:0:0:
448,192,15353,1,0,0:0:0:0:
192,192,15414,1,0,0:0:0:0:
320,192,15474,1,0,0:0:0:0:
448,192,15535,1,0,0:0:0:0:
320,192,15595,1,0,0:0:0:0:
192,192,15656,1,0,0:0:0:0:
64,192,15717,1,0,0:0:0:0:
448,192,15777,1,0,0:0:0:0:
192,192,15838,1,0,0:0:0:0:
320,192,15898,1,0,0:0:0:0:
64,192,15959,1,0,0:0:0:0:
192,192,15989,1,0,0:0:0:0:
448,192,16020,1,0,0:0:0:0:
320,192,16080,1,0,0:0:0:0:
64,192,16141,1,0,0:0:0:0:
448,192,16171,1,0,0:0:0:0:
192,192,16201,1,0,0:0:0:0:
320,192,16262,1,0,0:0:0:0:
64,192,16323,1,0,0:0:0:0:
192,192,16383,1,0,0:0:0:0:
448,192,16444,1,0,0:0:0:0:
64,192,16444,1,0,0:0:0:0:
320,192,16504,1,0,0:0:0:0:
192,192,16565,1,0,0:0:0:0:
448,192,16626,1,0,0:0:0:0:
320,192,16686,1,0,0:0:0:0:
192,192,16747,1,0,0:0:0:0:
320,192,16808,1,0,0:0:0:0:
448,192,16808,1,0,0:0:0:0:
64,192,16808,1,0,0:0:0:0:
192,192,16898,1,0,0:0:0:0:
320,192,16989,1,0,0:0:0:0:
448,192,16989,1,0,0:0:0:0:
192,192,17080,5,0,0:0:0:0:
320,192,17171,5,0,0:0:0:0:
448,192,17171,1,0,0:0:0:0:
192,192,17353,5,0,0:0:0:0:
448,192,17353,1,0,0:0:0:0:
64,192,17353,1,0,0:0:0:0:
320,192,17444,1,0,0:0:0:0:
192,192,17535,1,0,0:0:0:0:
64,192,17535,1,0,0:0:0:0:
320,192,17626,1,0,0:0:0:0:
192,192,17717,1,0,0:0:0:0:
64,192,17717,1,0,0:0:0:0:
320,192,17898,5,0,0:0:0:0:
448,192,17898,1,0,0:0:0:0:
192,192,17989,1,0,0:0:0:0:
64,192,17989,1,0,0:0:0:0:
320,192,18080,1,0,0:0:0:0:
448,192,18080,1,0,0:0:0:0:
192,192,18171,1,0,0:0:0:0:
64,192,18171,1,0,0:0:0:0:
320,192,18262,1,0,0:0:0:0:
448,192,18262,1,0,0:0:0:0:
192,192,18308,1,0,0:0:0:0:
64,192,18353,1,0,0:0:0:0:
448,192,18398,1,0,0:0:0:0:
320,192,18444,1,0,0:0:0:0:
192,192,18489,1,0,0:0:0:0:
448,192,18535,1,0,0:0:0:0:
64,192,18580,1,0,0:0:0:0:
320,192,18626,1,0,0:0:0:0:
64,192,18808,1,0,0:0:0:0:
448,192,18808,1,0,0:0:0:0:
320,192,18989,1,0,0:0:0:0:
448,192,18989,1,0,0:0:0:0:
192,192,19035,1,0,0:0:0:0:
64,192,19080,1,0,0:0:0:0:
320,192,19126,1,0,0:0:0:0:
192,192,19171,1,0,0:0:0:0:
448,192,19217,1,0,0:0:0:0:
320,192,19262,1,0,0:0:0:0:
64,192,19308,1,0,0:0:0:0:
448,192,19353,1,0,0:0:0:0:
192,192,19353,1,0,0:0:0:0:
192,192,19535,5,0,0:0:0:0:
64,192,19535,1,0,0:0:0:0:
320,192,19580,1,0,0:0:0:0:
448,192,19626,1,0,0:0:0:0:
64,192,19671,1,0,0:0:0:0:
192,192,19717,1,0,0:0:0:0:
320,192,19762,1,0,0:0:0:0:
448,192,19808,1,0,0:0:0:0:
192,192,19853,1,0,0:0:0:0:
320,192,19898,1,0,0:0:0:0:
64,192,19944,1,0,0:0:0:0:
448,192,19989,1,0,0:0:0:0:
192,192,20035,1,0,0:0:0:0:
64,192,20080,1,0,0:0:0:0:
320,192,20126,1,0,0:0:0:0:
192,192,20171,1,0,0:0:0:0:
448,192,20217,1,0,0:0:0:0:
320,192,20262,1,0,0:0:0:0:
448,192,20353,1,0,0:0:0:0:
64,192,20444,1,0,0:0:0:0:
192,192,20444,1,0,0:0:0:0:
192,192,20626,1,0,0:0:0:0:
320,192,20808,1,0,0:0:0:0:
64,192,20808,1,0,0:0:0:0:
320,192,20989,1,0,0:0:0:0:
448,192,20989,1,0,0:0:0:0:
192,192,21035,1,0,0:0:0:0:
64,192,21080,1,0,0:0:0:0:
448,192,21126,1,0,0:0:0:0:
320,192,21171,1,0,0:0:0:0:
192,192,21217,1,0,0:0:0:0:
64,192,21262,1,0,0:0:0:0:
320,192,21308,1,0,0:0:0:0:
192,192,21353,1,0,0:0:0:0:
448,192,21353,1,0,0:0:0:0:
320,192,21535,1,0,0:0:0:0:
448,192,21535,1,0,0:0:0:0:
192,192,21717,1,0,0:0:0:0:
320,192,21717,1,0,0:0:0:0:
64,192,21898,1,0,0:0:0:0:
448,192,21898,1,0,0:0:0:0:
192,192,21944,1,0,0:0:0:0:
320,192,21989,1,0,0:0:0:0:
448,192,22035,1,0,0:0:0:0:
64,192,22080,1,0,0:0:0:0:
192,192,22126,1,0,0:0:0:0:
448,192,22171,1,0,0:0:0:0:
320,192,22217,1,0,0:0:0:0:
192,192,22262,1,0,0:0:0:0:
64,192,22262,1,0,0:0:0:0:
448,192,22444,5,0,0:0:0:0:
64,192,22444,1,0,0:0:0:0:
320,192,22489,1,0,0:0:0:0:
192,192,22535,1,0,0:0:0:0:
64,192,22580,1,0,0:0:0:0:
448,192,22626,1,0,0:0:0:0:
320,192,22671,1,0,0:0:0:0:
192,192,22717,1,0,0:0:0:0:
64,192,22762,1,0,0:0:0:0:
448,192,22808,1,0,0:0:0:0:
320,192,22853,1,0,0:0:0:0:
192,192,22898,1,0,0:0:0:0:
448,192,22944,1,0,0:0:0:0:
320,192,22989,1,0,0:0:0:0:
64,192,23035,1,0,0:0:0:0:
448,192,23080,1,0,0:0:0:0:
192,192,23126,1,0,0:0:0:0:
64,192,23171,1,0,0:0:0:0:
192,192,23262,1,0,0:0:0:0:
320,192,23353,1,0,0:0:0:0:
448,192,23353,1,0,0:0:0:0:
320,192,23535,1,0,0:0:0:0:
64,192,23535,1,0,0:0:0:0:
192,192,23717,1,0,0:0:0:0:
448,192,23717,1,0,0:0:0:0:
192,192,23898,1,0,0:0:0:0:
64,192,23898,1,0,0:0:0:0:
448,192,24080,1,0,0:0:0:0:
320,192,24080,1,0,0:0:0:0:
192,192,24126,1,0,0:0:0:0:
64,192,24171,1,0,0:0:0:0:
448,192,24217,1,0,0:0:0:0:
320,192,24262,1,0,0:0:0:0:
192,192,24308,1,0,0:0:0:0:
448,192,24353,1,0,0:0:0:0:
320,192,24398,1,0,0:0:0:0:
64,192,24444,1,0,0:0:0:0:
448,192,24489,1,0,0:0:0:0:
192,192,24535,1,0,0:0:0:0:
64,192,24580,1,0,0:0:0:0:
320,192,24626,1,0,0:0:0:0:
448,192,24671,1,0,0:0:0:0:
192,192,24717,1,0,0:0:0:0:
64,192,24762,1,0,0:0:0:0:
320,192,24808,1,0,0:0:0:0:
448,192,24808,1,0,0:0:0:0:
320,192,24989,1,0,0:0:0:0:
448,192,25171,1,0,0:0:0:0:
64,192,25171,1,0,0:0:0:0:
320,192,25353,1,0,0:0:0:0:
448,192,25353,1,0,0:0:0:0:
192,192,25398,1,0,0:0:0:0:
64,192,25444,1,0,0:0:0:0:
320,192,25489,1,0,0:0:0:0:
448,192,25535,1,0,0:0:0:0:
192,192,25580,1,0,0:0:0:0:
320,192,25626,1,0,0:0:0:0:
64,192,25671,1,0,0:0:0:0:
192,192,25717,1,0,0:0:0:0:
448,192,25717,1,0,0:0:0:0:
192,192,25898,1,0,0:0:0:0:
64,192,25898,1,0,0:0:0:0:
448,192,26080,1,0,0:0:0:0:
64,192,26080,1,0,0:0:0:0:
320,192,26126,1,0,0:0:0:0:
192,192,26171,1,0,0:0:0:0:
64,192,26217,1,0,0:0:0:0:
448,192,26262,1,0,0:0:0:0:
192,192,26353,1,0,0:0:0:0:
64,192,26444,1,0,0:0:0:0:
320,192,26444,1,0,0:0:0:0:
448,192,26489,1,0,0:0:0:0:
192,192,26535,1,0,0:0:0:0:
320,192,26580,1,0,0:0:0:0:
64,192,26626,1,0,0:0:0:0:
448,192,26626,1,0,0:0:0:0:
320,192,26717,1,0,0:0:0:0:
64,192,26808,1,0,0:0:0:0:
192,192,26853,1,0,0:0:0:0:
320,192,26898,1,0,0:0:0:0:
448,192,26944,1,0,0:0:0:0:
192,192,26989,1,0,0:0:0:0:
64,192,26989,1,0,0:0:0:0:
320,192,27035,1,0,0:0:0:0:
448,192,27080,1,0,0:0:0:0:
192,192,27126,1,0,0:0:0:0:
320,192,27171,1,0,0:0:0:0:
64,192,27217,1,0,0:0:0:0:
448,192,27262,1,0,0:0:0:0:
192,192,27308,1,0,0:0:0:0:
64,192,27353,1,0,0:0:0:0:
320,192,27398,1,0,0:0:0:0:
448,192,27444,1,0,0:0:0:0:
192,192,27489,1,0,0:0:0:0:
64,192,27535,1,0,0:0:0:0:
320,192,27535,1,0,0:0:0:0:
192,192,27717,1,0,0:0:0:0:
448,192,27717,1,0,0:0:0:0:
320,192,27717,1,0,0:0:0:0:
64,192,27898,1,0,0:0:0:0:
448,192,27898,1,0,0:0:0:0:
320,192,28080,1,0,0:0:0:0:
192,192,28080,1,0,0:0:0:0:
448,192,28262,128,0,28535:0:0:0:0:
320,192,28262,128,0,28535:0:0:0:0:
64,192,28262,128,0,28535:0:0:0:0:
192,192,28262,128,0,28535:0:0:0:0:
192,192,28626,1,0,0:0:0:0:
64,192,28626,1,0,0:0:0:0:
448,192,28626,1,0,0:0:0:0:
320,192,28808,1,0,0:0:0:0:
448,192,28808,1,0,0:0:0:0:
320,192,28989,1,0,0:0:0:0:
64,192,28989,1,0,0:0:0:0:
192,192,29171,1,0,0:0:0:0:
64,192,29171,1,0,0:0:0:0:
448,192,29171,1,0,0:0:0:0:
320,192,29353,1,0,0:0:0:0:
192,192,29353,1,0,0:0:0:0:
64,192,29535,1,0,0:0:0:0:
320,192,29535,1,0,0:0:0:0:
448,192,29535,1,0,0:0:0:0:
320,192,29717,1,0,0:0:0:0:
448,192,29717,1,0,0:0:0:0:
192,192,29808,1,0,0:0:0:0:
64,192,29808,1,0,0:0:0:0:
320,192,29898,1,0,0:0:0:0:
448,192,29898,1,0,0:0:0:0:
64,192,29989,1,0,0:0:0:0:
192,192,30080,1,0,0:0:0:0:
448,192,30080,1,0,0:0:0:0:
320,192,30141,1,0,0:0:0:0:
448,192,30201,1,0,0:0:0:0:
192,192,30262,1,0,0:0:0:0:
64,192,30262,1,0,0:0:0:0:
320,192,30323,1,0,0:0:0:0:
192,192,30383,1,0,0:0:0:0:
64,192,30444,1,0,0:0:0:0:
448,192,30444,1,0,0:0:0:0:
320,192,30626,1,0,0:0:0:0:
448,192,30626,1,0,0:0:0:0:
192,192,30671,1,0,0:0:0:0:
64,192,30717,1,0,0:0:0:0:
320,192,30762,1,0,0:0:0:0:
192,192,30808,1,0,0:0:0:0:
448,192,30868,1,0,0:0:0:0:
320,192,30929,1,0,0:0:0:0:
448,192,30989,1,0,0:0:0:0:
64,192,30989,1,0,0:0:0:0:
192,192,31080,1,0,0:0:0:0:
320,192,31171,1,0,0:0:0:0:
448,192,31171,1,0,0:0:0:0:
192,192,31232,1,0,0:0:0:0:
448,192,31292,1,0,0:0:0:0:
64,192,31353,1,0,0:0:0:0:
320,192,31535,1,0,0:0:0:0:
192,192,31535,1,0,0:0:0:0:
320,192,31626,1,0,0:0:0:0:
192,192,31626,1,0,0:0:0:0:
448,192,31717,1,0,0:0:0:0:
64,192,31717,1,0,0:0:0:0:
320,192,31898,1,0,0:0:0:0:
448,192,32080,1,0,0:0:0:0:
64,192,32080,1,0,0:0:0:0:
448,192,32171,1,0,0:0:0:0:
64,192,32171,1,0,0:0:0:0:
320,192,32262,1,0,0:0:0:0:
192,192,32262,1,0,0:0:0:0:
64,192,32444,1,0,0:0:0:0:
192,192,32444,1,0,0:0:0:0:
448,192,32626,1,0,0:0:0:0:
64,192,32626,1,0,0:0:0:0:
320,192,32671,1,0,0:0:0:0:
192,192,32717,1,0,0:0:0:0:
64,192,32762,1,0,0:0:0:0:
320,192,32808,1,0,0:0:0:0:
192,192,32853,1,0,0:0:0:0:
448,192,32898,1,0,0:0:0:0:
64,192,32944,1,0,0:0:0:0:
192,192,32989,1,0,0:0:0:0:
320,192,32989,1,0,0:0:0:0:
320,192,33171,1,0,0:0:0:0:
448,192,33171,1,0,0:0:0:0:
448,192,33353,1,0,0:0:0:0:
64,192,33353,1,0,0:0:0:0:
320,192,33398,1,0,0:0:0:0:
192,192,33444,1,0,0:0:0:0:
64,192,33489,1,0,0:0:0:0:
448,192,33535,1,0,0:0:0:0:
320,192,33580,1,0,0:0:0:0:
448,192,33626,1,0,0:0:0:0:
192,192,33671,1,0,0:0:0:0:
64,192,33717,1,0,0:0:0:0:
320,192,33717,1,0,0:0:0:0:
192,192,33898,1,0,0:0:0:0:
448,192,33898,1,0,0:0:0:0:
320,192,34080,1,0,0:0:0:0:
448,192,34080,1,0,0:0:0:0:
64,192,34126,1,0,0:0:0:0:
192,192,34171,1,0,0:0:0:0:
320,192,34217,1,0,0:0:0:0:
448,192,34262,1,0,0:0:0:0:
192,192,34353,1,0,0:0:0:0:
320,192,34444,1,0,0:0:0:0:
64,192,34444,1,0,0:0:0:0:
64,192,34535,1,0,0:0:0:0:
320,192,34535,1,0,0:0:0:0:
192,192,34626,1,0,0:0:0:0:
448,192,34626,1,0,0:0:0:0:
320,192,34808,1,0,0:0:0:0:
448,192,34989,1,0,0:0:0:0:
192,192,34989,1,0,0:0:0:0:
192,192,35080,1,0,0:0:0:0:
448,192,35080,1,0,0:0:0:0:
320,192,35171,1,0,0:0:0:0:
64,192,35171,1,0,0:0:0:0:
192,192,35262,1,0,0:0:0:0:
320,192,35353,1,0,0:0:0:0:
448,192,35353,1,0,0:0:0:0:
64,192,35444,1,0,0:0:0:0:
448,192,35535,1,0,0:0:0:0:
192,192,35535,1,0,0:0:0:0:
64,192,35626,1,0,0:0:0:0:
448,192,35717,1,0,0:0:0:0:
320,192,35717,1,0,0:0:0:0:
192,192,35762,1,0,0:0:0:0:
64,192,35808,1,0,0:0:0:0:
448,192,35853,1,0,0:0:0:0:
320,192,35898,1,0,0:0:0:0:
192,192,35944,1,0,0:0:0:0:
448,192,35989,1,0,0:0:0:0:
320,192,36035,1,0,0:0:0:0:
64,192,36080,1,0,0:0:0:0:
448,192,36126,1,0,0:0:0:0:
192,192,36171,1,0,0:0:0:0:
64,192,36217,1,0,0:0:0:0:
320,192,36262,1,0,0:0:0:0:
448,192,36308,1,0,0:0:0:0:
192,192,36353,1,0,0:0:0:0:
64,192,36398,1,0,0:0:0:0:
320,192,36444,1,0,0:0:0:0:
448,192,36444,1,0,0:0:0:0:
320,192,36626,1,0,0:0:0:0:
448,192,36808,1,0,0:0:0:0:
64,192,36853,1,0,0:0:0:0:
448,192,36898,1,0,0:0:0:0:
64,192,36944,1,0,0:0:0:0:
320,192,36989,1,0,0:0:0:0:
448,192,36989,1,0,0:0:0:0:
192,192,37050,1,0,0:0:0:0:
64,192,37111,1,0,0:0:0:0:
320,192,37171,1,0,0:0:0:0:
448,192,37232,1,0,0:0:0:0:
192,192,37292,1,0,0:0:0:0:
448,192,37353,1,0,0:0:0:0:
320,192,37353,1,0,0:0:0:0:
192,192,37535,1,0,0:0:0:0:
320,192,37535,1,0,0:0:0:0:
448,192,37626,1,0,0:0:0:0:
64,192,37671,1,0,0:0:0:0:
448,192,37717,1,0,0:0:0:0:
320,192,37717,1,0,0:0:0:0:
192,192,37777,1,0,0:0:0:0:
64,192,37838,1,0,0:0:0:0:
448,192,37898,1,0,0:0:0:0:
192,192,37989,1,0,0:0:0:0:
64,192,38080,1,0,0:0:0:0:
320,192,38080,1,0,0:0:0:0:
448,192,38126,1,0,0:0:0:0:
192,192,38171,1,0,0:0:0:0:
320,192,38217,1,0,0:0:0:0:
64,192,38262,1,0,0:0:0:0:
448,192,38262,1,0,0:0:0:0:
320,192,38353,1,0,0:0:0:0:
64,192,38444,1,0,0:0:0:0:
192,192,38489,1,0,0:0:0:0:
320,192,38535,1,0,0:0:0:0:
448,192,38580,1,0,0:0:0:0:
192,192,38626,1,0,0:0:0:0:
64,192,38626,1,0,0:0:0:0:
320,192,38671,1,0,0:0:0:0:
448,192,38717,1,0,0:0:0:0:
192,192,38762,1,0,0:0:0:0:
320,192,38808,1,0,0:0:0:0:
64,192,38853,1,0,0:0:0:0:
448,192,38898,1,0,0:0:0:0:
192,192,38944,1,0,0:0:0:0:
64,192,38989,1,0,0:0:0:0:
320,192,39035,1,0,0:0:0:0:
448,192,39080,1,0,0:0:0:0:
192,192,39126,1,0,0:0:0:0:
64,192,39171,1,0,0:0:0:0:
320,192,39171,1,0,0:0:0:0:
192,192,39353,1,0,0:0:0:0:
448,192,39353,1,0,0:0:0:0:
320,192,39353,1,0,0:0:0:0:
64,192,39535,1,0,0:0:0:0:
448,192,39535,1,0,0:0:0:0:
320,192,39717,1,0,0:0:0:0:
192,192,39717,1,0,0:0:0:0:
448,192,39898,128,0,40171:0:0:0:0:
320,192,39898,128,0,40171:0:0:0:0:
64,192,39898,128,0,40171:0:0:0:0:
192,192,39898,128,0,40171:0:0:0:0:
192,192,40262,1,0,0:0:0:0:
64,192,40262,1,0,0:0:0:0:
448,192,40262,1,0,0:0:0:0:
320,192,40444,1,0,0:0:0:0:
448,192,40444,1,0,0:0:0:0:
320,192,40626,1,0,0:0:0:0:
64,192,40626,1,0,0:0:0:0:
192,192,40808,1,0,0:0:0:0:
64,192,40808,1,0,0:0:0:0:
448,192,40808,1,0,0:0:0:0:
320,192,40989,1,0,0:0:0:0:
192,192,40989,1,0,0:0:0:0:
64,192,41171,1,0,0:0:0:0:
320,192,41171,1,0,0:0:0:0:
448,192,41171,1,0,0:0:0:0:
192,192,41353,1,0,0:0:0:0:
320,192,41353,1,0,0:0:0:0:
448,192,41353,1,0,0:0:0:0:
64,192,41535,5,0,0:0:0:0:
192,192,41535,1,0,0:0:0:0:
320,192,41580,1,0,0:0:0:0:
448,192,41626,1,0,0:0:0:0:
64,192,41671,1,0,0:0:0:0:
448,192,41717,1,0,0:0:0:0:
320,192,41762,1,0,0:0:0:0:
192,192,41808,1,0,0:0:0:0:
448,192,41898,1,0,0:0:0:0:
64,192,41898,1,0,0:0:0:0:
320,192,41944,1,0,0:0:0:0:
192,192,41989,1,0,0:0:0:0:
64,192,42035,1,0,0:0:0:0:
448,192,42080,1,0,0:0:0:0:
320,192,42126,1,0,0:0:0:0:
192,192,42171,1,0,0:0:0:0:
448,192,42262,1,0,0:0:0:0:
64,192,42262,1,0,0:0:0:0:
192,192,42308,1,0,0:0:0:0:
320,192,42353,1,0,0:0:0:0:
64,192,42398,1,0,0:0:0:0:
192,192,42444,1,0,0:0:0:0:
448,192,42489,1,0,0:0:0:0:
64,192,42535,1,0,0:0:0:0:
320,192,42580,1,0,0:0:0:0:
192,192,42626,1,0,0:0:0:0:
448,192,42717,1,0,0:0:0:0:
320,192,42808,1,0,0:0:0:0:
64,192,42808,1,0,0:0:0:0:
192,192,42853,1,0,0:0:0:0:
448,192,42898,1,0,0:0:0:0:
320,192,42944,1,0,0:0:0:0:
192,192,42989,1,0,0:0:0:0:
64,192,43035,1,0,0:0:0:0:
320,192,43080,1,0,0:0:0:0:
448,192,43126,1,0,0:0:0:0:
192,192,43171,1,0,0:0:0:0:
320,192,43217,1,0,0:0:0:0:
64,192,43262,1,0,0:0:0:0:
192,192,43308,1,0,0:0:0:0:
320,192,43353,1,0,0:0:0:0:
448,192,43353,1,0,0:0:0:0:
64,192,43444,1,0,0:0:0:0:
448,192,43535,1,0,0:0:0:0:
192,192,43535,1,0,0:0:0:0:
192,192,43717,1,0,0:0:0:0:
64,192,43717,1,0,0:0:0:0:
448,192,43898,1,0,0:0:0:0:
64,192,43898,1,0,0:0:0:0:
192,192,44080,1,0,0:0:0:0:
320,192,44080,1,0,0:0:0:0:
320,192,44262,1,0,0:0:0:0:
448,192,44262,1,0,0:0:0:0:
448,192,44444,1,0,0:0:0:0:
64,192,44444,1,0,0:0:0:0:
320,192,44489,1,0,0:0:0:0:
192,192,44535,1,0,0:0:0:0:
64,192,44580,1,0,0:0:0:0:
448,192,44626,1,0,0:0:0:0:
320,192,44671,1,0,0:0:0:0:
64,192,44717,1,0,0:0:0:0:
448,192,44762,1,0,0:0:0:0:
192,192,44808,1,0,0:0:0:0:
320,192,44853,1,0,0:0:0:0:
64,192,44898,1,0,0:0:0:0:
192,192,44944,1,0,0:0:0:0:
320,192,44989,1,0,0:0:0:0:
448,192,45035,1,0,0:0:0:0:
64,192,45080,1,0,0:0:0:0:
320,192,45171,1,0,0:0:0:0:
448,192,45171,1,0,0:0:0:0:
320,192,45353,1,0,0:0:0:0:
64,192,45353,1,0,0:0:0:0:
192,192,45535,1,0,0:0:0:0:
320,192,45535,1,0,0:0:0:0:
448,192,45717,1,0,0:0:0:0:
320,192,45762,1,0,0:0:0:0:
192,192,45808,1,0,0:0:0:0:
64,192,45853,1,0,0:0:0:0:
320,192,45898,1,0,0:0:0:0:
448,192,45898,1,0,0:0:0:0:
192,192,45944,1,0,0:0:0:0:
64,192,45989,1,0,0:0:0:0:
320,192,46035,1,0,0:0:0:0:
192,192,46080,1,0,0:0:0:0:
448,192,46126,1,0,0:0:0:0:
320,192,46171,1,0,0:0:0:0:
64,192,46217,1,0,0:0:0:0:
192,192,46262,1,0,0:0:0:0:
448,192,46308,1,0,0:0:0:0:
64,192,46353,1,0,0:0:0:0:
320,192,46398,1,0,0:0:0:0:
448,192,46444,1,0,0:0:0:0:
192,192,46535,1,0,0:0:0:0:
320,192,46626,1,0,0:0:0:0:
64,192,46626,1,0,0:0:0:0:
320,192,46808,1,0,0:0:0:0:
192,192,46808,1,0,0:0:0:0:
192,192,46989,1,0,0:0:0:0:
64,192,46989,1,0,0:0:0:0:
64,192,47171,1,0,0:0:0:0:
448,192,47171,1,0,0:0:0:0:
192,192,47353,1,0,0:0:0:0:
448,192,47353,1,0,0:0:0:0:
320,192,47398,1,0,0:0:0:0:
64,192,47444,1,0,0:0:0:0:
192,192,47489,1,0,0:0:0:0:
448,192,47535,1,0,0:0:0:0:
320,192,47580,1,0,0:0:0:0:
64,192,47626,1,0,0:0:0:0:
192,192,47671,1,0,0:0:0:0:
448,192,47717,1,0,0:0:0:0:
64,192,47762,1,0,0:0:0:0:
320,192,47808,1,0,0:0:0:0:
448,192,47853,1,0,0:0:0:0:
192,192,47898,1,0,0:0:0:0:
320,192,47989,1,0,0:0:0:0:
448,192,48080,1,0,0:0:0:0:
64,192,48080,1,0,0:0:0:0:
64,192,48262,1,0,0:0:0:0:
192,192,48262,1,0,0:0:0:0:
320,192,48444,1,0,0:0:0:0:
448,192,48444,1,0,0:0:0:0:
320,192,48626,1,0,0:0:0:0:
192,192,48671,1,0,0:0:0:0:
64,192,48717,1,0,0:0:0:0:
320,192,48762,1,0,0:0:0:0:
192,192,48808,1,0,0:0:0:0:
448,192,48808,1,0,0:0:0:0:
64,192,48853,1,0,0:0:0:0:
320,192,48898,1,0,0:0:0:0:
448,192,48944,1,0,0:0:0:0:
192,192,48989,1,0,0:0:0:0:
320,192,49035,1,0,0:0:0:0:
64,192,49080,1,0,0:0:0:0:
192,192,49126,1,0,0:0:0:0:
448,192,49171,1,0,0:0:0:0:
320,192,49353,1,0,0:0:0:0:
64,192,49353,1,0,0:0:0:0:
192,192,49535,1,0,0:0:0:0:
64,192,49535,1,0,0:0:0:0:
192,192,49717,1,0,0:0:0:0:
320,192,49717,1,0,0:0:0:0:
64,192,49898,1,0,0:0:0:0:
448,192,49898,1,0,0:0:0:0:
320,192,50080,1,0,0:0:0:0:
448,192,50126,1,0,0:0:0:0:
64,192,50171,1,0,0:0:0:0:
192,192,50217,1,0,0:0:0:0:
320,192,50262,1,0,0:0:0:0:
448,192,50262,1,0,0:0:0:0:
64,192,50308,1,0,0:0:0:0:
192,192,50353,1,0,0:0:0:0:
320,192,50398,1,0,0:0:0:0:
448,192,50444,1,0,0:0:0:0:
64,192,50444,1,0,0:0:0:0:
192,192,50626,1,0,0:0:0:0:
320,192,50626,1,0,0:0:0:0:
320,192,50808,1,0,0:0:0:0:
448,192,50808,1,0,0:0:0:0:
192,192,50853,1,0,0:0:0:0:
64,192,50898,1,0,0:0:0:0:
448,192,50944,1,0,0:0:0:0:
320,192,50989,1,0,0:0:0:0:
192,192,51035,1,0,0:0:0:0:
64,192,51080,1,0,0:0:0:0:
320,192,51126,1,0,0:0:0:0:
192,192,51171,1,0,0:0:0:0:
448,192,51171,1,0,0:0:0:0:
64,192,51353,1,0,0:0:0:0:
320,192,51353,1,0,0:0:0:0:
448,192,51535,1,0,0:0:0:0:
192,192,51535,1,0,0:0:0:0:
320,192,51580,1,0,0:0:0:0:
64,192,51626,1,0,0:0:0:0:
192,192,51671,1,0,0:0:0:0:
448,192,51717,1,0,0:0:0:0:
320,192,51762,1,0,0:0:0:0:
64,192,51808,1,0,0:0:0:0:
192,192,51853,1,0,0:0:0:0:
320,192,51898,1,0,0:0:0:0:
448,192,51898,1,0,0:0:0:0:
64,192,52080,1,0,0:0:0:0:
448,192,52080,1,0,0:0:0:0:
192,192,52262,1,0,0:0:0:0:
320,192,52262,1,0,0:0:0:0:
448,192,52308,1,0,0:0:0:0:
64,192,52353,1,0,0:0:0:0:
320,192,52398,1,0,0:0:0:0:
192,192,52444,1,0,0:0:0:0:
448,192,52489,1,0,0:0:0:0:
320,192,52535,1,0,0:0:0:0:
192,192,52580,1,0,0:0:0:0:
64,192,52626,1,0,0:0:0:0:
448,192,52671,1,0,0:0:0:0:
320,192,52717,1,0,0:0:0:0:
192,192,52762,1,0,0:0:0:0:
64,192,52808,1,0,0:0:0:0:
448,192,52868,1,0,0:0:0:0:
320,192,52929,1,0,0:0:0:0:
192,192,52989,1,0,0:0:0:0:
448,192,53080,1,0,0:0:0:0:
320,192,53171,1,0,0:0:0:0:
64,192,53171,1,0,0:0:0:0:
448,192,53217,1,0,0:0:0:0:
192,192,53262,1,0,0:0:0:0:
320,192,53308,1,0,0:0:0:0:
64,192,53353,1,0,0:0:0:0:
192,192,53398,1,0,0:0:0:0:
448,192,53444,1,0,0:0:0:0:
320,192,53489,1,0,0:0:0:0:
64,192,53535,1,0,0:0:0:0:
448,192,53580,1,0,0:0:0:0:
192,192,53626,1,0,0:0:0:0:
64,192,53671,1,0,0:0:0:0:
320,192,53717,1,0,0:0:0:0:
448,192,53762,1,0,0:0:0:0:
192,192,53808,1,0,0:0:0:0:
320,192,53853,1,0,0:0:0:0:
64,192,53898,1,0,0:0:0:0:
192,192,53944,1,0,0:0:0:0:
448,192,53989,1,0,0:0:0:0:
64,192,54035,1,0,0:0:0:0:
320,192,54080,1,0,0:0:0:0:
448,192,54126,1,0,0:0:0:0:
192,192,54171,1,0,0:0:0:0:
64,192,54217,1,0,0:0:0:0:
320,192,54262,1,0,0:0:0:0:
448,192,54262,1,0,0:0:0:0:
192,192,54353,1,0,0:0:0:0:
64,192,54353,1,0,0:0:0:0:
320,192,54444,1,0,0:0:0:0:
448,192,54444,1,0,0:0:0:0:
192,192,54535,1,0,0:0:0:0:
64,192,54535,1,0,0:0:0:0:
320,192,54626,1,0,0:0:0:0:
448,192,54626,1,0,0:0:0:0:
320,192,54808,1,0,0:0:0:0:
320,192,54898,1,0,0:0:0:0:
448,192,54989,1,0,0:0:0:0:
192,192,54989,1,0,0:0:0:0:
320,192,55171,1,0,0:0:0:0:
320,192,55262,1,0,0:0:0:0:
192,192,55353,1,0,0:0:0:0:
448,192,55353,1,0,0:0:0:0:
448,192,55535,1,0,0:0:0:0:
320,192,55535,1,0,0:0:0:0:
192,192,55626,1,0,0:0:0:0:
64,192,55626,1,0,0:0:0:0:
448,192,55717,1,0,0:0:0:0:
320,192,55717,1,0,0:0:0:0:
64,192,55717,1,0,0:0:0:0:
192,192,55898,1,0,0:0:0:0:
320,192,55959,1,0,0:0:0:0:
448,192,56020,1,0,0:0:0:0:
64,192,56080,1,0,0:0:0:0:
320,192,56080,1,0,0:0:0:0:
192,192,56126,1,0,0:0:0:0:
448,192,56171,1,0,0:0:0:0:
320,192,56217,1,0,0:0:0:0:
192,192,56262,1,0,0:0:0:0:
64,192,56308,1,0,0:0:0:0:
448,192,56353,1,0,0:0:0:0:
320,192,56398,1,0,0:0:0:0:
192,192,56444,1,0,0:0:0:0:
320,192,56626,1,0,0:0:0:0:
64,192,56626,1,0,0:0:0:0:
448,192,56671,1,0,0:0:0:0:
192,192,56717,1,0,0:0:0:0:
320,192,56762,1,0,0:0:0:0:
448,192,56808,1,0,0:0:0:0:
64,192,56853,1,0,0:0:0:0:
192,192,56898,1,0,0:0:0:0:
320,192,56944,1,0,0:0:0:0:
448,192,56989,1,0,0:0:0:0:
320,192,57050,1,0,0:0:0:0:
192,192,57111,1,0,0:0:0:0:
64,192,57171,1,0,0:0:0:0:
448,192,57171,1,0,0:0:0:0:
320,192,57217,1,0,0:0:0:0:
192,192,57262,1,0,0:0:0:0:
64,192,57308,1,0,0:0:0:0:
448,192,57353,1,0,0:0:0:0:
192,192,57535,1,0,0:0:0:0:
64,192,57535,1,0,0:0:0:0:
320,192,57580,1,0,0:0:0:0:
448,192,57626,1,0,0:0:0:0:
192,192,57671,1,0,0:0:0:0:
448,192,57717,1,0,0:0:0:0:
320,192,57898,1,0,0:0:0:0:
64,192,57898,1,0,0:0:0:0:
320,192,58080,1,0,0:0:0:0:
64,192,58080,1,0,0:0:0:0:
448,192,58126,1,0,0:0:0:0:
192,192,58171,1,0,0:0:0:0:
448,192,58217,1,0,0:0:0:0:
320,192,58262,1,0,0:0:0:0:
192,192,58323,1,0,0:0:0:0:
64,192,58383,1,0,0:0:0:0:
320,192,58444,1,0,0:0:0:0:
448,192,58444,1,0,0:0:0:0:
64,192,58626,1,0,0:0:0:0:
448,192,58626,1,0,0:0:0:0:
192,192,58808,1,0,0:0:0:0:
320,192,58808,1,0,0:0:0:0:
448,192,58853,1,0,0:0:0:0:
64,192,58898,1,0,0:0:0:0:
320,192,58944,1,0,0:0:0:0:
448,192,58989,1,0,0:0:0:0:
192,192,59035,1,0,0:0:0:0:
320,192,59080,1,0,0:0:0:0:
64,192,59126,1,0,0:0:0:0:
192,192,59171,1,0,0:0:0:0:
448,192,59217,1,0,0:0:0:0:
320,192,59262,1,0,0:0:0:0:
192,192,59308,1,0,0:0:0:0:
64,192,59353,1,0,0:0:0:0:
448,192,59535,1,0,0:0:0:0:
320,192,59535,1,0,0:0:0:0:
192,192,59717,1,0,0:0:0:0:
64,192,59717,1,0,0:0:0:0:
448,192,59898,1,0,0:0:0:0:
64,192,60080,1,0,0:0:0:0:
320,192,60080,1,0,0:0:0:0:
320,192,60262,1,0,0:0:0:0:
192,192,60262,1,0,0:0:0:0:
448,192,60444,1,0,0:0:0:0:
320,192,60444,1,0,0:0:0:0:
64,192,60489,1,0,0:0:0:0:
192,192,60535,1,0,0:0:0:0:
320,192,60580,1,0,0:0:0:0:
448,192,60626,1,0,0:0:0:0:
64,192,60686,1,0,0:0:0:0:
448,192,60747,1,0,0:0:0:0:
320,192,60808,1,0,0:0:0:0:
192,192,60868,1,0,0:0:0:0:
64,192,60929,1,0,0:0:0:0:
320,192,60989,1,0,0:0:0:0:
448,192,60989,1,0,0:0:0:0:
64,192,61035,1,0,0:0:0:0:
192,192,61080,1,0,0:0:0:0:
320,192,61126,1,0,0:0:0:0:
448,192,61171,1,0,0:0:0:0:
320,192,61353,1,0,0:0:0:0:
192,192,61353,1,0,0:0:0:0:
192,192,61535,1,0,0:0:0:0:
448,192,61535,1,0,0:0:0:0:
320,192,61717,1,0,0:0:0:0:
448,192,61717,1,0,0:0:0:0:
192,192,61762,1,0,0:0:0:0:
64,192,61808,1,0,0:0:0:0:
448,192,61853,1,0,0:0:0:0:
320,192,61898,1,0,0:0:0:0:
448,192,61944,1,0,0:0:0:0:
192,192,61989,1,0,0:0:0:0:
64,192,62035,1,0,0:0:0:0:
320,192,62080,1,0,0:0:0:0:
192,192,62126,1,0,0:0:0:0:
64,192,62171,1,0,0:0:0:0:
448,192,62217,1,0,0:0:0:0:
320,192,62262,1,0,0:0:0:0:
64,192,62444,1,0,0:0:0:0:
192,192,62489,1,0,0:0:0:0:
320,192,62535,1,0,0:0:0:0:
448,192,62580,1,0,0:0:0:0:
64,192,62626,1,0,0:0:0:0:
192,192,62717,1,0,0:0:0:0:
320,192,62808,1,0,0:0:0:0:
448,192,62808,1,0,0:0:0:0:
192,192,62989,1,0,0:0:0:0:
320,192,62989,1,0,0:0:0:0:
448,192,63171,1,0,0:0:0:0:
64,192,63171,1,0,0:0:0:0:
192,192,63171,1,0,0:0:0:0:
320,192,63232,1,0,0:0:0:0:
192,192,63292,1,0,0:0:0:0:
64,192,63353,1,0,0:0:0:0:
320,192,63414,1,0,0:0:0:0:
192,192,63474,1,0,0:0:0:0:
320,192,63535,1,0,0:0:0:0:
448,192,63535,1,0,0:0:0:0:
64,192,63717,1,0,0:0:0:0:
448,192,63717,1,0,0:0:0:0:
448,192,63898,1,0,0:0:0:0:
192,192,63898,1,0,0:0:0:0:
320,192,63959,1,0,0:0:0:0:
192,192,64020,1,0,0:0:0:0:
320,192,64080,1,0,0:0:0:0:
192,192,64141,1,0,0:0:0:0:
320,192,64201,1,0,0:0:0:0:
192,192,64262,1,0,0:0:0:0:
64,192,64262,1,0,0:0:0:0:
64,192,64444,1,0,0:0:0:0:
192,192,64444,1,0,0:0:0:0:
448,192,64626,1,0,0:0:0:0:
320,192,64671,1,0,0:0:0:0:
192,192,64717,1,0,0:0:0:0:
64,192,64762,1,0,0:0:0:0:
320,192,64808,1,0,0:0:0:0:
448,192,64808,1,0,0:0:0:0:
192,192,64898,1,0,0:0:0:0:
64,192,64989,1,0,0:0:0:0:
320,192,64989,1,0,0:0:0:0:
192,192,65080,1,0,0:0:0:0:
448,192,65171,1,0,0:0:0:0:
320,192,65171,1,0,0:0:0:0:
192,192,65262,1,0,0:0:0:0:
448,192,65353,1,0,0:0:0:0:
320,192,65353,1,0,0:0:0:0:
192,192,65444,1,0,0:0:0:0:
448,192,65535,1,0,0:0:0:0:
64,192,65535,1,0,0:0:0:0:
320,192,65626,1,0,0:0:0:0:
448,192,65717,1,0,0:0:0:0:
192,192,65717,1,0,0:0:0:0:
64,192,65808,1,0,0:0:0:0:
320,192,65898,1,0,0:0:0:0:
448,192,65898,1,0,0:0:0:0:
192,192,65989,1,0,0:0:0:0:
64,192,66080,1,0,0:0:0:0:
320,192,66126,1,0,0:0:0:0:
192,192,66171,1,0,0:0:0:0:
448,192,66217,1,0,0:0:0:0:
320,192,66262,1,0,0:0:0:0:
64,192,66262,1,0,0:0:0:0:
192,192,66308,1,0,0:0:0:0:
448,192,66353,1,0,0:0:0:0:
320,192,66398,1,0,0:0:0:0:
192,192,66444,1,0,0:0:0:0:
64,192,66489,1,0,0:0:0:0:
448,192,66535,1,0,0:0:0:0:
192,192,66580,1,0,0:0:0:0:
320,192,66626,1,0,0:0:0:0:
448,192,66671,1,0,0:0:0:0:
64,192,66717,1,0,0:0:0:0:
192,192,66762,1,0,0:0:0:0:
320,192,66808,1,0,0:0:0:0:
448,192,66898,1,0,0:0:0:0:
320,192,66989,1,0,0:0:0:0:
64,192,66989,1,0,0:0:0:0:
448,192,67035,1,0,0:0:0:0:
192,192,67080,1,0,0:0:0:0:
64,192,67126,1,0,0:0:0:0:
320,192,67171,1,0,0:0:0:0:
448,192,67171,1,0,0:0:0:0:
192,192,67262,1,0,0:0:0:0:
64,192,67262,1,0,0:0:0:0:
320,192,67353,1,0,0:0:0:0:
448,192,67353,1,0,0:0:0:0:
192,192,67444,1,0,0:0:0:0:
64,192,67444,1,0,0:0:0:0:
320,192,67535,1,0,0:0:0:0:
448,192,67535,1,0,0:0:0:0:
192,192,67626,1,0,0:0:0:0:
64,192,67626,1,0,0:0:0:0:
320,192,67717,1,0,0:0:0:0:
448,192,67717,1,0,0:0:0:0:
64,192,67762,1,0,0:0:0:0:
192,192,67808,1,0,0:0:0:0:
320,192,67853,1,0,0:0:0:0:
448,192,67898,1,0,0:0:0:0:
64,192,67944,1,0,0:0:0:0:
192,192,67989,1,0,0:0:0:0:
320,192,68035,1,0,0:0:0:0:
448,192,68080,1,0,0:0:0:0:
320,192,68141,1,0,0:0:0:0:
192,192,68201,1,0,0:0:0:0:
64,192,68262,1,0,0:0:0:0:
448,192,68308,1,0,0:0:0:0:
320,192,68353,1,0,0:0:0:0:
192,192,68398,1,0,0:0:0:0:
448,192,68444,1,0,0:0:0:0:
64,192,68489,1,0,0:0:0:0:
320,192,68535,1,0,0:0:0:0:
192,192,68580,1,0,0:0:0:0:
64,192,68626,1,0,0:0:0:0:
448,192,68671,1,0,0:0:0:0:
320,192,68717,1,0,0:0:0:0:
192,192,68762,1,0,0:0:0:0:
64,192,68808,1,0,0:0:0:0:
320,192,68853,1,0,0:0:0:0:
192,192,68898,1,0,0:0:0:0:
448,192,68944,1,0,0:0:0:0:
64,192,68989,1,0,0:0:0:0:
192,192,69050,1,0,0:0:0:0:
320,192,69111,1,0,0:0:0:0:
448,192,69171,1,0,0:0:0:0:
64,192,69171,1,0,0:0:0:0:
192,192,69232,1,0,0:0:0:0:
448,192,69292,1,0,0:0:0:0:
192,192,69353,1,0,0:0:0:0:
320,192,69414,1,0,0:0:0:0:
64,192,69474,1,0,0:0:0:0:
320,192,69535,1,0,0:0:0:0:
448,192,69717,1,0,0:0:0:0:
320,192,69717,1,0,0:0:0:0:
192,192,69777,1,0,0:0:0:0:
64,192,69838,1,0,0:0:0:0:
192,192,69898,1,0,0:0:0:0:
320,192,69959,1,0,0:0:0:0:
448,192,70020,1,0,0:0:0:0:
64,192,70080,1,0,0:0:0:0:
192,192,70080,1,0,0:0:0:0:
192,192,70262,1,0,0:0:0:0:
320,192,70262,1,0,0:0:0:0:
320,192,70444,1,0,0:0:0:0:
448,192,70444,1,0,0:0:0:0:
192,192,70489,1,0,0:0:0:0:
64,192,70535,1,0,0:0:0:0:
320,192,70580,1,0,0:0:0:0:
192,192,70626,1,0,0:0:0:0:
448,192,70626,1,0,0:0:0:0:
64,192,70671,1,0,0:0:0:0:
320,192,70717,1,0,0:0:0:0:
192,192,70762,1,0,0:0:0:0:
448,192,70808,1,0,0:0:0:0:
320,192,70853,1,0,0:0:0:0:
64,192,70898,1,0,0:0:0:0:
192,192,70944,1,0,0:0:0:0:
448,192,70989,1,0,0:0:0:0:
320,192,71171,1,0,0:0:0:0:
448,192,71171,1,0,0:0:0:0:
64,192,71353,1,0,0:0:0:0:
192,192,71535,1,0,0:0:0:0:
64,192,71535,1,0,0:0:0:0:
448,192,71717,1,0,0:0:0:0:
192,192,71717,1,0,0:0:0:0:
320,192,71808,1,0,0:0:0:0:
192,192,71898,1,0,0:0:0:0:
64,192,71898,1,0,0:0:0:0:
320,192,71989,1,0,0:0:0:0:
448,192,72080,1,0,0:0:0:0:
64,192,72080,1,0,0:0:0:0:
192,192,72126,1,0,0:0:0:0:
320,192,72171,1,0,0:0:0:0:
448,192,72217,1,0,0:0:0:0:
192,192,72262,1,0,0:0:0:0:
320,192,72308,1,0,0:0:0:0:
64,192,72353,1,0,0:0:0:0:
448,192,72398,1,0,0:0:0:0:
320,192,72444,1,0,0:0:0:0:
192,192,72489,1,0,0:0:0:0:
64,192,72535,1,0,0:0:0:0:
320,192,72580,1,0,0:0:0:0:
448,192,72626,1,0,0:0:0:0:
192,192,72626,1,0,0:0:0:0:
448,192,72808,1,0,0:0:0:0:
192,192,72808,1,0,0:0:0:0:
320,192,72853,1,0,0:0:0:0:
448,192,72898,1,0,0:0:0:0:
64,192,72989,1,0,0:0:0:0:
192,192,72989,1,0,0:0:0:0:
320,192,73171,1,0,0:0:0:0:
64,192,73171,1,0,0:0:0:0:
448,192,73232,1,0,0:0:0:0:
192,192,73292,1,0,0:0:0:0:
320,192,73353,1,0,0:0:0:0:
448,192,73398,1,0,0:0:0:0:
320,192,73444,1,0,0:0:0:0:
192,192,73489,1,0,0:0:0:0:
64,192,73535,1,0,0:0:0:0:
448,192,73580,1,0,0:0:0:0:
192,192,73626,1,0,0:0:0:0:
320,192,73671,1,0,0:0:0:0:
64,192,73717,1,0,0:0:0:0:
320,192,73898,1,0,0:0:0:0:
448,192,73898,1,0,0:0:0:0:
64,192,74080,1,0,0:0:0:0:
448,192,74080,1,0,0:0:0:0:
192,192,74126,1,0,0:0:0:0:
320,192,74171,1,0,0:0:0:0:
448,192,74217,1,0,0:0:0:0:
64,192,74262,1,0,0:0:0:0:
192,192,74353,1,0,0:0:0:0:
448,192,74444,1,0,0:0:0:0:
64,192,74444,1,0,0:0:0:0:
320,192,74535,1,0,0:0:0:0:
192,192,74626,1,0,0:0:0:0:
448,192,74626,1,0,0:0:0:0:
320,192,74808,1,0,0:0:0:0:
448,192,74808,1,0,0:0:0:0:
64,192,74808,1,0,0:0:0:0:
192,192,74868,1,0,0:0:0:0:
320,192,74929,1,0,0:0:0:0:
192,192,74989,1,0,0:0:0:0:
64,192,75171,1,0,0:0:0:0:
192,192,75171,1,0,0:0:0:0:
320,192,75232,1,0,0:0:0:0:
192,192,75292,5,0,0:0:0:0:
320,192,75353,1,0,0:0:0:0:
448,192,75353,1,0,0:0:0:0:
64,192,75414,1,0,0:0:0:0:
448,192,75474,1,0,0:0:0:0:
192,192,75535,1,0,0:0:0:0:
64,192,75535,1,0,0:0:0:0:
320,192,75580,1,0,0:0:0:0:
448,192,75626,1,0,0:0:0:0:
64,192,75671,1,0,0:0:0:0:
192,192,75717,1,0,0:0:0:0:
320,192,75762,1,0,0:0:0:0:
448,192,75808,1,0,0:0:0:0:
320,192,75853,1,0,0:0:0:0:
192,192,75898,1,0,0:0:0:0:
64,192,75944,1,0,0:0:0:0:
448,192,75989,1,0,0:0:0:0:
320,192,76035,1,0,0:0:0:0:
192,192,76080,1,0,0:0:0:0:
64,192,76080,1,0,0:0:0:0:
448,192,76171,1,0,0:0:0:0:
192,192,76262,1,0,0:0:0:0:
448,192,76353,1,0,0:0:0:0:
64,192,76444,5,0,0:0:0:0:
192,192,76444,1,0,0:0:0:0:
320,192,76489,1,0,0:0:0:0:
448,192,76535,1,0,0:0:0:0:
64,192,76580,1,0,0:0:0:0:
192,192,76626,1,0,0:0:0:0:
320,192,76671,1,0,0:0:0:0:
448,192,76717,1,0,0:0:0:0:
64,192,76762,1,0,0:0:0:0:
192,192,76808,1,0,0:0:0:0:
64,192,76853,1,0,0:0:0:0:
448,192,76898,1,0,0:0:0:0:
320,192,76944,1,0,0:0:0:0:
448,192,76989,1,0,0:0:0:0:
192,192,77035,1,0,0:0:0:0:
64,192,77080,1,0,0:0:0:0:
320,192,77126,1,0,0:0:0:0:
448,192,77171,1,0,0:0:0:0:
64,192,77217,1,0,0:0:0:0:
192,192,77262,1,0,0:0:0:0:
320,192,77308,1,0,0:0:0:0:
448,192,77353,1,0,0:0:0:0:
64,192,77398,1,0,0:0:0:0:
192,192,77444,1,0,0:0:0:0:
320,192,77489,1,0,0:0:0:0:
448,192,77535,1,0,0:0:0:0:
64,192,77580,1,0,0:0:0:0:
192,192,77626,1,0,0:0:0:0:
320,192,77671,1,0,0:0:0:0:
64,192,77717,1,0,0:0:0:0:
448,192,77762,1,0,0:0:0:0:
320,192,77808,1,0,0:0:0:0:
192,192,77853,1,0,0:0:0:0:
64,192,77898,1,0,0:0:0:0:
448,192,77898,1,0,0:0:0:0:
192,192,77944,1,0,0:0:0:0:
320,192,77989,1,0,0:0:0:0:
448,192,78035,1,0,0:0:0:0:
64,192,78080,1,0,0:0:0:0:
320,192,78126,1,0,0:0:0:0:
192,192,78171,1,0,0:0:0:0:
64,192,78217,1,0,0:0:0:0:
448,192,78262,1,0,0:0:0:0:
192,192,78308,1,0,0:0:0:0:
320,192,78353,1,0,0:0:0:0:
64,192,78398,1,0,0:0:0:0:
192,192,78444,1,0,0:0:0:0:
448,192,78489,1,0,0:0:0:0:
320,192,78535,1,0,0:0:0:0:
64,192,78580,1,0,0:0:0:0:
192,192,78626,1,0,0:0:0:0:
448,192,78671,1,0,0:0:0:0:
320,192,78717,1,0,0:0:0:0:
64,192,78762,1,0,0:0:0:0:
448,192,78808,1,0,0:0:0:0:
192,192,78853,1,0,0:0:0:0:
320,192,78898,1,0,0:0:0:0:
448,192,78944,1,0,0:0:0:0:
64,192,78989,1,0,0:0:0:0:
192,192,79035,1,0,0:0:0:0:
320,192,79080,1,0,0:0:0:0:
448,192,79126,1,0,0:0:0:0:
320,192,79171,1,0,0:0:0:0:
192,192,79217,1,0,0:0:0:0:
64,192,79262,1,0,0:0:0:0:
448,192,79308,1,0,0:0:0:0:
320,192,79353,1,0,0:0:0:0:
192,192,79353,1,0,0:0:0:0:
64,192,79398,1,0,0:0:0:0:
448,192,79444,1,0,0:0:0:0:
192,192,79489,1,0,0:0:0:0:
320,192,79535,1,0,0:0:0:0:
64,192,79580,1,0,0:0:0:0:
192,192,79626,1,0,0:0:0:0:
448,192,79671,1,0,0:0:0:0:
64,192,79717,1,0,0:0:0:0:
320,192,79762,1,0,0:0:0:0:
448,192,79808,1,0,0:0:0:0:
192,192,79853,1,0,0:0:0:0:
320,192,79898,1,0,0:0:0:0:
64,192,79944,1,0,0:0:0:0:
192,192,79989,1,0,0:0:0:0:
448,192,80035,1,0,0:0:0:0:
64,192,80080,1,0,0:0:0:0:
320,192,80126,1,0,0:0:0:0:
448,192,80171,1,0,0:0:0:0:
192,192,80217,1,0,0:0:0:0:
64,192,80262,1,0,0:0:0:0:
320,192,80308,1,0,0:0:0:0:
192,192,80353,1,0,0:0:0:0:
448,192,80398,1,0,0:0:0:0:
320,192,80444,1,0,0:0:0:0:
64,192,80489,1,0,0:0:0:0:
448,192,80535,1,0,0:0:0:0:
192,192,80580,1,0,0:0:0:0:
64,192,80626,1,0,0:0:0:0:
320,192,80671,1,0,0:0:0:0:
192,192,80717,1,0,0:0:0:0:
448,192,80762,1,0,0:0:0:0:
320,192,80808,1,0,0:0:0:0:
64,192,80808,1,0,0:0:0:0:
192,192,80853,1,0,0:0:0:0:
448,192,80898,1,0,0:0:0:0:
320,192,80944,1,0,0:0:0:0:
64,192,80989,1,0,0:0:0:0:
192,192,81035,1,0,0:0:0:0:
320,192,81080,1,0,0:0:0:0:
448,192,81126,1,0,0:0:0:0:
192,192,81171,1,0,0:0:0:0:
320,192,81217,1,0,0:0:0:0:
64,192,81262,1,0,0:0:0:0:
448,192,81308,1,0,0:0:0:0:
320,192,81353,1,0,0:0:0:0:
192,192,81398,1,0,0:0:0:0:
64,192,81444,1,0,0:0:0:0:
320,192,81489,1,0,0:0:0:0:
192,192,81535,1,0,0:0:0:0:
448,192,81580,1,0,0:0:0:0:
64,192,81626,1,0,0:0:0:0:
192,192,81671,1,0,0:0:0:0:
320,192,81717,1,0,0:0:0:0:
64,192,81762,1,0,0:0:0:0:
448,192,81808,1,0,0:0:0:0:
192,192,81853,1,0,0:0:0:0:
320,192,81898,1,0,0:0:0:0:
448,192,81944,1,0,0:0:0:0:
64,192,81989,1,0,0:0:0:0:
192,192,82035,1,0,0:0:0:0:
320,192,82080,1,0,0:0:0:0:
448,192,82126,1,0,0:0:0:0:
192,192,82171,1,0,0:0:0:0:
64,192,82217,1,0,0:0:0:0:
320,192,82262,1,0,0:0:0:0:
448,192,82262,1,0,0:0:0:0:
192,192,82308,1,0,0:0:0:0:
64,192,82353,1,0,0:0:0:0:
320,192,82398,1,0,0:0:0:0:
448,192,82444,1,0,0:0:0:0:
192,192,82489,1,0,0:0:0:0:
320,192,82535,1,0,0:0:0:0:
64,192,82580,1,0,0:0:0:0:
192,192,82626,1,0,0:0:0:0:
448,192,82671,1,0,0:0:0:0:
320,192,82717,1,0,0:0:0:0:
192,192,82762,1,0,0:0:0:0:
64,192,82808,1,0,0:0:0:0:
448,192,82853,1,0,0:0:0:0:
320,192,82898,1,0,0:0:0:0:
192,192,82944,1,0,0:0:0:0:
448,192,82989,1,0,0:0:0:0:
64,192,83035,1,0,0:0:0:0:
320,192,83080,1,0,0:0:0:0:
448,192,83126,1,0,0:0:0:0:
192,192,83171,1,0,0:0:0:0:
320,192,83217,1,0,0:0:0:0:
64,192,83262,1,0,0:0:0:0:
192,192,83308,1,0,0:0:0:0:
448,192,83353,1,0,0:0:0:0:
320,192,83398,1,0,0:0:0:0:
192,192,83444,1,0,0:0:0:0:
64,192,83489,1,0,0:0:0:0:
448,192,83535,1,0,0:0:0:0:
320,192,83580,1,0,0:0:0:0:
192,192,83626,1,0,0:0:0:0:
64,192,83671,1,0,0:0:0:0:
448,192,83717,1,0,0:0:0:0:
320,192,83717,1,0,0:0:0:0:
64,192,83777,1,0,0:0:0:0:
192,192,83838,1,0,0:0:0:0:
320,192,83898,1,0,0:0:0:0:
448,192,83959,1,0,0:0:0:0:
320,192,84020,1,0,0:0:0:0:
192,192,84080,1,0,0:0:0:0:
448,192,84141,1,0,0:0:0:0:
320,192,84201,1,0,0:0:0:0:
192,192,84262,1,0,0:0:0:0:
64,192,84262,1,0,0:0:0:0:
320,192,84323,1,0,0:0:0:0:
192,192,84383,1,0,0:0:0:0:
64,192,84444,1,0,0:0:0:0:
448,192,84504,1,0,0:0:0:0:
192,192,84565,1,0,0:0:0:0:
320,192,84626,1,0,0:0:0:0:
64,192,84686,1,0,0:0:0:0:
192,192,84747,1,0,0:0:0:0:
320,192,84808,1,0,0:0:0:0:
448,192,84868,1,0,0:0:0:0:
64,192,84929,1,0,0:0:0:0:
320,192,84989,1,0,0:0:0:0:
448,192,85050,1,0,0:0:0:0:
192,192,85080,1,0,0:0:0:0:
320,192,85111,1,0,0:0:0:0:
64,192,85171,1,0,0:0:0:0:
192,192,85232,1,0,0:0:0:0:
448,192,85292,1,0,0:0:0:0:
320,192,85353,1,0,0:0:0:0:
192,192,85414,1,0,0:0:0:0:
64,192,85474,1,0,0:0:0:0:
448,192,85535,1,0,0:0:0:0:
64,192,85595,1,0,0:0:0:0:
192,192,85656,1,0,0:0:0:0:
320,192,85717,1,0,0:0:0:0:
448,192,85777,1,0,0:0:0:0:
192,192,85808,1,0,0:0:0:0:
64,192,85838,1,0,0:0:0:0:
320,192,85898,1,0,0:0:0:0:
192,192,85959,1,0,0:0:0:0:
448,192,85989,1,0,0:0:0:0:
64,192,86020,1,0,0:0:0:0:
320,192,86080,1,0,0:0:0:0:
448,192,86141,1,0,0:0:0:0:
320,192,86201,1,0,0:0:0:0:
64,192,86262,1,0,0:0:0:0:
192,192,86262,1,0,0:0:0:0:
448,192,86323,1,0,0:0:0:0:
64,192,86383,1,0,0:0:0:0:
192,192,86444,1,0,0:0:0:0:
320,192,86504,1,0,0:0:0:0:
448,192,86565,1,0,0:0:0:0:
64,192,86626,1,0,0:0:0:0:
320,192,86626,1,0,0:0:0:0:
192,192,86686,1,0,0:0:0:0:
64,192,86747,1,0,0:0:0:0:
448,192,86808,1,0,0:0:0:0:
192,192,86868,1,0,0:0:0:0:
320,192,86929,1,0,0:0:0:0:
64,192,86989,1,0,0:0:0:0:
192,192,87050,1,0,0:0:0:0:
320,192,87111,1,0,0:0:0:0:
448,192,87171,1,0,0:0:0:0:
64,192,87171,1,0,0:0:0:0:
320,192,87232,1,0,0:0:0:0:
192,192,87292,1,0,0:0:0:0:
64,192,87353,1,0,0:0:0:0:
320,192,87414,1,0,0:0:0:0:
192,192,87474,1,0,0:0:0:0:
448,192,87535,1,0,0:0:0:0:
64,192,87595,1,0,0:0:0:0:
320,192,87656,1,0,0:0:0:0:
448,192,87717,1,0,0:0:0:0:
192,192,87777,1,0,0:0:0:0:
448,192,87838,1,0,0:0:0:0:
64,192,87898,1,0,0:0:0:0:
192,192,87959,1,0,0:0:0:0:
320,192,88020,1,0,0:0:0:0:
448,192,88080,1,0,0:0:0:0:
64,192,88080,1,0,0:0:0:0:
192,192,88171,1,0,0:0:0:0:
320,192,88171,1,0,0:0:0:0:
448,192,88262,1,0,0:0:0:0:
64,192,88262,1,0,0:0:0:0:
320,192,88353,1,0,0:0:0:0:
192,192,88353,1,0,0:0:0:0:
448,192,88444,1,0,0:0:0:0:
320,192,88444,1,0,0:0:0:0:
192,192,88535,1,0,0:0:0:0:
64,192,88535,1,0,0:0:0:0:
448,192,88626,1,0,0:0:0:0:
320,192,88626,1,0,0:0:0:0:
192,192,88717,1,0,0:0:0:0:
64,192,88717,1,0,0:0:0:0:
320,192,88808,1,0,0:0:0:0:
64,192,88808,1,0,0:0:0:0:
448,192,88898,1,0,0:0:0:0:
192,192,88898,1,0,0:0:0:0:
448,192,88989,1,0,0:0:0:0:
320,192,88989,1,0,0:0:0:0:
192,192,89080,1,0,0:0:0:0:
64,192,89080,1,0,0:0:0:0:
448,192,89171,1,0,0:0:0:0:
320,192,89171,1,0,0:0:0:0:
192,192,89262,1,0,0:0:0:0:
64,192,89262,1,0,0:0:0:0:
320,192,89353,1,0,0:0:0:0:
448,192,89353,1,0,0:0:0:0:
192,192,89444,1,0,0:0:0:0:
64,192,89444,1,0,0:0:0:0:
64,192,89535,128,0,89989:0:0:0:0:
320,192,89535,128,0,89989:0:0:0:0:
448,192,89535,128,0,89989:0:0:0:0:
192,192,90080,128,0,90535:0:0:0:0:
64,192,90080,128,0,90535:0:0:0:0:
448,192,90080,128,0,90535:0:0:0:0:
64,192,90626,128,0,90898:0:0:0:0:
192,192,90626,128,0,90898:0:0:0:0:
320,192,90626,128,0,90898:0:0:0:0:
448,192,90989,1,0,0:0:0:0:
320,192,91035,1,0,0:0:0:0:
192,192,91080,1,0,0:0:0:0:
64,192,91126,1,0,0:0:0:0:
448,192,91171,1,0,0:0:0:0:
320,192,91217,1,0,0:0:0:0:
192,192,91262,1,0,0:0:0:0:
64,192,91308,1,0,0:0:0:0:
320,192,91353,1,0,0:0:0:0:
448,192,91353,1,0,0:0:0:0:
192,192,91444,1,0,0:0:0:0:
448,192,91444,1,0,0:0:0:0:
320,192,91535,1,0,0:0:0:0:
64,192,91535,1,0,0:0:0:0:
64,192,91626,1,0,0:0:0:0:
192,192,91626,1,0,0:0:0:0:
448,192,91717,1,0,0:0:0:0:
320,192,91747,1,0,0:0:0:0:
192,192,91777,1,0,0:0:0:0:
64,192,91808,1,0,0:0:0:0:
448,192,91838,1,0,0:0:0:0:
320,192,91868,1,0,0:0:0:0:
192,192,91898,1,0,0:0:0:0:
64,192,91944,1,0,0:0:0:0:
448,192,91989,1,0,0:0:0:0:
320,192,92035,1,0,0:0:0:0:
192,192,92080,1,0,0:0:0:0:
64,192,92080,1,0,0:0:0:0:
448,192,92126,1,0,0:0:0:0:
320,192,92171,1,0,0:0:0:0:
192,192,92217,1,0,0:0:0:0:
64,192,92262,1,0,0:0:0:0:
448,192,92262,1,0,0:0:0:0:
320,192,92353,1,0,0:0:0:0:
192,192,92444,1,0,0:0:0:0:
64,192,92444,1,0,0:0:0:0:
448,192,92444,1,0,0:0:0:0:
320,192,92626,1,0,0:0:0:0:
448,192,92626,1,0,0:0:0:0:
64,192,92626,1,0,0:0:0:0:
192,192,92808,1,0,0:0:0:0:
320,192,92808,1,0,0:0:0:0:
448,192,92808,1,0,0:0:0:0:
320,192,92989,128,0,93353:0:0:0:0:
192,192,92989,128,0,93444:0:0:0:0:
64,192,92989,128,0,93535:0:0:0:0:
