osu file format v14

[General]
AudioFilename: audio.mp3
AudioLeadIn: 0
PreviewTime: 86149
Countdown: 0
SampleSet: None
StackLeniency: 0.7
Mode: 0
LetterboxInBreaks: 0
WidescreenStoryboard: 0

[Editor]
Bookmarks: 8781,20307,86307,101465,126413,137119,167572,182729,187624,243361,258519
DistanceSpacing: 1.5
BeatDivisor: 4
GridSize: 8
TimelineZoom: 1.2

[Metadata]
Title:Szacunek Ludzi Ulicy [SLU]
TitleUnicode:Szacunek Ludzi Ulicy [SLU]
Artist:Peja / Slums Attack
ArtistUnicode:Peja / Slums Attack
Creator:UselessXD
Version:Respect
Source:
Tags:SLU Peja rap hip hop szacunek Slums Attack polish
BeatmapID:1347911
BeatmapSetID:635214

[Difficulty]
HPDrainRate:6
CircleSize:4
OverallDifficulty:8.5
ApproachRate:9.4
SliderMultiplier:1.6
SliderTickRate:1

[Events]
//Background and Video events
0,0,"XDD.jpg",0,0
//Break Periods
//Storyboard Layer 0 (Background)
//Storyboard Layer 1 (Fail)
//Storyboard Layer 2 (Pass)
//Storyboard Layer 3 (Foreground)
//Storyboard Sound Samples

[TimingPoints]
571,315.789473684211,4,1,0,50,1,0
10360,-66.6666666666667,4,1,0,50,0,1
12886,-133.333333333333,4,1,0,50,0,1
13044,-66.6666666666667,4,1,0,50,0,1
13676,-100,4,1,0,50,0,1
15492,-66.6666666666667,4,1,0,50,0,1
15728,-100,4,1,0,50,0,1
16518,-200,4,1,0,50,0,1
16992,-100,4,1,0,50,0,1
20307,-100,4,1,0,50,0,0
30571,-80,4,1,0,50,0,0
35781,-90.9090909090909,4,1,0,50,0,0
46044,-100,4,1,0,50,0,0
54413,-166.666666666667,4,1,0,50,0,0
54728,-80,4,1,0,50,0,0
55360,-66.6666666666667,4,1,0,50,0,0
56149,-83.3333333333333,4,1,0,50,0,0
60886,-100,4,1,0,50,0,0
80939,-100,4,1,0,50,0,1
85992,-100,4,1,0,50,0,0
86307,-100,4,1,0,50,0,1
88992,-83.3333333333333,4,1,0,50,0,1
90886,-100,4,1,0,50,0,1
95386,-83.3333333333333,4,1,0,50,0,1
101465,-111.111111111111,4,1,0,50,0,0
132571,631.578947368421,4,1,0,50,1,0
132571,-166.666666666667,4,1,0,50,0,0
135413,1411.76470588235,4,1,0,50,1,0
135413,-166.666666666667,4,1,0,50,0,0
136992,-111.111111111111,4,1,0,50,0,0
137119,315.789473684211,4,1,0,50,1,0
139487,-66.6666666666667,4,1,0,50,0,0
142171,-100,4,1,0,50,0,0
167572,315.789473684211,4,1,0,50,1,0
167572,-66.6666666666667,4,1,0,50,0,1
182729,-133.333333333333,4,1,0,50,0,0
187624,-100,4,1,0,50,0,0
200098,-50,4,1,0,50,0,0
200572,-100,4,1,0,50,0,0
201361,-50,4,1,0,50,0,0
201835,-100,4,1,0,50,0,0
202624,-74.0740740740741,4,1,0,50,0,0
207993,-83.3333333333333,4,1,0,50,0,0
216835,-133.333333333333,4,1,0,50,0,0
217782,-100,4,1,0,50,0,0
219361,-66.6666666666667,4,1,0,50,0,0
222835,-166.666666666667,4,1,0,50,0,0
223150,-100,4,1,0,50,0,0
223466,-74.0740740740741,4,1,0,50,0,0
223782,-55.5555555555556,4,1,0,50,0,0
224098,-100,4,1,0,50,0,0
227887,-66.6666666666667,4,1,0,50,0,0
228519,-80,4,1,0,50,0,0
233098,-57.1428571428571,4,1,0,50,0,0
235466,-80,4,1,0,50,0,0
243519,-100,4,1,0,50,0,0
243677,-66.6666666666667,4,1,0,50,0,0
245729,-100,4,1,0,50,0,0
255045,-66.6666666666667,4,1,0,50,0,0
255677,-100,4,1,0,50,0,0
258519,-66.6666666666667,4,1,0,50,0,1
272729,-100,4,1,0,50,0,1
273677,-133.333333333333,4,1,0,50,0,0
276203,-166.666666666667,4,1,0,50,0,0
283782,-100,4,1,0,50,0,0
293887,-100,4,1,0,50,0,0
294045,-100,4,1,0,50,0,0
294203,-100,4,1,0,45,0,0
294361,-100,4,1,0,45,0,0
294519,-100,4,1,0,40,0,0
294677,-100,4,1,0,40,0,0
294835,-100,4,1,0,35,0,0
294993,-100,4,1,0,35,0,0
295150,-100,4,1,0,30,0,0
295308,-100,4,1,0,30,0,0
295466,-100,4,1,0,25,0,0
295624,-100,4,1,0,25,0,0
295782,-100,4,1,0,20,0,0
295940,-100,4,1,0,20,0,0
296098,-100,4,1,0,15,0,0
296256,-100,4,1,0,10,0,0
296414,-100,4,1,0,5,0,0

[Colours]
Combo1 : 202,2,2
Combo2 : 0,0,164
Combo3 : 244,0,122
Combo4 : 128,0,255

[HitObjects]
120,264,571,6,0,P|176:248|216:280,2,80
364,116,1202,1,0,0:0:0:0:
248,272,1360,1,0,0:0:0:0:
164,128,1676,1,0,0:0:0:0:
320,208,1834,1,0,0:0:0:0:
356,96,2307,2,8,L|308:120,4,40
336,280,2939,5,0,0:0:0:0:
136,120,3255,1,0,0:0:0:0:
136,268,3413,1,0,0:0:0:0:
288,124,3728,1,0,0:0:0:0:
440,124,3886,1,0,0:0:0:0:
336,288,4202,2,0,P|288:308|248:296,1,80
160,128,4834,2,8,L|192:168,4,40
372,260,5465,5,0,0:0:0:0:
268,116,5781,2,0,P|308:88|340:112,1,80
256,292,6255,2,0,P|200:312|172:272,1,80
388,212,6728,1,0,0:0:0:0:
184,120,6886,1,0,0:0:0:0:
216,324,7360,2,8,L|264:316,4,40
328,84,7992,5,0,0:0:0:0:
144,96,8307,2,0,P|100:128|104:156,1,80
360,176,8781,2,0,P|380:224|360:244,1,80
168,188,9097,5,0,0:0:0:0:
352,180,9255,1,0,0:0:0:0:
136,168,9413,5,0,0:0:0:0:
372,216,9571,1,0,0:0:0:0:
112,200,9728,5,0,0:0:0:0:
396,176,9886,1,0,0:0:0:0:
88,152,10044,5,0,0:0:0:0:
412,244,10202,1,0,0:0:0:0:
168,288,10360,6,0,P|224:252|232:192,1,120.000004577637,0|0,0:0|0:0,0:0:0:0:
280,80,10676,2,0,P|344:68|360:84,2,60.0000022888184,0|0|0,0:0|0:0|0:0,0:0:0:0:
392,188,10992,2,0,P|400:260|360:288,1,120.000004577637,0|0,0:0|0:0,0:0:0:0:
367,285,11307,1,0,0:0:0:0:
248,140,11465,5,8,0:0:0:0:
172,260,11623,1,8,0:0:0:0:
324,220,11781,1,8,0:0:0:0:
132,112,11939,1,8,0:0:0:0:
220,328,12097,1,8,0:0:0:0:
412,152,12255,1,8,0:0:0:0:
144,76,12413,1,8,0:0:0:0:
340,288,12571,1,8,0:0:0:0:
160,268,12886,6,2,L|136:224,1,30.0000011444092
184,264,13044,2,0,B|180:176|180:176|216:148,1,120.000004577637
316,168,13360,1,0,0:0:0:0:
380,268,13518,1,0,0:0:0:0:
228,88,13834,2,2,L|184:120,1,40
244,108,13992,2,0,B|208:164|208:164|228:200,1,80
195,296,14465,1,0,0:0:0:0:
195,87,14623,1,0,0:0:0:0:
376,192,14781,1,0,0:0:0:0:
180,296,14939,1,0,0:0:0:0:
212,88,15097,1,0,0:0:0:0:
344,288,15255,6,8,L|304:304,2,40
364,280,15492,2,0,L|332:176,1,60.0000022888184
320,84,15728,6,0,B|260:100|260:100|248:128,1,80
380,220,16044,1,0,0:0:0:0:
184,204,16202,2,0,B|144:240|144:240|160:268,1,80
328,316,16518,6,2,L|352:312,2,20
392,144,16834,1,0,0:0:0:0:
200,208,16992,2,0,P|176:160|192:128,1,80
348,56,17465,5,0,0:0:0:0:
348,264,17623,1,0,0:0:0:0:
196,72,17782,5,8,0:0:0:0:
211,108,17860,1,0,0:0:0:0:
211,148,17939,1,8,0:0:0:0:
197,185,18018,1,0,0:0:0:0:
169,213,18097,1,8,0:0:0:0:
152,248,18176,1,0,0:0:0:0:
185,270,18254,1,8,0:0:0:0:
223,281,18333,1,0,0:0:0:0:
260,284,18413,1,8,0:0:0:0:
368,220,18571,5,8,0:0:0:0:
296,44,18886,2,0,L|256:68,2,40,8|0|8,0:0|0:0|0:0,0:0:0:0:
360,192,19202,1,8,0:0:0:0:
160,136,19360,1,8,0:0:0:0:
176,316,19518,1,8,0:0:0:0:
332,176,19676,2,0,P|316:120|284:92,1,80,8|8,0:0|0:0,0:0:0:0:
92,216,19992,1,8,0:0:0:0:
296,276,20149,1,8,0:0:0:0:
360,100,20307,6,0,B|316:96|316:96|280:120,1,80
384,256,20623,1,0,0:0:0:0:
340,64,20781,1,0,0:0:0:0:
152,128,20939,2,0,B|120:168|120:168|128:204,1,80
256,296,21255,1,0,0:0:0:0:
224,88,21413,1,0,0:0:0:0:
352,212,21571,6,0,L|380:168,2,40
152,160,21886,1,0,0:0:0:0:
260,324,22044,1,0,0:0:0:0:
372,152,22202,2,0,B|344:108|344:108|352:80,1,80
136,188,22518,2,0,B|160:240|160:240|144:268,1,80
256,192,23149,5,0,0:0:0:0:
396,144,23465,2,0,B|400:192|400:192|380:220,2,80
216,224,23939,1,0,0:0:0:0:
136,80,24097,2,0,B|180:56|180:56|220:72,1,80
360,196,24413,1,0,0:0:0:0:
360,196,24571,1,0,0:0:0:0:
140,264,24886,2,0,P|120:216|144:192,2,80
300,260,25360,5,0,0:0:0:0:
300,104,25518,1,0,0:0:0:0:
408,264,25676,1,0,0:0:0:0:
408,104,25834,1,0,0:0:0:0:
300,288,25992,5,0,0:0:0:0:
300,80,26149,1,0,0:0:0:0:
408,288,26307,1,0,0:0:0:0:
408,80,26465,1,0,0:0:0:0:
196,204,26623,5,0,0:0:0:0:
157,198,26701,1,0,0:0:0:0:
130,168,26780,1,0,0:0:0:0:
200,316,26939,2,0,P|252:324|288:304,1,80
224,144,27255,1,0,0:0:0:0:
360,248,27413,1,0,0:0:0:0:
360,248,27492,1,0,0:0:0:0:
360,248,27571,1,0,0:0:0:0:
236,72,27728,1,0,0:0:0:0:
128,272,27886,2,0,L|100:240,2,40
316,308,28202,6,0,B|372:284|396:252|396:252|396:164,1,160
252,112,28676,1,0,0:0:0:0:
208,292,28834,1,0,0:0:0:0:
360,208,28992,2,0,L|388:128,1,80
164,88,29307,2,0,B|124:116|124:116|128:152,1,80
264,92,29623,1,0,0:0:0:0:
302,98,29701,1,0,0:0:0:0:
330,127,29780,1,0,0:0:0:0:
340,164,29860,2,0,L|392:192,1,40
220,208,30018,2,0,L|272:232,1,40
348,304,30571,6,0,L|380:248,2,50
188,248,30886,1,0,0:0:0:0:
148,104,31044,2,0,P|208:76|260:88,2,100
352,168,31518,2,0,B|312:208|312:208|332:256,1,100
136,260,31834,1,0,0:0:0:0:
248,112,31992,1,0,0:0:0:0:
388,272,32149,2,0,B|380:328|380:328|324:296,1,100
140,136,32465,1,0,0:0:0:0:
372,172,32623,1,0,0:0:0:0:
168,292,32781,1,0,0:0:0:0:
356,268,32939,6,0,L|368:216,2,50
252,84,33255,1,0,0:0:0:0:
156,236,33413,1,0,0:0:0:0:
364,240,33571,1,0,0:0:0:0:
364,240,33649,1,0,0:0:0:0:
364,240,33728,1,0,0:0:0:0:
160,120,33886,2,0,B|96:124|96:124|84:184,1,100
88,172,34202,1,0,0:0:0:0:
224,292,34360,2,0,B|232:232|232:232|288:224,1,100
368,120,34676,1,0,0:0:0:0:
172,96,34834,1,0,0:0:0:0:
296,308,34992,2,0,L|344:272,2,50
160,248,35307,2,0,L|104:292,2,50
112,120,35781,6,0,P|184:104|212:120,1,88.000002685547
340,248,36097,1,0,0:0:0:0:
340,248,36176,1,0,0:0:0:0:
340,248,36255,2,0,P|372:200|360:152,1,88.000002685547
160,208,36571,1,0,0:0:0:0:
336,332,36728,1,0,0:0:0:0:
336,116,36886,1,0,0:0:0:0:
176,108,37202,6,0,P|132:144|120:136,2,44.0000013427735
360,212,37518,1,0,0:0:0:0:
176,312,37676,1,0,0:0:0:0:
248,100,37834,1,0,0:0:0:0:
124,144,38149,6,0,L|216:144,1,88.000002685547
344,312,38465,2,0,L|344:220,1,88.000002685547
344,72,38781,1,0,0:0:0:0:
140,72,38939,1,0,0:0:0:0:
172,268,39255,5,0,0:0:0:0:
324,88,39413,1,0,0:0:0:0:
232,308,39571,5,0,0:0:0:0:
260,72,39729,1,0,0:0:0:0:
300,304,39886,5,0,0:0:0:0:
196,92,40044,1,0,0:0:0:0:
356,268,40202,5,0,0:0:0:0:
152,144,40360,1,0,0:0:0:0:
372,192,40992,6,0,P|364:140|332:120,1,88.000002685547
156,264,41307,2,0,P|168:308|212:300,1,88.000002685547
388,308,41781,1,0,0:0:0:0:
388,308,41939,5,0,0:0:0:0:
336,124,42097,1,0,0:0:0:0:
124,184,42255,1,0,0:0:0:0:
124,184,42334,1,0,0:0:0:0:
124,184,42413,2,0,P|164:232|188:224,1,88.000002685547
236,60,42728,1,0,0:0:0:0:
388,176,42886,1,0,0:0:0:0:
188,264,43360,5,0,0:0:0:0:
280,172,43518,1,0,0:0:0:0:
288,300,43676,1,0,0:0:0:0:
308,140,43834,1,0,0:0:0:0:
136,260,43992,1,0,0:0:0:0:
336,108,44149,1,0,0:0:0:0:
288,348,44307,1,0,0:0:0:0:
136,260,44465,1,0,0:0:0:0:
248,232,44623,6,0,B|280:272|280:272|320:268,1,88.000002685547
288,92,44939,1,0,0:0:0:0:
252,92,45018,1,0,0:0:0:0:
216,92,45097,1,0,0:0:0:0:
320,232,45255,1,0,0:0:0:0:
112,276,45413,2,0,L|148:304,2,44.0000013427735
328,124,46044,6,0,P|360:160|360:196,1,80
360,212,46360,1,0,0:0:0:0:
184,296,46518,2,0,P|132:256|128:152,1,160
304,168,46992,1,0,0:0:0:0:
304,168,47149,2,0,B|336:228|308:284|308:284|360:284,1,160
176,208,47623,1,0,0:0:0:0:
260,84,47781,2,0,P|304:84|352:128,1,80
200,236,48097,5,0,0:0:0:0:
300,144,48255,1,0,0:0:0:0:
188,128,48413,5,0,0:0:0:0:
312,252,48571,1,0,0:0:0:0:
176,272,48728,5,0,0:0:0:0:
324,112,48886,1,0,0:0:0:0:
160,92,49044,5,0,0:0:0:0:
344,284,49202,1,0,0:0:0:0:
192,92,49360,5,0,0:0:0:0:
292,92,49518,1,0,0:0:0:0:
192,168,49676,5,0,0:0:0:0:
320,168,49834,1,0,0:0:0:0:
188,244,49992,5,0,0:0:0:0:
348,244,50149,1,0,0:0:0:0:
188,320,50307,5,0,0:0:0:0:
380,320,50465,1,0,0:0:0:0:
136,224,50623,5,0,0:0:0:0:
164,196,50701,1,0,0:0:0:0:
199,176,50780,1,0,0:0:0:0:
236,162,50859,1,0,0:0:0:0:
272,144,50938,1,0,0:0:0:0:
288,320,51097,5,0,0:0:0:0:
128,296,51255,2,0,B|96:236|96:236|112:208,1,80
292,184,51571,2,0,B|264:140|264:140|220:148,1,80
292,320,51886,1,0,0:0:0:0:
424,212,52044,2,0,B|420:156|420:156|392:144,1,80
248,104,52360,1,0,0:0:0:0:
184,272,52518,1,0,0:0:0:0:
364,264,52676,2,0,P|392:216|380:184,1,80
128,132,52992,2,0,L|172:132,4,40
160,224,53465,5,0,0:0:0:0:
304,288,53623,2,0,B|348:292|348:292|384:260,1,80
132,188,53939,1,0,0:0:0:0:
296,104,54097,2,0,L|296:160,2,40
164,280,54413,6,0,P|160:248|176:256,1,47.9999985351563
96,152,54728,2,0,B|148:152|148:152|176:104,1,100
296,144,55044,2,0,P|332:144|296:164,1,100
292,212,55360,2,0,L|384:304,1,120.000004577637
224,316,55676,1,0,0:0:0:0:
184,296,55756,1,0,0:0:0:0:
147,271,55834,1,0,0:0:0:0:
127,232,55913,1,0,0:0:0:0:
116,188,55992,1,0,0:0:0:0:
248,116,56149,6,0,P|304:140|304:176,1,95.9999970703126
184,236,56465,1,0,0:0:0:0:
272,92,56623,2,0,P|328:116|328:152,1,95.9999970703126
120,156,56939,2,0,B|100:204|100:204|124:240,1,95.9999970703126
272,292,57255,1,0,0:0:0:0:
336,156,57413,1,0,0:0:0:0:
176,200,57571,1,0,0:0:0:0:
356,244,57728,1,0,0:0:0:0:
252,60,57886,1,0,0:0:0:0:
252,328,58202,1,0,0:0:0:0:
376,200,58518,6,0,B|372:140|372:140|336:120,1,95.9999970703126
164,208,58834,2,0,B|132:248|132:248|160:288,1,95.9999970703126
336,320,59149,1,0,0:0:0:0:
272,96,59307,2,0,B|212:120|212:120|228:184,1,95.9999970703126
376,208,59623,1,0,0:0:0:0:
176,296,59781,1,0,0:0:0:0:
192,140,59939,1,0,0:0:0:0:
324,296,60097,1,0,0:0:0:0:
112,248,60255,1,0,0:0:0:0:
348,192,60413,1,0,0:0:0:0:
76,68,60728,1,0,0:0:0:0:
276,104,60886,6,0,P|312:128|304:168,1,80
128,204,61202,1,0,0:0:0:0:
128,204,61281,1,0,0:0:0:0:
128,204,61360,1,0,0:0:0:0:
332,288,61518,1,0,0:0:0:0:
332,288,61597,1,0,0:0:0:0:
332,288,61676,1,0,0:0:0:0:
352,120,61834,2,0,P|328:88|288:88,1,80
152,228,62149,1,0,0:0:0:0:
360,236,62307,1,0,0:0:0:0:
252,56,62465,2,0,L|208:80,6,40
144,244,63255,6,0,B|168:276|168:276|224:268,1,80
224,120,63571,1,0,0:0:0:0:
384,196,63728,2,0,B|376:252|376:252|336:284,1,80
132,216,64044,2,0,B|132:168|132:164|152:140,1,80
348,112,64360,1,0,0:0:0:0:
260,312,64518,1,0,0:0:0:0:
116,136,64676,1,0,0:0:0:0:
352,224,64834,1,0,0:0:0:0:
180,84,64992,5,0,0:0:0:0:
178,122,65070,1,0,0:0:0:0:
204,151,65149,1,0,0:0:0:0:
242,165,65228,1,0,0:0:0:0:
281,174,65307,1,0,0:0:0:0:
311,198,65386,1,0,0:0:0:0:
318,237,65465,1,0,0:0:0:0:
124,280,65623,2,0,B|184:304|184:304|228:300,1,80
320,276,66255,6,0,B|352:228|352:228|352:188,1,80
380,64,66571,1,0,0:0:0:0:
224,84,66728,2,0,B|184:128|184:128|196:160|196:160|160:196|160:196|184:228,1,160
296,288,67202,1,0,0:0:0:0:
124,208,67360,2,0,B|128:164|128:164|176:144,1,80
344,104,67676,2,0,B|352:164|352:164|332:184,1,80
224,300,67992,1,0,0:0:0:0:
164,140,68149,1,0,0:0:0:0:
324,156,68307,2,0,L|352:200,2,40
148,288,68781,6,0,L|176:248,2,40
180,116,69097,1,0,0:0:0:0:
336,196,69255,1,0,0:0:0:0:
216,316,69413,2,0,B|180:284|180:284|168:248,1,80
272,100,69728,2,0,P|320:96|360:128,1,80
340,292,70044,1,0,0:0:0:0:
112,208,70202,2,0,B|128:152|128:152|176:140,1,80
336,188,70518,2,0,L|316:232,6,40
144,256,71149,5,0,0:0:0:0:
300,296,71307,1,0,0:0:0:0:
152,144,71465,2,0,B|180:96|180:96|216:96|216:96|232:128|232:128|272:128,1,160
144,124,72255,1,0,0:0:0:0:
320,124,72413,1,0,0:0:0:0:
144,124,72571,1,0,0:0:0:0:
320,124,72728,1,0,0:0:0:0:
236,296,72886,5,0,0:0:0:0:
236,92,73044,1,0,0:0:0:0:
236,296,73202,1,0,0:0:0:0:
215,231,73518,5,0,0:0:0:0:
216,151,73676,1,0,0:0:0:0:
296,152,73834,1,0,0:0:0:0:
295,232,73992,1,0,0:0:0:0:
168,296,74149,6,0,B|128:252|128:252|144:200,1,80
248,100,74465,1,0,0:0:0:0:
384,248,74623,2,0,B|328:256|328:256|308:224,1,80
140,204,74939,1,0,0:0:0:0:
316,144,75097,1,0,0:0:0:0:
248,320,75255,1,0,0:0:0:0:
136,128,75413,2,0,B|184:92|184:92|220:96,1,80
372,104,75886,5,0,0:0:0:0:
368,292,76044,1,0,0:0:0:0:
164,88,76360,5,0,0:0:0:0:
160,312,76518,1,0,0:0:0:0:
296,236,76676,6,0,P|300:180|320:176,1,80
424,276,76992,1,0,0:0:0:0:
392,100,77149,5,0,0:0:0:0:
172,100,77307,1,0,0:0:0:0:
400,188,77623,6,0,B|360:128|360:128|328:144,1,80
144,136,77939,2,0,B|192:92|192:92|228:92,1,80
312,280,78255,2,0,L|264:288,2,40
120,288,78571,2,0,B|124:232|124:232|152:216,1,80
344,120,78886,2,0,B|288:96|288:96|252:108,1,80
248,316,79202,2,0,L|288:320,2,40
396,260,79518,2,0,B|412:196|412:196|392:164,1,80
252,72,79834,1,0,0:0:0:0:
136,184,79992,1,0,0:0:0:0:
332,256,80149,2,0,L|344:212,4,40
256,188,80939,5,0,0:0:0:0:
168,164,81097,1,0,0:0:0:0:
220,280,81255,1,0,0:0:0:0:
344,216,81413,1,0,0:0:0:0:
256,96,81571,1,0,0:0:0:0:
280,272,81728,1,0,0:0:0:0:
152,152,81886,1,0,0:0:0:0:
332,136,82044,5,0,0:0:0:0:
188,260,82202,1,0,0:0:0:0:
180,80,82360,1,0,0:0:0:0:
352,240,82518,1,0,0:0:0:0:
120,220,82676,1,0,0:0:0:0:
320,92,82834,1,0,0:0:0:0:
252,320,82992,5,0,0:0:0:0:
120,128,83149,1,0,0:0:0:0:
340,84,83307,1,0,0:0:0:0:
160,284,83465,1,0,0:0:0:0:
352,208,83623,1,0,0:0:0:0:
124,76,83781,1,0,0:0:0:0:
208,328,83939,1,0,0:0:0:0:
328,84,84097,5,0,0:0:0:0:
104,232,84255,1,0,0:0:0:0:
384,272,84413,1,0,0:0:0:0:
140,80,84571,1,0,0:0:0:0:
256,312,84728,1,0,0:0:0:0:
360,80,84886,1,0,0:0:0:0:
152,296,85044,1,0,0:0:0:0:
408,176,85360,5,0,0:0:0:0:
116,56,85676,5,0,0:0:0:0:
228,56,85834,1,0,0:0:0:0:
368,216,86307,6,2,L|352:160,2,40
220,256,86623,1,0,0:0:0:0:
300,84,86781,1,0,0:0:0:0:
376,264,86939,1,0,0:0:0:0:
164,116,87097,1,0,0:0:0:0:
172,296,87255,5,8,0:0:0:0:
140,100,87413,1,8,0:0:0:0:
340,200,87571,5,8,0:0:0:0:
120,188,87728,1,8,0:0:0:0:
268,48,87886,5,8,0:0:0:0:
280,296,88044,1,8,0:0:0:0:
208,124,88202,5,8,0:0:0:0:
408,272,88360,1,8,0:0:0:0:
220,248,88518,6,2,L|176:276,2,40
400,192,88834,1,0,0:0:0:0:
272,112,88992,1,0,0:0:0:0:
208,304,89149,1,0,0:0:0:0:
144,96,89307,2,2,L|112:144,2,47.9999985351563
120,264,89623,6,8,B|92:216|92:216|112:176,1,95.9999970703126,8|8,0:0|0:0,0:0:0:0:
328,72,89939,2,8,B|364:136|364:136|348:184,1,95.9999970703126,8|8,0:0|0:0,0:0:0:0:
116,176,90255,2,8,B|88:124|88:124|116:72,1,95.9999970703126,8|8,0:0|0:0,0:0:0:0:
332,256,90571,2,8,B|368:308|368:308|336:348,1,95.9999970703126,8|8,0:0|0:0,0:0:0:0:
132,276,90886,5,2,0:0:0:0:
166,256,90964,1,2,0:0:0:0:
191,225,91043,1,2,0:0:0:0:
200,187,91122,1,0,0:0:0:0:
231,162,91201,1,0,0:0:0:0:
269,150,91280,1,0,0:0:0:0:
309,151,91359,1,0,0:0:0:0:
344,288,91518,2,0,P|296:312|252:296,1,80
152,204,91834,5,0,0:0:0:0:
336,132,91992,2,0,B|360:192|360:192|336:232,1,80
172,76,92307,1,8,0:0:0:0:
284,296,92465,1,8,0:0:0:0:
312,56,92623,2,8,B|376:96|376:96|376:124,1,80
132,232,92939,1,8,0:0:0:0:
360,232,93097,1,8,0:0:0:0:
132,232,93255,1,8,0:0:0:0:
360,232,93413,1,8,0:0:0:0:
296,80,93886,6,2,L|328:108,2,40
336,236,94202,2,2,L|324:192,2,40
144,236,94518,1,0,0:0:0:0:
140,92,94676,1,0,0:0:0:0:
392,280,94834,5,8,0:0:0:0:
384,240,94912,1,0,0:0:0:0:
368,204,94991,1,8,0:0:0:0:
345,172,95070,1,0,0:0:0:0:
314,146,95149,1,8,0:0:0:0:
279,127,95228,1,0,0:0:0:0:
240,117,95307,1,8,0:0:0:0:
204,120,95386,5,0,0:0:0:0:
204,168,95464,1,8,0:0:0:0:
204,216,95543,1,0,0:0:0:0:
204,264,95622,1,8,0:0:0:0:
204,312,95702,1,0,0:0:0:0:
156,317,95780,1,8,0:0:0:0:
111,302,95859,1,0,0:0:0:0:
78,268,95938,1,8,0:0:0:0:
76,144,96097,6,0,L|180:116,1,95.9999970703126,2|0,0:0|0:0,0:0:0:0:
348,136,96413,1,2,0:0:0:0:
256,268,96571,2,2,P|208:320|148:304,1,95.9999970703126,0|2,0:0|0:0,0:0:0:0:
148,104,96886,2,0,P|208:80|272:104,1,95.9999970703126,0|2,0:0|0:0,0:0:0:0:
384,220,97202,1,0,0:0:0:0:
136,300,97360,5,8,0:0:0:0:
312,168,97518,1,8,0:0:0:0:
144,160,97676,1,8,0:0:0:0:
312,268,97834,1,8,0:0:0:0:
248,72,97992,1,8,0:0:0:0:
180,312,98149,1,8,0:0:0:0:
376,116,98307,1,8,0:0:0:0:
124,184,98465,1,8,0:0:0:0:
332,184,98939,6,2,L|304:144,2,47.9999985351563
160,276,99255,1,0,0:0:0:0:
160,276,99413,1,0,0:0:0:0:
120,144,99571,2,2,L|168:112,2,47.9999985351563
372,184,99886,6,2,L|348:128,2,47.9999985351563
264,240,100202,2,2,L|260:180,2,47.9999985351563
120,188,100518,1,0,0:0:0:0:
120,188,100676,1,0,0:0:0:0:
248,108,100834,1,0,0:0:0:0:
248,108,100992,1,0,0:0:0:0:
304,280,101465,6,0,P|344:260|352:228,1,71.9999978027344
196,84,101781,2,0,B|152:108|152:108|124:88,1,71.9999978027344
152,264,102097,2,0,P|188:304|276:264,1,143.999995605469
216,96,102571,1,0,0:0:0:0:
364,232,102728,1,0,0:0:0:0:
236,112,102886,1,0,0:0:0:0:
380,248,103044,1,0,0:0:0:0:
148,208,103202,2,0,P|120:264|184:304,1,143.999995605469
344,92,103676,6,0,B|320:128|320:128|344:168,1,71.9999978027344
148,188,103992,1,0,0:0:0:0:
320,268,104149,2,0,P|332:308|312:312,1,71.9999978027344
312,116,104465,1,0,0:0:0:0:
180,272,104623,1,0,0:0:0:0:
180,272,104781,1,0,0:0:0:0:
136,120,104939,1,0,0:0:0:0:
136,120,105097,1,0,0:0:0:0:
328,136,105255,6,0,P|352:196|360:220,1,71.9999978027344
132,244,105571,2,0,P|164:188|176:172,1,71.9999978027344
352,272,105886,1,0,0:0:0:0:
204,100,106044,1,0,0:0:0:0:
152,320,106360,6,0,P|124:288|136:260,1,71.9999978027344
288,136,106676,2,0,P|316:172|308:200,1,71.9999978027344
104,144,106992,2,0,P|156:120|188:136,1,71.9999978027344
152,284,107307,1,0,0:0:0:0:
332,176,107465,1,0,0:0:0:0:
200,64,107623,2,0,B|168:112|168:112|176:140,1,71.9999978027344
280,304,107939,1,0,0:0:0:0:
408,200,108097,2,0,P|412:148|404:144,2,71.9999978027344
216,152,108571,1,0,0:0:0:0:
316,276,108728,5,0,0:0:0:0:
316,276,108807,1,0,0:0:0:0:
316,276,108886,2,0,L|320:224,2,35.9999989013672
140,212,109202,6,0,L|184:176,2,35.9999989013672
352,216,109518,1,0,0:0:0:0:
184,316,109676,1,0,0:0:0:0:
148,104,109834,2,0,B|196:100|196:100|212:136,1,71.9999978027344
380,232,110149,2,0,B|368:176|368:176|328:152,1,71.9999978027344
128,236,110465,1,0,0:0:0:0:
316,152,110623,1,0,0:0:0:0:
128,236,110781,1,0,0:0:0:0:
316,152,110939,1,0,0:0:0:0:
148,76,111097,1,0,0:0:0:0:
308,284,111413,5,0,0:0:0:0:
272,284,111491,1,0,0:0:0:0:
239,270,111570,1,0,0:0:0:0:
213,245,111649,1,0,0:0:0:0:
200,212,111728,1,0,0:0:0:0:
196,172,111807,2,0,L|172:136,3,35.9999989013672
364,172,112202,1,0,0:0:0:0:
364,172,112360,1,0,0:0:0:0:
236,304,112518,6,0,B|184:284|184:284|176:244,1,71.9999978027344
176,92,112834,1,0,0:0:0:0:
344,200,112992,1,0,0:0:0:0:
124,240,113149,2,0,B|88:204|88:204|96:156,1,71.9999978027344
240,72,113465,2,0,B|288:92|288:92|312:132,1,71.9999978027344
352,208,113939,5,0,0:0:0:0:
108,188,114097,1,0,0:0:0:0:
160,300,114255,2,0,P|216:316|244:296,1,71.9999978027344
312,80,114571,2,0,P|284:112|296:160,1,71.9999978027344
104,112,114886,2,0,P|128:152|168:176,1,71.9999978027344
384,220,115202,1,0,0:0:0:0:
216,260,115360,2,0,L|188:224,2,35.9999989013672
376,80,115676,1,0,0:0:0:0:
136,96,115834,2,0,L|152:132,6,35.9999989013672
140,92,116781,6,0,B|136:136|136:136|164:168,1,71.9999978027344
328,196,117097,1,0,0:0:0:0:
168,296,117255,1,0,0:0:0:0:
200,92,117413,1,0,0:0:0:0:
328,296,117571,2,0,B|356:260|356:260|348:208,1,71.9999978027344
104,192,118044,1,0,0:0:0:0:
140,192,118122,1,0,0:0:0:0:
176,192,118201,5,0,0:0:0:0:
212,192,118281,1,0,0:0:0:0:
248,192,118359,1,0,0:0:0:0:
288,192,118439,2,0,L|336:192,3,35.9999989013672
168,92,118992,5,0,0:0:0:0:
376,176,119149,1,0,0:0:0:0:
164,280,119307,1,0,0:0:0:0:
340,88,119465,2,0,B|288:120|288:120|292:156,1,71.9999978027344
132,160,119781,1,0,0:0:0:0:
132,160,119860,1,0,0:0:0:0:
132,160,119939,1,0,0:0:0:0:
140,296,120255,6,0,B|128:248|128:248|148:224,1,71.9999978027344
336,156,120571,1,0,0:0:0:0:
260,316,120728,1,0,0:0:0:0:
184,128,120886,1,0,0:0:0:0:
340,260,121044,1,0,0:0:0:0:
340,260,121123,1,0,0:0:0:0:
340,260,121202,1,0,0:0:0:0:
348,104,121518,6,0,L|348:184,1,71.9999978027344
208,108,121834,2,0,L|124:108,1,71.9999978027344
264,284,122149,1,0,0:0:0:0:
360,116,122307,5,0,0:0:0:0:
124,156,122465,2,0,B|100:212|100:212|120:232,1,71.9999978027344
336,284,122781,2,0,B|368:248|368:248|344:212,1,71.9999978027344
216,108,123097,1,0,0:0:0:0:
140,308,123255,1,0,0:0:0:0:
252,120,123413,1,0,0:0:0:0:
184,320,123571,1,0,0:0:0:0:
256,192,123886,12,0,125149,0:0:0:0:
140,100,125623,5,0,0:0:0:0:
252,192,125781,1,0,0:0:0:0:
352,288,125939,1,0,0:0:0:0:
432,196,126097,1,0,0:0:0:0:
320,104,126255,1,0,0:0:0:0:
132,168,126413,6,0,P|124:216|152:240,1,71.9999978027344
352,204,126728,1,0,0:0:0:0:
264,336,126886,2,0,P|212:320|196:288,1,71.9999978027344
284,108,127202,1,0,0:0:0:0:
156,256,127360,1,0,0:0:0:0:
360,256,127518,1,0,0:0:0:0:
152,128,127676,2,0,B|136:176|136:176|160:224,1,71.9999978027344
384,200,127992,2,0,B|392:156|392:156|364:120,1,71.9999978027344
176,268,128307,5,0,0:0:0:0:
336,148,128465,1,0,0:0:0:0:
360,328,128623,2,0,B|320:336|320:336|264:304,1,71.9999978027344
248,108,128939,1,0,0:0:0:0:
136,280,129097,1,0,0:0:0:0:
332,236,129255,2,0,B|368:196|368:196|352:164,1,71.9999978027344
136,164,129571,5,0,0:0:0:0:
316,248,129728,1,0,0:0:0:0:
116,308,129886,1,0,0:0:0:0:
260,140,130044,1,0,0:0:0:0:
396,304,130202,1,0,0:0:0:0:
144,208,130360,2,0,B|148:160|148:160|180:144,1,71.9999978027344
320,260,130676,1,0,0:0:0:0:
392,120,130834,1,0,0:0:0:0:
200,256,130992,1,0,0:0:0:0:
152,108,131149,6,0,B|200:84|200:84|248:104,1,71.9999978027344
288,272,131465,1,0,0:0:0:0:
288,272,131623,1,0,0:0:0:0:
288,272,131781,1,0,0:0:0:0:
336,152,131939,5,0,0:0:0:0:
336,152,132097,1,0,0:0:0:0:
128,240,132255,5,0,0:0:0:0:
128,240,132413,1,0,0:0:0:0:
256,192,132571,12,0,133834,0:0:0:0:
148,120,134149,6,0,P|168:184|240:240,1,143.999995605469
324,148,135413,6,0,P|312:192|256:216,1,95.9999970703126
272,200,137119,5,0,0:0:0:0:
368,148,137276,1,0,0:0:0:0:
156,156,137434,2,0,L|180:112,2,40
376,296,137750,2,0,L|336:328,2,40
332,184,138066,2,0,B|316:140|316:140|284:128,1,80
160,284,138382,2,0,B|216:300|216:300|240:256,1,80
152,104,138697,1,0,0:0:0:0:
352,288,138855,1,0,0:0:0:0:
232,232,139013,1,0,0:0:0:0:
372,168,139171,6,0,P|328:124|284:128,1,80
112,104,139487,2,0,L|112:176,1,60.0000022888184
192,188,139645,2,0,L|192:252,1,60.0000022888184
108,260,139803,2,0,L|108:320,1,60.0000022888184
208,324,139961,2,0,P|268:296|288:232,1,120.000004577637
288,112,140276,1,0,0:0:0:0:
408,292,140592,1,0,0:0:0:0:
392,120,140750,6,0,L|328:120,1,60.0000022888184
304,40,140908,2,0,L|232:40,1,60.0000022888184
204,120,141066,2,0,L|140:120,1,60.0000022888184
56,120,141224,2,0,P|60:192|104:224,1,120.000004577637
288,220,141540,1,0,0:0:0:0:
396,68,141855,1,0,0:0:0:0:
128,144,142487,5,0,0:0:0:0:
232,80,142645,1,0,0:0:0:0:
336,144,142803,1,0,0:0:0:0:
368,276,142961,2,0,B|292:288|292:288|284:320,1,80
120,212,143276,1,0,0:0:0:0:
220,92,143434,2,0,L|320:84,1,80
312,304,143750,1,0,0:0:0:0:
112,320,143908,1,0,0:0:0:0:
160,112,144224,1,0,0:0:0:0:
312,88,144540,6,0,B|264:76|264:76|216:104,1,80
120,228,144855,2,0,B|136:284|136:284|176:292,1,80
328,268,145171,2,0,L|360:240,2,40
240,128,145487,2,0,L|192:152,2,40
184,260,145961,5,0,0:0:0:0:
187,120,146119,1,0,0:0:0:0:
327,123,146276,1,0,0:0:0:0:
324,263,146434,1,0,0:0:0:0:
184,260,146592,2,0,B|124:260|124:260|112:224,1,80
356,80,146908,5,0,0:0:0:0:
356,120,146986,1,0,0:0:0:0:
356,160,147065,1,0,0:0:0:0:
356,200,147144,1,0,0:0:0:0:
356,240,147223,1,0,0:0:0:0:
356,280,147302,1,0,0:0:0:0:
356,320,147381,1,0,0:0:0:0:
144,276,147540,6,0,B|120:232|120:232|144:196,1,80
292,104,147855,1,0,0:0:0:0:
292,288,148013,1,0,0:0:0:0:
120,140,148171,1,0,0:0:0:0:
376,168,148329,2,0,B|372:224|372:224|340:244,1,80
152,280,148803,6,0,B|124:236|124:236|144:196,1,80
292,80,149119,1,0,0:0:0:0:
352,312,149277,1,0,0:0:0:0:
148,160,149434,1,0,0:0:0:0:
396,188,149908,6,0,B|376:148|376:148|336:152,1,80
152,236,150224,1,0,0:0:0:0:
356,296,150382,1,0,0:0:0:0:
268,128,150540,1,0,0:0:0:0:
88,160,150697,1,0,0:0:0:0:
220,324,150855,2,0,B|288:288|288:288|288:248,2,80
252,128,151329,2,0,P|300:116|328:132,1,80
400,288,151645,2,0,P|356:308|312:304,1,80
148,148,152119,1,0,0:0:0:0:
368,72,152434,5,0,0:0:0:0:
368,296,152592,1,0,0:0:0:0:
240,104,152908,1,0,0:0:0:0:
252,304,153066,2,0,B|296:268|296:268|296:228,1,80
144,208,153540,2,0,B|116:172|116:172|144:152,1,80
376,228,153855,2,0,B|388:276|388:276|352:296,1,80
224,72,154171,2,0,B|272:64|272:64|288:104,1,80
240,304,154487,1,0,0:0:0:0:
164,80,154645,5,0,0:0:0:0:
356,276,154803,1,0,0:0:0:0:
164,80,154961,1,0,0:0:0:0:
356,276,155119,1,0,0:0:0:0:
160,76,155276,1,0,0:0:0:0:
352,272,155434,1,0,0:0:0:0:
84,272,155750,1,0,0:0:0:0:
368,120,156224,5,0,0:0:0:0:
152,272,156382,1,0,0:0:0:0:
368,120,156540,1,0,0:0:0:0:
152,272,156697,1,0,0:0:0:0:
128,68,156855,2,0,L|168:68,2,40
328,240,157171,5,0,0:0:0:0:
328,240,157250,1,0,0:0:0:0:
328,240,157329,1,0,0:0:0:0:
136,192,157487,1,0,0:0:0:0:
136,192,157566,1,0,0:0:0:0:
136,192,157645,1,0,0:0:0:0:
280,92,157803,1,0,0:0:0:0:
388,212,157961,2,0,B|392:260|392:260|348:288,1,80
176,288,158276,2,0,B|144:256|144:256|160:208,1,80
332,128,158592,5,0,0:0:0:0:
128,208,158750,1,0,0:0:0:0:
372,264,158908,1,0,0:0:0:0:
124,168,159066,1,0,0:0:0:0:
348,100,159224,1,0,0:0:0:0:
128,208,159382,2,0,L|168:208,4,40
180,312,159855,5,0,0:0:0:0:
264,112,160013,1,0,0:0:0:0:
328,320,160171,1,0,0:0:0:0:
264,88,160329,1,0,0:0:0:0:
180,312,160487,1,0,0:0:0:0:
264,68,160645,2,0,L|304:68,2,40
132,192,160961,5,0,0:0:0:0:
172,192,161039,1,0,0:0:0:0:
212,192,161118,1,0,0:0:0:0:
352,268,161276,1,0,0:0:0:0:
370,233,161354,1,0,0:0:0:0:
355,197,161433,1,0,0:0:0:0:
212,64,161592,5,0,0:0:0:0:
360,280,161750,1,0,0:0:0:0:
108,200,161908,2,0,L|56:208,2,40
276,320,162224,6,0,P|320:284|312:256,1,80
136,136,162540,1,0,0:0:0:0:
292,72,162697,1,0,0:0:0:0:
144,240,162855,2,0,L|112:204,2,40
352,136,163171,1,0,0:0:0:0:
296,308,163329,1,0,0:0:0:0:
152,120,163487,1,0,0:0:0:0:
348,100,163645,6,0,P|376:132|364:172,1,80
140,248,163961,1,0,0:0:0:0:
264,92,164119,1,0,0:0:0:0:
360,324,164276,1,0,0:0:0:0:
136,144,164434,1,0,0:0:0:0:
368,180,164750,1,0,0:0:0:0:
144,80,164908,5,0,0:0:0:0:
200,304,165066,1,0,0:0:0:0:
368,120,165382,5,0,0:0:0:0:
148,240,165540,1,0,0:0:0:0:
368,120,165697,1,0,0:0:0:0:
104,108,166013,5,0,0:0:0:0:
264,280,166171,1,0,0:0:0:0:
292,64,166329,1,0,0:0:0:0:
264,280,166487,1,0,0:0:0:0:
104,108,166645,1,0,0:0:0:0:
264,280,166803,1,0,0:0:0:0:
292,64,166961,1,0,0:0:0:0:
92,272,167276,1,0,0:0:0:0:
104,160,167572,6,0,P|172:136|224:144,1,120.000004577637,2|0,0:0|0:0,0:0:0:0:
360,288,167888,1,2,0:0:0:0:
168,268,168046,1,0,0:0:0:0:
304,80,168204,2,0,P|360:144|360:192,1,120.000004577637,2|0,0:0|0:0,0:0:0:0:
200,160,168520,5,8,0:0:0:0:
292,248,168677,1,8,0:0:0:0:
140,264,168835,1,8,0:0:0:0:
320,124,168993,1,8,0:0:0:0:
236,336,169150,1,8,0:0:0:0:
144,92,169308,1,8,0:0:0:0:
372,280,169467,1,8,0:0:0:0:
60,216,169625,1,8,0:0:0:0:
184,128,169782,6,2,L|184:200,1,60.0000022888184
200,128,169940,2,2,L|200:192,1,60.0000022888184
216,128,170098,2,0,B|216:196|216:196|256:244,1,120.000004577637,2|0,0:0|0:0,0:0:0:0:
88,308,170414,1,0,0:0:0:0:
116,104,170572,6,2,L|188:104,2,60.0000022888184
336,300,170887,5,8,0:0:0:0:
336,64,171045,1,8,0:0:0:0:
272,300,171203,1,8,0:0:0:0:
272,64,171361,1,8,0:0:0:0:
192,300,171519,1,8,0:0:0:0:
192,64,171677,1,8,0:0:0:0:
96,300,171835,1,8,0:0:0:0:
96,64,171993,1,8,0:0:0:0:
256,288,172150,5,0,0:0:0:0:
272,256,172229,1,0,0:0:0:0:
288,224,172308,1,0,0:0:0:0:
304,192,172387,1,0,0:0:0:0:
320,160,172466,2,0,P|336:96|288:64,1,120.000004577637
144,80,172861,5,0,0:0:0:0:
144,80,172940,2,0,P|96:136|112:184,1,120.000004577637
352,240,173256,1,0,0:0:0:0:
296,84,173414,1,0,0:0:0:0:
248,296,173572,5,8,0:0:0:0:
210,281,173650,1,0,0:0:0:0:
177,258,173729,1,8,0:0:0:0:
151,228,173808,1,0,0:0:0:0:
134,192,173887,1,8,0:0:0:0:
160,124,173966,5,0,0:0:0:0:
204,124,174044,1,8,0:0:0:0:
248,124,174123,1,0,0:0:0:0:
293,124,174202,1,8,0:0:0:0:
337,124,174281,1,0,0:0:0:0:
360,192,174361,5,8,0:0:0:0:
358,228,174439,1,0,0:0:0:0:
346,262,174518,1,8,0:0:0:0:
325,292,174597,1,0,0:0:0:0:
295,313,174676,1,8,0:0:0:0:
156,296,174835,6,0,B|108:256|108:256|180:232,1,120.000004577637,2|0,0:0|0:0,0:0:0:0:
152,112,175150,1,2,0:0:0:0:
232,80,175308,1,0,0:0:0:0:
316,100,175466,1,2,0:0:0:0:
372,204,175624,2,0,B|360:268|360:268|300:296,2,120.000004577637,0|2|0,0:0|0:0|0:0,0:0:0:0:
184,296,176098,1,8,0:0:0:0:
117,244,176256,1,0,0:0:0:0:
106,161,176414,1,8,0:0:0:0:
157,94,176571,1,0,0:0:0:0:
332,92,176729,5,8,0:0:0:0:
399,143,176887,1,0,0:0:0:0:
410,226,177045,1,8,0:0:0:0:
359,293,177203,1,0,0:0:0:0:
144,176,177677,6,0,P|208:144|272:164,1,120.000004577637,2|0,0:0|0:0,0:0:0:0:
240,300,177993,1,2,0:0:0:0:
404,236,178150,2,0,P|416:168|384:120,1,120.000004577637,0|2,0:0|0:0,0:0:0:0:
240,72,178466,1,0,0:0:0:0:
256,312,178624,5,8,0:0:0:0:
128,192,178782,1,8,0:0:0:0:
376,192,178940,1,8,0:0:0:0:
256,72,179098,1,8,0:0:0:0:
224,344,179256,1,8,0:0:0:0:
96,160,179414,1,8,0:0:0:0:
408,224,179572,1,8,0:0:0:0:
288,40,179729,1,8,0:0:0:0:
256,192,180203,12,0,182572,0:0:0:0:
112,112,182729,6,0,B|112:136|112:136|164:112|164:112|168:176|168:176|236:128|220:168|220:168|268:244|316:240|316:240|352:204|312:156|312:156|172:296|124:284|76:216,1,720.000027465821
364,96,185256,6,0,B|316:160|360:208|360:208|344:256|248:196|248:196|248:244|248:248|248:248|184:232|184:232|160:256|136:144|140:316|140:316|248:328|364:312,1,720.000027465821
176,212,187624,6,0,P|216:168|260:168,1,80
336,276,187940,1,0,0:0:0:0:
176,284,188098,1,0,0:0:0:0:
368,184,188256,2,0,P|356:128|328:120,1,80
120,136,188572,1,0,0:0:0:0:
336,240,188729,1,0,0:0:0:0:
128,276,188887,1,0,0:0:0:0:
356,156,189045,2,0,P|320:120|272:128,1,80
128,160,189361,5,0,0:0:0:0:
328,148,189519,1,0,0:0:0:0:
128,296,189677,1,0,0:0:0:0:
316,280,189835,1,0,0:0:0:0:
120,136,189993,5,0,0:0:0:0:
120,136,190072,1,0,0:0:0:0:
120,136,190150,1,0,0:0:0:0:
292,152,190308,6,0,P|324:192|316:236,1,80
192,304,190624,1,0,0:0:0:0:
184,164,190782,1,0,0:0:0:0:
320,320,190940,2,0,P|268:336|224:312,1,80
312,116,191256,1,0,0:0:0:0:
120,192,191414,1,0,0:0:0:0:
296,304,191572,2,0,P|340:284|336:244,1,80
220,100,191887,1,0,0:0:0:0:
132,296,192045,2,0,P|88:288|72:256,2,80
336,268,192519,5,0,0:0:0:0:
336,268,192598,1,0,0:0:0:0:
336,268,192677,1,0,0:0:0:0:
276,132,192835,1,0,0:0:0:0:
276,132,192914,1,0,0:0:0:0:
276,132,192993,1,0,0:0:0:0:
84,268,193150,6,0,P|120:304|184:304,1,80
340,232,193466,1,0,0:0:0:0:
208,96,193624,1,0,0:0:0:0:
200,316,193782,1,0,0:0:0:0:
396,200,193940,2,0,P|388:148|360:128,1,80
132,128,194256,1,0,0:0:0:0:
264,292,194414,1,0,0:0:0:0:
400,128,194572,2,0,P|368:104|324:108,1,80
128,232,194887,1,0,0:0:0:0:
196,120,195045,5,0,0:0:0:0:
196,120,195124,2,0,L|232:156,1,40
316,240,195361,1,0,0:0:0:0:
316,240,195440,2,0,L|280:292,1,40
164,324,195677,6,0,P|128:280|128:236,1,80
284,144,195993,1,0,0:0:0:0:
368,304,196150,1,0,0:0:0:0:
136,252,196308,1,0,0:0:0:0:
136,252,196387,2,0,L|168:204,1,40
280,168,196624,1,0,0:0:0:0:
280,168,196703,2,0,L|248:112,1,40
116,140,196940,5,0,0:0:0:0:
126,176,197018,1,0,0:0:0:0:
157,201,197097,1,0,0:0:0:0:
193,219,197176,1,0,0:0:0:0:
231,232,197255,1,0,0:0:0:0:
269,244,197334,1,0,0:0:0:0:
308,255,197413,1,0,0:0:0:0:
356,100,197572,2,0,L|312:104,4,40
344,244,198045,5,0,0:0:0:0:
156,300,198203,1,0,0:0:0:0:
156,156,198361,2,0,P|200:116|252:120,1,80
368,248,198677,1,0,0:0:0:0:
152,292,198835,2,0,B|160:240|160:240|184:272,1,80
268,72,199150,2,0,B|264:136|264:136|292:120,1,80
412,248,199466,2,0,B|352:248|352:248|380:268,1,80
104,192,199782,2,0,B|168:212|168:212|144:224,1,80
148,88,200098,6,0,L|216:156,1,80
196,96,200256,2,0,L|256:156,1,80
244,108,200414,2,0,L|312:176,1,80
376,104,200572,2,0,B|376:136|376:136|304:168|304:176,3,80
292,288,201203,1,0,0:0:0:0:
104,264,201519,6,0,L|104:176,1,80
140,264,201677,2,0,L|140:184,1,80
236,248,201835,2,0,P|304:236|308:240,3,80
320,116,202466,1,0,0:0:0:0:
324,300,202624,6,0,P|260:312|224:284,1,108.000000411987
280,120,202940,1,0,0:0:0:0:
384,276,203098,1,0,0:0:0:0:
148,228,203256,1,0,0:0:0:0:
328,72,203414,2,0,P|364:128|352:192,1,108.000000411987
180,340,203729,1,0,0:0:0:0:
152,116,203887,5,0,0:0:0:0:
372,248,204045,1,0,0:0:0:0:
116,272,204203,5,0,0:0:0:0:
340,160,204361,1,0,0:0:0:0:
100,180,204519,5,0,0:0:0:0:
336,320,204677,1,0,0:0:0:0:
112,336,204835,5,0,0:0:0:0:
360,192,205150,1,0,0:0:0:0:
84,256,205466,5,0,0:0:0:0:
107,226,205544,1,0,0:0:0:0:
142,214,205623,1,0,0:0:0:0:
178,221,205702,1,0,0:0:0:0:
205,247,205781,1,0,0:0:0:0:
220,284,205861,1,0,0:0:0:0:
224,324,205940,2,0,B|288:304|288:304|252:176|456:224|356:96,1,324.000001235962
184,64,206572,1,0,0:0:0:0:
304,308,206730,5,0,0:0:0:0:
327,278,206808,1,0,0:0:0:0:
362,266,206887,1,0,0:0:0:0:
398,273,206966,1,0,0:0:0:0:
425,299,207045,1,0,0:0:0:0:
328,136,207203,2,0,P|412:148|432:124,2,108.000000411987
372,340,207677,1,0,0:0:0:0:
224,92,207993,6,0,L|224:188,2,95.9999970703126,0|0|0,0:0|0:0|0:0,0:0:0:0:
288,320,208466,2,0,L|288:212,2,95.9999970703126,0|0|0,0:0|0:0|0:0,0:0:0:0:
156,92,208940,6,0,L|156:188,2,95.9999970703126,0|0|0,0:0|0:0|0:0,0:0:0:0:
356,320,209414,2,0,L|356:212,2,95.9999970703126,0|0|0,0:0|0:0|0:0,0:0:0:0:
172,88,209887,6,0,L|76:88,1,95.9999970703126,0|0,0:0|0:0,0:0:0:0:
216,244,210203,5,0,0:0:0:0:
251,211,210281,1,0,0:0:0:0:
287,179,210360,1,0,0:0:0:0:
100,192,210519,5,0,0:0:0:0:
256,320,210677,1,0,0:0:0:0:
360,144,210835,1,0,0:0:0:0:
116,120,210993,2,0,B|100:184|100:184|148:220,1,95.9999970703126
312,216,211308,1,0,0:0:0:0:
336,216,211386,1,0,0:0:0:0:
356,216,211466,2,0,L|412:216,2,47.9999985351563
256,304,211782,5,0,0:0:0:0:
256,304,211940,1,0,0:0:0:0:
106,197,212098,5,0,0:0:0:0:
326,59,212256,1,0,0:0:0:0:
335,318,212414,1,0,0:0:0:0:
104,180,212572,1,0,0:0:0:0:
376,212,212729,5,0,0:0:0:0:
124,324,212887,1,0,0:0:0:0:
120,92,213203,5,0,0:0:0:0:
336,268,213361,1,0,0:0:0:0:
120,92,213519,1,0,0:0:0:0:
128,232,213677,5,0,0:0:0:0:
360,144,213835,1,0,0:0:0:0:
128,232,213993,1,0,0:0:0:0:
360,144,214150,1,0,0:0:0:0:
132,136,214466,5,0,0:0:0:0:
348,136,214624,1,0,0:0:0:0:
128,264,214782,1,0,0:0:0:0:
348,268,214940,1,0,0:0:0:0:
132,136,215098,1,0,0:0:0:0:
256,92,215572,5,0,0:0:0:0:
256,184,215729,2,0,L|256:284,1,95.9999970703126
256,300,216045,1,0,0:0:0:0:
336,240,216203,1,0,0:0:0:0:
376,240,216281,1,0,0:0:0:0:
416,240,216360,1,0,0:0:0:0:
160,188,216519,1,0,0:0:0:0:
131,219,216597,1,0,0:0:0:0:
104,248,216676,1,0,0:0:0:0:
264,60,216993,5,0,0:0:0:0:
284,81,217071,1,0,0:0:0:0:
302,106,217150,1,0,0:0:0:0:
314,133,217229,1,0,0:0:0:0:
320,162,217308,1,0,0:0:0:0:
300,188,217387,1,0,0:0:0:0:
270,195,217465,1,0,0:0:0:0:
192,300,217624,1,0,0:0:0:0:
376,300,217782,6,0,L|384:256,2,40
188,240,218098,1,0,0:0:0:0:
344,84,218256,2,0,B|376:120|376:120|360:160,1,80
228,320,218572,2,0,L|176:300,2,40
172,80,219045,5,0,0:0:0:0:
392,188,219203,1,0,0:0:0:0:
216,288,219361,2,0,B|168:236|168:236|232:216,1,120.000004577637
316,136,219677,2,0,P|272:96|264:96,2,60.0000022888184
144,268,219993,2,0,P|192:300|204:300,2,60.0000022888184
332,288,220308,6,0,L|332:224,1,60.0000022888184
240,236,220466,2,0,L|260:172,1,60.0000022888184
156,160,220624,2,0,L|212:104,1,60.0000022888184
92,80,220782,2,0,P|60:148|80:244,2,120.000004577637
116,288,221256,1,0,0:0:0:0:
316,232,221414,1,0,0:0:0:0:
164,268,221572,6,0,L|164:200,1,60.0000022888184
272,232,221729,2,0,L|248:168,1,60.0000022888184
376,168,221887,2,0,L|324:112,1,60.0000022888184
440,96,222045,2,0,P|456:168|436:248,2,120.000004577637
228,96,222519,1,0,0:0:0:0:
156,260,222835,6,0,P|196:264|204:256,1,47.9999985351563
312,136,223150,2,0,L|312:232,1,80
104,128,223466,2,0,P|176:104|200:128,1,108.000000411987
320,304,223782,6,0,L|320:156,1,143.999995605469
132,272,224098,5,0,0:0:0:0:
157,241,224176,1,0,0:0:0:0:
191,220,224255,1,0,0:0:0:0:
230,215,224334,1,0,0:0:0:0:
272,200,224414,2,0,L|272:136,1,40
360,160,224572,2,0,L|360:112,1,40
272,108,224729,2,0,L|272:68,1,40
192,172,224887,2,0,L|192:120,1,40
344,288,225361,5,0,0:0:0:0:
344,72,225519,1,0,0:0:0:0:
160,228,225835,6,0,P|136:168|160:160,1,80
352,228,226150,1,0,0:0:0:0:
208,328,226308,1,0,0:0:0:0:
136,256,226782,5,0,0:0:0:0:
336,112,226940,1,0,0:0:0:0:
284,328,227098,1,0,0:0:0:0:
108,144,227256,1,0,0:0:0:0:
328,84,227414,1,0,0:0:0:0:
184,312,227572,1,0,0:0:0:0:
368,280,227887,6,0,L|368:156,1,120.000004577637
164,208,228361,5,0,0:0:0:0:
144,172,228519,2,0,P|160:112|200:104,1,100
392,104,228835,1,0,0:0:0:0:
296,312,228993,1,0,0:0:0:0:
272,128,229308,5,0,0:0:0:0:
272,128,229387,1,0,0:0:0:0:
272,128,229466,2,0,L|220:160,1,50
292,232,229624,2,0,L|368:184,1,50
184,240,229782,2,0,L|128:276,1,50
152,112,229940,2,0,L|212:76,1,50
224,200,230098,2,0,B|252:256|252:256|220:304,1,100
356,272,230572,5,0,0:0:0:0:
378,228,230650,1,0,0:0:0:0:
370,179,230729,1,0,0:0:0:0:
336,144,230808,1,0,0:0:0:0:
288,136,230887,1,0,0:0:0:0:
248,144,230966,5,0,0:0:0:0:
248,194,231044,1,0,0:0:0:0:
248,244,231123,1,0,0:0:0:0:
248,294,231202,1,0,0:0:0:0:
248,344,231282,5,0,0:0:0:0:
203,320,231360,1,0,0:0:0:0:
159,297,231439,1,0,0:0:0:0:
115,273,231518,1,0,0:0:0:0:
136,148,231835,6,0,L|180:104,1,50
208,256,231993,2,0,L|168:296,1,50
332,184,232150,2,0,L|376:140,1,50
296,292,232308,5,0,0:0:0:0:
246,286,232386,1,0,0:0:0:0:
208,255,232465,1,0,0:0:0:0:
192,208,232544,1,0,0:0:0:0:
196,160,232624,1,0,0:0:0:0:
216,116,232703,6,0,L|288:100,1,50
328,92,233098,6,0,B|336:136|336:136|304:160,1,70.000000667572
152,176,233256,2,0,B|176:208|176:208|220:208,1,70.000000667572
368,252,233414,2,0,B|352:288|352:288|312:292,1,70.000000667572
192,176,233572,2,0,B|152:200|152:200|152:236,1,70.000000667572
212,312,233729,2,0,P|252:316|264:288,2,70.000000667572
312,152,234045,1,0,0:0:0:0:
160,112,234361,5,0,0:0:0:0:
160,112,234440,2,0,L|204:168,1,70.000000667572
380,256,234677,1,0,0:0:0:0:
380,256,234756,2,0,L|308:216,1,70.000000667572
124,276,234993,5,0,0:0:0:0:
124,276,235072,2,0,L|184:232,1,70.000000667572
180,124,235308,1,0,0:0:0:0:
376,200,235466,5,0,0:0:0:0:
224,332,235624,2,0,B|176:300|176:300|180:248,1,100
292,112,235940,1,0,0:0:0:0:
292,112,236019,1,0,0:0:0:0:
292,112,236098,1,0,0:0:0:0:
308,158,236176,1,0,0:0:0:0:
299,207,236255,1,0,0:0:0:0:
267,245,236334,1,0,0:0:0:0:
221,263,236413,1,0,0:0:0:0:
104,104,236572,1,0,0:0:0:0:
236,120,236887,5,0,0:0:0:0:
236,120,236966,1,0,0:0:0:0:
236,120,237045,2,0,L|288:156,2,50
196,248,237282,1,0,0:0:0:0:
196,248,237361,1,0,0:0:0:0:
196,248,237440,5,0,0:0:0:0:
243,262,237519,1,0,0:0:0:0:
293,260,237597,1,0,0:0:0:0:
338,241,237676,1,0,0:0:0:0:
375,206,237755,1,0,0:0:0:0:
397,162,237834,1,0,0:0:0:0:
156,192,238150,6,0,B|136:248|136:248|132:248|176:272,1,100
364,200,238466,1,0,0:0:0:0:
252,80,238624,1,0,0:0:0:0:
184,308,238782,2,0,B|248:312|248:312|272:272,1,100
372,96,239098,2,0,B|312:84|312:84|288:136,1,100
96,208,239414,1,0,0:0:0:0:
336,208,239572,1,0,0:0:0:0:
336,208,239650,2,0,L|300:144,1,50
144,116,239887,5,0,0:0:0:0:
144,116,239966,2,0,L|208:96,1,50
228,288,240203,5,0,0:0:0:0:
344,136,240677,6,0,L|304:176,2,50
116,216,240993,1,0,0:0:0:0:
304,72,241308,1,0,0:0:0:0:
184,300,241466,1,0,0:0:0:0:
152,96,241624,2,0,B|216:112|216:112|212:180,1,100
352,288,241940,5,0,0:0:0:0:
392,68,242098,1,0,0:0:0:0:
244,248,242256,1,0,0:0:0:0:
252,124,242414,5,0,0:0:0:0:
104,124,242572,1,0,0:0:0:0:
216,256,243045,6,0,L|248:256,4,25
128,156,243519,6,0,L|196:156,1,40
128,184,243677,2,0,B|200:184|200:184|236:228,1,120.000004577637
124,312,243993,1,0,0:0:0:0:
112,96,244150,1,0,0:0:0:0:
324,196,244308,2,0,P|264:240|260:236,2,60.0000022888184
200,148,244782,6,0,L|132:148,1,60.0000022888184
92,224,244940,2,0,L|172:224,1,60.0000022888184
216,288,245098,2,0,L|292:288,1,60.0000022888184
212,252,245256,2,0,B|284:240|284:240|328:204,1,120.000004577637
308,108,245729,5,0,0:0:0:0:
335,136,245807,1,0,0:0:0:0:
344,174,245886,1,0,0:0:0:0:
176,120,246045,1,0,0:0:0:0:
172,160,246123,1,0,0:0:0:0:
196,192,246203,1,0,0:0:0:0:
336,288,246361,5,0,0:0:0:0:
336,288,246440,2,0,L|280:288,1,40
220,240,246598,2,0,L|164:240,3,40
332,128,246993,1,0,0:0:0:0:
372,300,247150,1,0,0:0:0:0:
172,188,247308,1,0,0:0:0:0:
400,176,247466,5,0,0:0:0:0:
184,288,247624,1,0,0:0:0:0:
112,100,247782,1,0,0:0:0:0:
336,256,247940,1,0,0:0:0:0:
272,112,248098,6,0,L|232:144,2,40
256,328,248414,1,0,0:0:0:0:
128,192,248571,1,0,0:0:0:0:
256,76,248730,1,0,0:0:0:0:
392,200,248887,1,0,0:0:0:0:
392,200,248966,1,0,0:0:0:0:
392,200,249045,1,0,0:0:0:0:
184,304,249203,5,0,0:0:0:0:
100,128,249361,1,0,0:0:0:0:
304,240,249519,1,0,0:0:0:0:
80,232,249677,1,0,0:0:0:0:
280,120,249835,1,0,0:0:0:0:
364,304,249993,5,0,0:0:0:0:
324,308,250071,1,0,0:0:0:0:
286,296,250150,1,0,0:0:0:0:
256,272,250229,2,0,L|256:212,1,40
104,232,250782,5,0,0:0:0:0:
143,233,250860,1,0,0:0:0:0:
173,208,250939,1,0,0:0:0:0:
192,172,251019,2,0,L|180:128,1,40
292,104,251177,5,0,0:0:0:0:
315,136,251255,1,0,0:0:0:0:
319,175,251334,1,0,0:0:0:0:
308,212,251414,2,0,L|324:256,1,40
180,280,251572,2,0,L|120:288,2,40
200,144,251887,5,0,0:0:0:0:
352,220,252045,2,0,P|388:196|396:148,1,80
136,268,252361,1,0,0:0:0:0:
328,328,252519,2,0,B|372:340|372:340|424:320,1,80
348,148,252835,1,0,0:0:0:0:
88,248,253308,5,0,0:0:0:0:
89,208,253386,1,0,0:0:0:0:
109,174,253465,1,0,0:0:0:0:
142,153,253544,1,0,0:0:0:0:
182,150,253623,1,0,0:0:0:0:
224,152,253703,2,0,L|264:160,3,40
388,76,254098,1,0,0:0:0:0:
328,304,254256,1,0,0:0:0:0:
132,272,254414,6,0,P|96:240|108:192,1,80
304,100,254729,1,0,0:0:0:0:
288,296,254887,1,0,0:0:0:0:
144,160,255045,6,0,L|144:100,1,60.0000022888184
244,184,255203,2,0,L|244:256,1,60.0000022888184
144,272,255361,2,0,L|144:344,2,60.0000022888184
268,328,255677,5,0,0:0:0:0:
268,328,255756,1,0,0:0:0:0:
268,328,255835,1,0,0:0:0:0:
306,318,255913,1,0,0:0:0:0:
337,293,255992,1,0,0:0:0:0:
353,257,256071,1,0,0:0:0:0:
353,218,256150,1,0,0:0:0:0:
260,100,256308,6,0,P|196:128|192:168,1,80
160,296,256624,1,0,0:0:0:0:
140,56,256940,5,0,0:0:0:0:
114,86,257018,1,0,0:0:0:0:
114,125,257097,1,0,0:0:0:0:
140,155,257176,1,0,0:0:0:0:
178,162,257255,1,0,0:0:0:0:
216,172,257335,2,0,L|260:192,1,40
380,188,257493,5,0,0:0:0:0:
375,227,257571,1,0,0:0:0:0:
356,260,257650,2,0,L|312:284,1,40
200,304,257808,2,0,L|252:336,1,40
256,108,258203,1,0,0:0:0:0:
104,216,258519,6,0,B|132:276|132:276|200:292,1,120.000004577637,2|0,0:0|0:0,0:0:0:0:
396,216,258835,1,2,0:0:0:0:
152,112,258993,1,0,0:0:0:0:
288,312,259150,1,2,0:0:0:0:
352,96,259308,1,0,0:0:0:0:
256,298,259466,5,8,0:0:0:0:
149,191,259624,1,8,0:0:0:0:
256,85,259782,1,8,0:0:0:0:
362,192,259940,1,8,0:0:0:0:
256,336,260098,1,8,0:0:0:0:
112,192,260256,1,8,0:0:0:0:
256,48,260414,1,8,0:0:0:0:
400,192,260572,1,8,0:0:0:0:
312,328,260729,6,0,L|252:268,1,60.0000022888184,2|0,0:0|0:0,0:0:0:0:
280,192,260887,2,0,L|232:144,1,60.0000022888184
128,191,261045,1,2,0:0:0:0:
244,312,261203,1,0,0:0:0:0:
392,188,261361,2,0,B|376:116|376:116|328:100,1,120.000004577637,2|0,0:0|0:0,0:0:0:0:
132,284,261677,1,2,0:0:0:0:
340,264,261835,5,8,0:0:0:0:
340,264,261993,1,8,0:0:0:0:
285,161,262150,1,8,0:0:0:0:
171,145,262308,1,8,0:0:0:0:
136,292,262466,2,8,B|204:328|204:328|264:284,1,120.000004577637
224,76,262782,1,8,0:0:0:0:
384,244,262940,1,8,0:0:0:0:
220,308,263098,6,2,L|200:244,4,60.0000022888184
140,104,263572,5,2,0:0:0:0:
356,152,263729,1,0,0:0:0:0:
176,292,263887,1,2,0:0:0:0:
260,120,264045,1,0,0:0:0:0:
376,292,264203,2,0,B|312:320|312:320|252:288,1,120.000004577637,2|0,0:0|0:0,0:0:0:0:
112,96,264519,5,8,0:0:0:0:
112,304,264677,1,8,0:0:0:0:
212,80,264835,5,8,0:0:0:0:
236,312,264993,1,8,0:0:0:0:
336,72,265150,5,8,0:0:0:0:
312,320,265308,1,8,0:0:0:0:
428,72,265466,5,8,0:0:0:0:
432,312,265624,1,8,0:0:0:0:
280,188,265782,6,2,L|212:188,2,60.0000022888184
80,192,266098,5,2,0:0:0:0:
188,88,266256,2,0,B|252:92|252:92|280:144,1,120.000004577637,0|2,0:0|0:0,0:0:0:0:
164,284,266572,1,0,0:0:0:0:
384,232,266729,1,2,0:0:0:0:
244,152,266887,1,0,0:0:0:0:
152,304,267045,5,8,0:0:0:0:
280,104,267203,1,8,0:0:0:0:
392,312,267361,1,8,0:0:0:0:
128,152,267519,1,8,0:0:0:0:
388,144,267677,1,8,0:0:0:0:
240,332,267835,1,8,0:0:0:0:
232,80,267993,1,8,0:0:0:0:
408,236,268150,1,8,0:0:0:0:
156,192,268308,6,2,L|256:192,1,60.0000022888184
224,272,268466,2,2,L|152:272,1,60.0000022888184
156,192,268624,1,2,0:0:0:0:
380,252,268782,2,0,B|420:196|420:196|388:148,1,120.000004577637,0|2,0:0|0:0,0:0:0:0:
184,120,269098,1,0,0:0:0:0:
228,332,269256,2,0,B|268:280|268:280|228:212,1,120.000004577637,2|0,0:0|0:0,0:0:0:0:
384,208,269572,5,8,0:0:0:0:
120,188,269729,1,8,0:0:0:0:
268,72,269887,1,8,0:0:0:0:
248,312,270045,1,8,0:0:0:0:
312,76,270203,5,8,0:0:0:0:
104,240,270361,1,8,0:0:0:0:
424,160,270519,1,8,0:0:0:0:
192,352,270677,1,8,0:0:0:0:
352,296,271150,5,4,0:0:0:0:
96,288,271466,1,2,0:0:0:0:
96,125,271624,1,8,0:0:0:0:
236,207,271782,1,2,0:0:0:0:
96,288,271940,1,8,0:0:0:0:
96,125,272098,5,4,0:0:0:0:
304,96,272414,1,4,0:0:0:0:
232,260,272729,2,0,L|144:300,3,80,8|2|8|2,0:0|0:0|0:0|0:0,0:0:0:0:
140,192,273677,6,0,L|388:192,2,240.000009155274
356,148,275572,2,0,L|348:192,4,30.0000011444092
232,64,276203,6,0,B|184:52|152:120|160:152|180:196|280:168|300:196|296:252|272:308|224:316|156:296,1,383.99998828125
320,272,278098,2,0,L|348:256,4,23.9999992675781
200,60,278729,6,0,B|200:324|200:324|320:324,1,383.99998828125
148,244,280624,2,0,L|128:212,4,23.9999992675781
196,92,281256,6,0,B|196:228|196:228|220:256|252:260|288:244|296:228|296:228|296:88,1,383.99998828125
348,272,283150,2,0,L|372:232,4,23.9999992675781
236,272,283782,5,0,0:0:0:0:
148,272,284098,1,0,0:0:0:0:
104,195,284414,1,0,0:0:0:0:
148,119,284729,1,0,0:0:0:0:
236,119,285045,1,0,0:0:0:0:
280,195,285361,1,0,0:0:0:0:
208,196,285677,2,0,L|160:200,4,40
308,260,286308,5,0,0:0:0:0:
308,160,286624,1,0,0:0:0:0:
394,210,286940,1,0,0:0:0:0:
308,260,287256,1,0,0:0:0:0:
308,160,287572,1,0,0:0:0:0:
394,210,287887,1,0,0:0:0:0:
320,240,288203,2,0,L|272:244,4,40
184,248,288835,6,0,P|260:212|336:256,5,160
216,112,290729,2,0,L|280:112,4,40
220,268,291361,6,0,L|280:268,14,40
336,192,292624,5,0,0:0:0:0:
256,80,292940,1,0,0:0:0:0:
256,288,293256,1,0,0:0:0:0:
152,188,293572,1,0,0:0:0:0:
336,192,293887,2,0,L|420:192,16,80
256,192,296572,12,4,300045,0:0:0:0:
