osu file format v14

[General]
AudioFilename: audio.mp3
AudioLeadIn: 0
PreviewTime: 76145
Countdown: 0
SampleSet: Normal
StackLeniency: 0.7
Mode: 0
LetterboxInBreaks: 0
WidescreenStoryboard: 1

[Editor]
DistanceSpacing: 1.4
BeatDivisor: 4
GridSize: 8
TimelineZoom: 1.3

[Metadata]
Title:Move That Body
TitleUnicode:Move That Body
Artist:Pegboard Nerds x Quiet Disorder
ArtistUnicode:Pegboard Nerds x Quiet Disorder
Creator:KyofuSinon
Version:Normal
Source:
Tags:
BeatmapID:1835832
BeatmapSetID:876899

[Difficulty]
HPDrainRate:4
CircleSize:3
OverallDifficulty:3
ApproachRate:6
SliderMultiplier:1
SliderTickRate:1

[Events]
//Background and Video events
0,0,"0f0c13ec6d584b7399e4ce954174aa9e.jpg",0,0
//Break Periods
2,30247,44712
2,60962,67569
2,106914,120902
2,128104,135664
//Storyboard Layer 0 (Background)
//Storyboard Layer 1 (Fail)
//Storyboard Layer 2 (Pass)
//Storyboard Layer 3 (Foreground)
//Storyboard Sound Samples

[TimingPoints]
48,476.190476190476,4,1,0,100,1,0
29333,-100,4,3,0,80,0,0
30405,-100,4,2,0,80,0,0
45762,-100,4,2,0,60,0,0
47667,-100,4,2,0,65,0,0
49571,-100,4,2,0,70,0,0
51476,-100,4,2,0,75,0,0
53381,-100,4,2,0,80,0,0
54333,-100,4,2,0,85,0,0
55286,-100,4,2,0,90,0,0
57190,-100,4,3,0,70,0,0
57786,-100,4,3,0,73,0,0
58024,-100,4,3,0,75,0,0
58262,-100,4,3,0,77,0,0
58500,-100,4,3,0,79,0,0
58738,-100,4,3,0,81,0,0
58976,-100,4,3,0,83,0,0
59214,-100,4,3,0,85,0,0
59452,-100,4,3,0,87,0,0
59690,-100,4,3,0,90,0,0
60047,-100,4,2,0,80,0,0
62905,-100,4,2,0,85,0,0
64809,-100,4,2,0,90,0,0
66714,-100,4,2,0,95,0,0
68619,-100,4,3,0,75,0,0
69333,-100,4,3,0,77,0,0
69809,-100,4,3,0,81,0,0
70286,-100,4,3,0,84,0,0
70762,-100,4,3,0,88,0,0
71238,-100,4,3,0,92,0,0
71714,-100,4,3,0,97,0,0
72428,-100,4,3,0,80,0,0
72905,-100,4,3,0,85,0,0
73381,-100,4,3,0,90,0,0
73857,-100,4,3,0,95,0,0
74333,-100,4,3,0,100,0,0
75286,-100,4,2,0,80,0,0
76714,-100,4,2,0,80,0,1
81714,-100,4,2,0,80,0,0
84333,-100,4,2,0,80,0,1
88976,-100,4,2,0,80,0,0
91476,-100,4,2,0,80,0,1
97190,-100,4,2,0,80,0,0
152369,-100,4,2,0,30,0,0
154333,-100,4,2,0,40,0,0
156238,-100,4,2,0,45,0,0
158143,-100,4,2,0,50,0,0
160047,-100,4,2,0,55,0,0
161000,-100,4,2,0,65,0,0
161952,-100,4,2,0,75,0,0
162905,-100,4,2,0,85,0,0
164690,-100,4,2,0,90,0,0
165405,-100,4,2,0,95,0,0
168143,-100,4,2,0,95,0,1
171000,-100,4,2,0,95,0,0
171952,-100,4,2,0,95,0,1
174095,-100,4,2,0,95,0,0
175762,-100,4,2,0,95,0,0
182905,-100,4,2,0,95,0,1
188619,-100,4,2,0,95,0,0
190524,-100,4,2,0,95,0,0

[Colours]
Combo1 : 128,0,255
Combo2 : 255,255,255
Combo3 : 0,255,255
Combo4 : 255,128,64

[HitObjects]
117,226,15286,6,0,L|231:248,1,100
354,235,16238,2,0,L|423:216,2,50
395,101,17190,2,0,L|436:40,2,50
395,101,18143,1,0,0:0:0:0:
340,248,19095,6,0,P|286:292|245:297,1,100
152,204,20047,2,0,L|123:153,2,50
255,298,21000,2,0,L|327:307,2,50
392,322,21952,1,0,0:0:0:0:
113,291,22905,6,0,L|75:187,1,100
110,60,23857,2,0,L|130:0,2,50
256,192,24809,12,0,28619,0:0:0:0:
254,189,29571,5,0,0:0:0:0:
254,189,29809,1,0,0:0:0:0:
254,189,30047,1,0,0:0:0:0:
207,264,45762,6,0,L|265:282,1,50
324,275,46238,2,0,L|377:249,1,50
414,199,46714,2,0,L|442:140,1,50
442,84,47190,1,0,0:0:0:0:
327,164,47667,6,0,L|317:212,1,50
274,268,48143,2,0,L|227:291,1,50
160,303,48619,2,0,L|103:299,1,50
40,291,49095,1,0,0:0:0:0:
167,348,49571,6,0,L|227:350,1,50
284,331,50047,2,0,L|329:300,1,50
373,251,50524,2,0,L|384:200,1,50
387,132,51000,1,0,0:0:0:0:
282,39,51476,6,0,L|225:38,1,50
164,58,51952,2,0,L|120:86,1,50
123,154,52428,5,0,0:0:0:0:
169,206,52667,1,0,0:0:0:0:
189,139,52905,1,0,0:0:0:0:
85,232,53381,6,0,L|80:285,1,50
122,337,53857,2,0,L|176:381,1,50
230,374,54333,2,0,L|283:372,1,50
338,333,54809,1,0,0:0:0:0:
254,219,55286,6,0,L|205:245,1,50
139,238,55762,2,0,L|97:199,1,50
73,140,56238,2,0,L|70:79,1,50
71,20,56714,1,0,0:0:0:0:
256,192,57190,12,0,59571,0:0:0:0:
240,250,60524,6,0,L|313:242,1,50
205,271,68619,6,0,L|269:269,2,50
208,131,69571,2,0,L|280:133,2,50
203,271,70524,2,0,L|272:272,2,50
203,131,71476,2,0,L|268:133,2,50
256,192,72428,12,0,75286,0:0:0:0:
363,139,76238,6,0,B|372:114|372:114|345:97|345:97|355:72|355:72|322:63|322:63,1,100
222,142,77190,2,0,L|172:158,1,50
109,184,77667,1,0,0:0:0:0:
196,292,78143,6,0,L|240:319,1,50
308,317,78620,1,0,0:0:0:0:
407,219,79095,6,0,L|431:172,1,50
440,105,79572,1,0,0:0:0:0:
313,76,80047,6,0,B|294:57|294:57|267:74|267:74|248:54|248:54|226:81|226:81,1,100
106,108,81000,6,0,L|57:128,1,50
22,186,81477,1,0,0:0:0:0:
161,197,81952,6,0,L|179:264,1,50
241,262,82428,2,0,L|243:317,1,50
266,178,83857,6,0,B|291:170|291:170|288:138|288:138|314:131|314:131|302:99|302:99,1,100
180,173,84809,6,0,L|130:189,1,50
74,228,85286,1,0,0:0:0:0:
191,303,85762,6,0,L|235:330,2,50
320,251,86714,6,0,L|344:204,1,50
355,137,87191,1,0,0:0:0:0:
253,40,87667,6,0,B|232:22|232:22|207:42|207:42|187:24|187:24|167:52|167:52,1,100
103,152,88619,6,0,L|54:172,1,50
25,233,89096,1,0,0:0:0:0:
164,225,89571,6,0,L|182:292,1,50
246,278,90047,2,0,L|248:333,1,50
315,347,90524,5,0,0:0:0:0:
365,298,90762,1,0,0:0:0:0:
297,278,91000,1,0,0:0:0:0:
194,182,91476,6,0,L|144:198,2,50
200,322,92429,2,0,L|244:349,2,50
326,261,93381,6,0,L|350:214,1,50
368,149,93858,1,0,0:0:0:0:
255,66,94333,1,0,0:0:0:0:
115,63,94809,6,0,B|93:47|93:47|69:69|69:69|48:53|48:53|30:82|30:82,1,100
141,162,95762,6,0,L|91:178,1,50
39,222,96239,1,0,0:0:0:0:
170,268,96715,6,0,L|214:295,1,50
279,314,97190,1,0,0:0:0:0:
419,316,97667,6,0,B|441:330|441:330|464:308|464:308|485:324|485:324|502:294|502:294,1,100
238,193,99095,6,0,L|188:209,1,50
129,242,99572,1,0,0:0:0:0:
247,315,100047,6,0,L|291:342,2,50
352,222,101000,6,0,L|376:175,1,50
397,110,101477,1,0,0:0:0:0:
269,52,101952,1,0,0:0:0:0:
129,50,102428,6,0,B|107:34|107:34|83:56|83:56|62:40|62:40|44:69|44:69,1,100
128,171,103381,6,0,L|172:198,2,50
266,190,104334,2,0,L|290:143,1,50
352,117,104809,5,0,0:0:0:0:
352,117,105047,1,0,0:0:0:0:
352,117,105286,1,0,0:0:0:0:
352,117,105524,1,0,0:0:0:0:
284,97,105762,6,0,L|231:100,1,50
167,121,106238,2,0,L|111:150,1,50
74,194,106714,1,0,0:0:0:0:
309,70,121952,6,0,B|298:80|298:80|285:60|285:60|268:76|268:76|257:58|257:58,1,75
90,105,122905,2,0,L|44:103,2,25
95,174,123381,2,0,L|56:175,2,25
100,243,123857,2,0,L|56:244,2,25
101,312,124333,2,0,L|55:310,2,25
104,381,124809,2,0,L|68:383,2,25
310,340,125762,6,0,B|333:352|333:352|354:328|354:328|377:342|377:342|391:311|391:311,1,100
326,199,126714,6,0,L|372:200,2,25
326,129,127190,2,0,L|365:128,2,25
323,59,127666,2,0,L|367:58,2,25
234,186,136714,6,0,L|272:186,3,25
379,313,137667,2,0,L|420:271,1,50
434,210,138143,2,0,L|446:160,1,50
422,95,138619,2,0,L|383:51,1,50
323,31,139095,1,0,0:0:0:0:
187,64,139571,6,0,L|133:90,1,50
104,144,140047,2,0,L|91:202,1,50
100,262,140524,2,0,L|122:314,1,50
185,331,141000,1,0,0:0:0:0:
324,335,141476,6,0,L|391:329,1,50
427,285,141952,2,0,L|471:231,1,50
477,178,142428,2,0,L|490:121,1,50
450,69,142905,1,0,0:0:0:0:
312,44,143381,6,0,L|249:41,1,50
193,53,143857,1,0,0:0:0:0:
153,110,144095,1,0,0:0:0:0:
222,118,144333,1,0,0:0:0:0:
84,143,144809,6,0,L|71:201,1,50
81,261,145286,2,0,L|103:313,1,50
162,338,145762,2,0,L|228:349,1,50
280,335,146238,1,0,0:0:0:0:
405,272,146714,6,0,L|335:269,1,50
287,252,147190,2,0,L|235:224,1,50
226,159,147667,2,0,L|211:90,1,50
253,51,148143,1,0,0:0:0:0:
139,133,148619,6,0,L|87:162,1,50
48,209,149096,2,0,L|24:260,1,50
42,322,149572,2,0,L|78:378,1,50
138,372,150047,1,0,0:0:0:0:
278,364,150524,6,0,L|348:360,1,50
392,334,151000,2,0,L|443:305,1,50
460,243,151477,2,0,L|465:175,1,50
423,136,151952,1,0,0:0:0:0:
256,192,152428,12,0,159095,0:0:0:0:
194,122,160047,6,0,L|255:116,1,50
276,179,160524,2,0,L|232:211,1,50
235,278,161000,2,0,L|283:293,1,50
330,344,161476,2,0,L|268:364,1,50
212,352,161952,2,0,L|152:316,1,50
210,269,162428,2,0,L|262:241,1,50
301,193,162905,2,0,L|247:155,1,50
214,111,163381,2,0,L|270:83,1,50
256,192,163857,12,0,165762,0:0:0:0:
334,92,167667,6,0,B|316:71|316:71|288:86|288:86|271:65|271:65|247:89|247:89,1,100
174,184,168619,2,0,L|124:200,1,50
62,228,169096,1,0,0:0:0:0:
181,300,169572,6,0,L|225:327,2,50
307,240,170524,2,0,L|331:193,1,50
356,130,171001,1,0,0:0:0:0:
254,33,171476,6,0,B|233:16|233:16|208:36|208:36|188:18|188:18|168:47|168:47,1,100
108,150,172429,6,0,L|59:170,1,50
34,233,172906,1,0,0:0:0:0:
171,257,173381,6,0,L|217:285,1,50
256,338,173857,2,0,L|210:389,1,50
319,38,175286,6,0,B|339:20|339:20|364:40|364:40|384:22|384:22|404:50|404:50,1,100
273,106,176238,6,0,L|223:122,1,50
162,153,176715,1,0,0:0:0:0:
201,287,177191,6,0,L|245:314,2,50
328,230,178143,2,0,L|352:183,1,50
361,116,178620,1,0,0:0:0:0:
243,40,179095,2,0,B|222:23|222:23|197:44|197:44|176:26|176:26|158:55|158:55,1,100
125,169,180047,6,0,L|75:167,2,50
246,238,181000,2,0,L|280:282,1,50
318,333,181476,2,0,L|283:380,1,50
218,371,181952,5,0,0:0:0:0:
216,301,182190,1,0,0:0:0:0:
154,333,182428,1,0,0:0:0:0:
81,212,182905,6,0,L|110:213,2,25
150,213,183381,2,0,L|182:213,2,25
219,215,183857,2,0,L|244:216,2,25
288,217,184333,1,0,0:0:0:0:
149,238,184809,6,0,L|176:260,2,25
201,284,185285,2,0,L|225:301,2,25
261,318,185761,2,0,L|280:335,2,25
317,358,186237,1,0,0:0:0:0:
312,217,186714,6,0,L|350:196,2,25
371,180,187190,2,0,L|397:169,2,25
436,153,187667,2,0,L|462:142,2,25
499,125,188142,1,0,0:0:0:0:
399,224,188619,6,0,L|354:280,1,50
301,286,189095,2,0,L|328:346,1,50
271,310,190524,6,0,L|213:310,2,50
275,170,191476,2,0,L|217:170,2,50
272,309,192428,6,0,L|214:309,2,50
276,168,193381,2,0,L|218:168,2,50
276,28,194333,6,0,L|218:28,2,50
357,142,195286,2,0,L|299:142,2,50
249,199,196238,5,0,0:0:0:0:
249,199,196476,1,0,0:0:0:0:
249,199,196714,1,0,0:0:0:0:
249,199,196952,1,0,0:0:0:0:
