osu file format v14

[General]
AudioFilename: audio.mp3
AudioLeadIn: 0
PreviewTime: 58325
Countdown: 0
SampleSet: Soft
StackLeniency: 0.2
Mode: 0
LetterboxInBreaks: 0
WidescreenStoryboard: 0

[Editor]
Bookmarks: 27661,60764,93868,129730,162833,173868,184902,206946
DistanceSpacing: 1
BeatDivisor: 4
GridSize: 32
TimelineZoom: 5.599997

[Metadata]
Title:Coffins
TitleUnicode:Coffins
Artist:Pegboard Nerds x MisterWives
ArtistUnicode:Pegboard Nerds x MisterWives
Creator:NeilPerry
Version:Neil x LCFC's Conflux
Source:
Tags:lcfc lowcombofc taku uc undeadcapulet dubstep trap wub monstercat
BeatmapID:1725369
BeatmapSetID:823272

[Difficulty]
HPDrainRate:6
CircleSize:4
OverallDifficulty:8.5
ApproachRate:9.4
SliderMultiplier:2.4
SliderTickRate:0.5

[Events]
//Background and Video events
0,0,"lololo.jpg",0,0
//Break Periods
//Storyboard Layer 0 (Background)
//Storyboard Layer 1 (Fail)
//Storyboard Layer 2 (Pass)
//Storyboard Layer 3 (Foreground)
//Storyboard Sound Samples

[TimingPoints]
56,344.827586206897,4,2,1,30,1,0
400,337.078651685393,4,2,1,30,1,0
1074,355.029585798817,4,2,1,30,1,0
1784,344.827586206897,4,2,1,30,1,0
2473,338.983050847458,4,2,1,30,1,0
3828,352.941176470588,4,2,1,30,1,0
4180,348.837209302326,4,2,1,40,1,0
5226,340.909090909091,4,2,1,40,1,0
5567,344.827586206897,4,2,1,50,1,0
5567,-200,4,2,1,50,0,0
6170,-200,4,2,1,5,0,0
6256,-200,4,2,1,50,0,0
6601,363.636363636364,4,2,1,50,1,0
6964,309.278350515464,4,2,1,50,1,0
7118,344.827586206897,4,2,1,50,1,0
7118,-200,4,2,1,50,0,0
7549,-200,4,2,1,5,0,0
7636,-200,4,2,1,50,0,0
8324,344.827586206897,4,2,1,50,1,0
8324,-200,4,2,1,50,0,0
8927,-200,4,2,1,5,0,0
9015,-200,4,2,1,50,0,0
10308,-200,4,2,1,5,0,0
10394,-200,4,2,1,50,0,0
11687,-200,4,2,1,5,0,0
11774,-200,4,2,1,50,0,0
12117,363.636363636364,4,2,1,50,1,0
12480,322.58064516129,4,2,1,50,1,0
12641,344.827586206897,4,2,1,50,1,0
12641,-200,4,2,1,50,0,0
13067,-200,4,2,1,5,0,0
13153,-200,4,2,1,50,0,0
13847,344.827586206897,4,2,1,50,1,0
13847,-200,4,2,1,50,0,0
14446,-200,4,2,1,5,0,0
14532,-200,4,2,1,50,0,0
16601,-142.857142857143,4,2,1,50,0,0
16605,344.827586206897,4,2,1,50,1,0
17294,-142.857142857143,4,2,1,50,0,0
20739,-500,4,2,1,50,0,0
20912,-142.857142857143,4,2,1,50,0,0
21084,-500,4,2,1,50,0,0
21429,-142.857142857143,4,2,1,50,0,0
26256,-500,4,2,1,50,0,0
26429,-142.857142857143,4,2,1,50,0,0
26601,-500,4,2,1,50,0,0
26946,-142.857142857143,4,2,1,50,0,0
27636,-200,4,2,1,40,0,0
49705,-100,4,2,1,60,0,0
55567,-90.9090909090909,4,2,1,60,0,0
55912,-83.3333333333333,4,2,1,60,0,0
56256,-76.9230769230769,4,2,1,60,0,0
56601,-71.4285714285714,4,2,1,60,0,0
56946,-66.6666666666667,4,2,1,60,0,0
57636,-66.6666666666667,4,2,1,50,0,0
57981,-66.6666666666667,4,2,1,40,0,0
60394,-333.333333333333,4,2,1,60,0,0
60742,-58.8235294117647,4,2,1,70,0,1
63498,-50,4,2,1,70,0,1
63843,-58.8235294117647,4,2,1,70,0,1
65912,-50,4,2,1,70,0,1
66256,-58.8235294117647,4,2,1,70,0,1
69018,-333.333333333333,4,2,1,60,0,0
71084,-66.6666666666667,4,2,1,60,0,0
72122,-333.333333333333,4,2,1,60,0,1
72467,-100,4,2,1,60,0,0
73156,-333.333333333333,4,2,1,60,0,1
73501,-100,4,2,1,60,0,0
73846,-333.333333333333,4,2,1,60,0,1
74532,-66.6666666666667,4,2,1,60,0,1
74877,-333.333333333333,4,2,1,60,0,1
75225,-100,4,2,1,60,0,0
75915,-333.333333333333,4,2,1,60,0,1
76260,-100,4,2,1,60,0,0
76601,-200,4,2,1,60,0,0
76946,-58.8235294117647,4,2,1,60,0,0
77294,-66.6666666666667,4,2,1,60,0,1
77636,-333.333333333333,4,2,1,60,0,1
77984,-100,4,2,1,60,0,0
78673,-333.333333333333,4,2,1,60,0,1
79018,-100,4,2,1,60,0,0
79363,-333.333333333333,4,2,1,60,0,1
80050,-58.8235294117647,4,2,1,60,0,1
80394,-333.333333333333,4,2,1,60,0,1
80742,-100,4,2,1,60,0,0
81084,-66.6666666666667,4,2,1,60,0,0
81429,-333.333333333333,4,2,1,60,0,0
82118,-100,4,2,1,60,0,0
82811,-58.8235294117647,4,2,1,70,0,1
83498,-66.6666666666667,4,2,1,70,0,1
83843,-58.8235294117647,4,2,0,70,0,1
83929,-58.8235294117647,4,2,1,70,0,1
84187,-58.8235294117647,4,2,0,70,0,1
84274,-58.8235294117647,4,2,1,70,0,1
84532,-100,4,2,1,70,0,1
84877,-58.8235294117647,4,2,1,70,0,1
85222,-50,4,2,0,70,0,1
85567,-50,4,2,1,70,0,1
85912,-58.8235294117647,4,2,1,70,0,1
86256,-66.6666666666667,4,2,1,70,0,1
86601,-58.8235294117647,4,2,0,70,0,1
86687,-58.8235294117647,4,2,1,70,0,1
86946,-58.8235294117647,4,2,0,70,0,1
87032,-58.8235294117647,4,2,1,70,0,1
87291,-83.3333333333333,4,2,1,70,0,1
87636,-200,4,2,1,70,0,1
87981,-41.6666666666667,4,2,1,70,0,1
88325,-58.8235294117647,4,2,1,70,0,1
88670,-83.3333333333333,4,2,1,70,0,1
89360,-66.6666666666667,4,2,0,70,0,1
89446,-66.6666666666667,4,2,1,70,0,1
89705,-83.3333333333333,4,2,0,70,0,1
89791,-83.3333333333333,4,2,1,70,0,1
90050,-125,4,2,1,70,0,1
90394,-83.3333333333333,4,2,1,70,0,1
90739,-66.6666666666667,4,2,0,70,0,1
91087,-100,4,2,1,60,0,0
91601,-66.6666666666667,4,2,1,60,0,0
91774,-83.3333333333333,4,2,1,60,0,0
92118,-133.333333333333,4,2,1,60,0,0
92463,-66.6666666666667,4,2,1,60,0,0
92636,-83.3333333333333,4,2,1,60,0,0
92808,-111.111111111111,4,2,1,60,0,0
92981,-166.666666666667,4,2,1,60,0,0
93153,-100,4,2,1,60,0,0
94187,-66.6666666666667,4,2,1,60,0,0
94532,-100,4,2,1,60,0,0
95567,-66.6666666666667,4,2,1,60,0,0
95912,-100,4,2,1,60,0,0
96946,-66.6666666666667,4,2,1,60,0,0
97291,-100,4,2,1,60,0,0
98325,-66.6666666666667,4,2,1,60,0,0
99015,-100,4,2,1,60,0,0
99705,-66.6666666666667,4,2,1,60,0,0
100050,-100,4,2,1,60,0,0
101084,-66.6666666666667,4,2,1,60,0,0
101774,-100,4,2,1,60,0,0
104877,-100,4,2,1,30,0,0
106256,-100,4,2,1,40,0,0
107636,-142.857142857143,4,2,1,50,0,0
117291,-200,4,2,1,50,0,0
117981,-100,4,2,1,50,0,0
118670,-142.857142857143,4,2,1,60,0,0
119360,-142.857142857143,4,2,1,50,0,0
130050,-100,4,2,1,40,0,0
130394,-200,4,2,1,40,0,0
130739,-142.857142857143,4,2,1,40,0,0
132463,-200,4,2,1,40,0,0
132808,-100,4,2,1,40,0,0
133153,-200,4,2,1,40,0,0
133498,-142.857142857143,4,2,1,40,0,0
135222,-200,4,2,1,40,0,0
135567,-100,4,2,1,40,0,0
135912,-142.857142857143,4,2,1,40,0,0
136256,-76.9230769230769,4,2,1,40,0,0
137981,-200,4,2,1,40,0,0
138325,-100,4,2,1,40,0,0
138670,-200,4,2,1,40,0,0
139015,-142.857142857143,4,2,1,40,0,0
140739,-200,4,2,0,50,0,0
141084,-142.857142857143,4,2,0,50,0,0
142118,-200,4,2,0,50,0,0
142463,-142.857142857143,4,2,0,50,0,0
146256,-200,4,2,0,50,0,0
146601,-142.857142857143,4,2,0,50,0,0
147636,-200,4,2,0,50,0,0
147981,-142.857142857143,4,2,0,50,0,0
151774,-100,4,2,1,60,0,0
159360,-83.3333333333333,4,2,1,60,0,0
160050,-200,4,2,1,60,0,0
162463,-333.333333333333,4,2,1,60,0,0
162811,-58.8235294117647,4,2,1,70,0,1
163153,-50,4,2,1,70,0,1
163498,-58.8235294117647,4,2,1,70,0,1
163670,-50,4,2,1,70,0,1
163843,-58.8235294117647,4,2,1,70,0,1
164187,-50,4,2,1,70,0,1
164532,-58.8235294117647,4,2,1,70,0,1
164705,-50,4,2,1,70,0,1
164877,-333.333333333333,4,2,1,70,0,1
165222,-200,4,2,1,70,0,1
165394,-142.857142857143,4,2,1,70,0,1
165567,-1000,4,2,1,70,0,1
165912,-50,4,2,1,70,0,1
166256,-58.8235294117647,4,2,1,70,0,1
166429,-50,4,2,1,70,0,1
166774,-58.8235294117647,4,2,1,70,0,1
166946,-50,4,2,1,70,0,1
167291,-100,4,2,1,70,0,1
167636,-58.8235294117647,4,2,1,70,0,1
167981,-50,4,2,1,70,0,1
168325,-1000,4,2,1,70,0,1
168670,-50,4,2,1,70,0,1
169015,-58.8235294117647,4,2,1,70,0,1
169187,-50,4,2,1,70,0,1
169532,-58.8235294117647,4,2,1,70,0,1
169705,-50,4,2,1,70,0,1
170050,-58.8235294117647,4,2,1,70,0,1
170222,-50,4,2,1,70,0,1
170567,-58.8235294117647,4,2,1,70,0,1
170739,-50,4,2,1,70,0,1
171087,-100,4,2,1,60,0,0
171774,-66.6666666666667,4,2,1,60,0,0
172118,-100,4,2,1,60,0,0
172463,-500,4,2,1,60,0,0
172808,-100,4,2,1,60,0,0
173153,-500,4,2,1,60,0,0
173325,-100,4,2,1,60,0,0
173498,-500,4,2,1,60,0,0
173670,-100,4,2,1,60,0,0
173760,-66.6666666666667,4,2,1,70,0,1
174187,-666.666666666658,4,2,1,70,0,1
174532,-200,4,2,1,70,0,1
174877,-55.5555555555556,4,2,1,70,0,1
175222,-666.666666666658,4,2,1,70,0,1
175567,-133.333333333333,4,2,1,70,0,1
175912,-666.666666666658,4,2,1,70,0,1
176256,-100,4,2,1,70,0,1
176601,-66.6666666666667,4,2,1,70,0,1
176946,-666.666666666658,4,2,1,70,0,1
177291,-200,4,2,1,70,0,1
177636,-55.5555555555556,4,2,1,70,0,1
177981,-666.666666666658,4,2,1,70,0,1
178325,-133.333333333333,4,2,1,70,0,1
178670,-100,4,2,1,70,0,1
179015,-55.5555555555556,4,2,1,70,0,1
179360,-66.6666666666667,4,2,1,70,0,1
179705,-333.333333333333,4,2,1,70,0,1
180050,-100,4,2,1,70,0,1
180739,-333.333333333333,4,2,1,70,0,1
181084,-100,4,2,1,70,0,1
181429,-333.333333333333,4,2,1,70,0,1
182122,-100,4,2,1,60,0,0
182636,-66.6666666666667,4,2,1,60,0,0
182808,-83.3333333333333,4,2,1,60,0,0
183498,-500,4,2,1,60,0,0
184360,-100,4,2,1,60,0,0
184532,-500,4,2,1,60,0,0
184705,-100,4,2,1,60,0,0
184791,-66.6666666666667,4,2,1,60,0,0
184880,-58.8235294117647,4,2,1,70,0,1
185567,-66.6666666666667,4,2,1,70,0,1
185912,-58.8235294117647,4,2,0,70,0,1
185998,-58.8235294117647,4,2,1,70,0,1
186256,-58.8235294117647,4,2,0,70,0,1
186343,-58.8235294117647,4,2,1,70,0,1
186601,-100,4,2,1,70,0,1
186946,-58.8235294117647,4,2,1,70,0,1
187291,-50,4,2,0,70,0,1
187636,-50,4,2,1,70,0,1
187981,-58.8235294117647,4,2,1,70,0,1
188325,-66.6666666666667,4,2,1,70,0,1
188670,-58.8235294117647,4,2,0,70,0,1
188756,-58.8235294117647,4,2,1,70,0,1
189015,-58.8235294117647,4,2,0,70,0,1
189101,-58.8235294117647,4,2,1,70,0,1
189360,-83.3333333333333,4,2,1,70,0,1
189705,-200,4,2,1,70,0,1
190050,-41.6666666666667,4,2,1,70,0,1
190394,-58.8235294117647,4,2,1,70,0,1
190739,-83.3333333333333,4,2,1,70,0,1
191429,-66.6666666666667,4,2,0,70,0,1
191515,-66.6666666666667,4,2,1,70,0,1
191774,-83.3333333333333,4,2,0,70,0,1
191860,-83.3333333333333,4,2,1,70,0,1
192118,-125,4,2,1,70,0,1
192463,-83.3333333333333,4,2,1,70,0,1
192808,-66.6666666666667,4,2,0,70,0,1
193156,-100,4,2,1,60,0,0
193670,-66.6666666666667,4,2,1,60,0,0
193843,-83.3333333333333,4,2,1,60,0,0
194187,-133.333333333333,4,2,1,60,0,0
194532,-66.6666666666667,4,2,1,60,0,0
194705,-83.3333333333333,4,2,1,60,0,0
194877,-111.111111111111,4,2,1,60,0,0
195050,-166.666666666667,4,2,1,60,0,0
195222,-100,4,2,1,60,0,0
196256,-66.6666666666667,4,2,1,60,0,0
196601,-100,4,2,1,60,0,0
197636,-66.6666666666667,4,2,1,60,0,0
197981,-100,4,2,1,60,0,0
199015,-66.6666666666667,4,2,1,60,0,0
199360,-100,4,2,1,60,0,0
200394,-66.6666666666667,4,2,1,60,0,0
201084,-100,4,2,1,60,0,0
201774,-66.6666666666667,4,2,1,60,0,0
202119,-100,4,2,1,60,0,0
203153,-66.6666666666667,4,2,1,60,0,0
203843,-100,4,2,1,60,0,0
206601,-100,4,2,1,5,0,0
206949,-133.333333333333,4,2,1,50,0,1
210398,-133.333333333333,4,2,1,10,0,0

[Colours]
Combo1 : 48,216,182
Combo2 : 157,255,255
Combo3 : 159,253,190
Combo4 : 255,255,159
Combo5 : 252,194,124
Combo6 : 255,128,128
Combo7 : 47,187,255

[HitObjects]
194,72,400,5,2,0:0:0:0:
247,149,737,1,2,0:0:0:0:
194,72,1074,1,2,0:0:0:0:
247,149,1784,5,2,0:0:0:0:
194,226,2128,1,2,0:0:0:0:
247,149,2473,1,2,0:0:0:0:
194,226,3150,85,2,0:0:0:0:
247,303,3489,1,2,0:0:0:0:
194,226,3828,1,2,0:0:0:0:
105,235,4180,5,2,0:0:0:0:
105,235,4354,1,2,0:0:0:0:
247,303,4528,1,2,0:0:0:0:
247,303,4703,1,2,0:0:0:0:
36,284,4877,85,2,0:0:0:0:
105,235,5052,1,2,0:0:0:0:
194,226,5226,1,2,0:0:0:0:
247,303,5396,1,2,0:0:0:0:
247,303,5481,1,2,0:0:0:0:
247,303,5567,6,0,B|315:276|366:301|322:332|392:365|447:329,1,210,0|0,3:0|0:0,0:0:0:0:
448,328,6256,2,0,L|472:246,1,60,2|0,0:3|0:0,0:0:0:0:
399,156,6601,85,8,0:1:0:0:
458,327,6782,1,8,0:1:0:0:
469,326,7118,5,8,0:1:0:0:
387,158,7290,2,0,P|380:111|369:43,1,90,0|0,3:0|0:0,0:0:0:0:
358,66,7635,2,0,B|304:29|240:55|210:124|265:144|278:98,1,180,2|0,0:3|0:0,0:0:0:0:
122,24,8324,86,0,B|170:44|179:96|150:116|165:169|233:207,1,210,0|0,3:0|0:0,0:0:0:0:
215,211,9013,2,0,P|193:236|179:265,1,60,2|0,0:3|0:0,0:0:0:0:
44,217,9358,5,8,0:1:0:0:
226,209,9530,1,8,0:1:0:0:
236,209,9875,85,8,0:1:0:0:
33,219,10048,2,0,L|44:322,1,90,0|0,3:0|0:0,0:0:0:0:
48,325,10392,2,0,P|127:337|234:360,1,180,2|0,0:3|0:0,0:0:0:0:
90,139,11082,6,0,B|39:131|32:79|126:46|122:236,1,210,0|0,3:0|0:0,0:0:0:0:
133,225,11772,2,0,P|165:241|208:268,1,60,2|0,0:3|0:0,0:0:0:0:
245,103,12117,85,8,0:1:0:0:
86,292,12298,1,8,0:1:0:0:
79,300,12641,5,8,0:1:0:0:
252,103,12813,2,0,P|268:59|282:9,1,90,0|0,3:0|0:0,0:0:0:0:
294,20,13158,2,0,B|345:4|387:31|361:46|405:77|476:61,1,180,2|0,0:3|0:0,0:0:0:0:
461,205,13847,86,0,P|482:91|507:-17,1,210,0|0,3:0|0:0,0:0:0:0:
485,0,14536,2,0,L|470:62,1,60,2|0,0:3|0:0,0:0:0:0:
509,270,14881,5,8,0:1:0:0:
468,70,15053,1,8,0:1:0:0:
466,81,15398,85,8,0:1:0:0:
512,281,15571,2,0,P|466:298|414:318,1,90,0|0,3:0|0:0,0:0:0:0:
421,319,15915,5,2,0:3:0:0:
345,364,16088,1,2,0:0:0:0:
261,353,16260,1,2,0:0:0:0:
151,240,16433,1,2,0:0:0:0:
151,240,16519,1,2,0:0:0:0:
151,240,16604,6,0,B|200:161|200:161|265:366,1,293.999991027832,4|0,3:1|0:0,0:0:0:0:
324,279,17294,2,0,L|364:262,1,41.9999987182618,8|0,0:1|0:0,0:0:0:0:
445,267,17466,2,0,L|484:284,1,41.9999987182618
403,352,17639,5,8,0:1:0:0:
388,117,17811,1,8,0:1:0:0:
361,47,17984,1,0,0:0:0:0:
154,2,18156,85,8,0:1:0:0:
374,45,18328,2,0,P|310:69|235:99,1,125.999996154785,0|0,3:0|0:0,0:0:0:0:
246,95,18673,5,2,0:3:0:0:
147,12,18846,1,2,0:0:0:0:
71,46,19018,1,2,0:0:0:0:
0,80,19190,1,2,0:0:0:0:
152,298,19363,86,0,B|60:245|35:126|148:75|184:157,1,293.999991027832,0|0,3:0|0:0,0:0:0:0:
152,298,20053,2,0,P|89:320|23:376,1,125.999996154785,2|0,0:3|0:0,0:0:0:0:
32,365,20397,5,8,0:1:0:0:
181,152,20570,1,8,0:1:0:0:
240,282,20742,6,0,L|238:289,2,6
336,214,20915,70,0,P|362:218|381:236,1,41.9999987182618,8|0,0:1|0:0,0:0:0:0:
326,299,21087,22,0,L|324:306,2,6,0|0|0,3:0|0:0|0:0,0:0:0:0:
412,313,21259,2,0,L|410:320,2,6
400,147,21432,86,0,P|382:135|361:133,1,41.9999987182618,2|0,0:3|0:0,0:0:0:0:
284,145,21604,2,0,P|263:149|247:162,1,41.9999987182618
235,70,21777,86,0,P|251:57|272:53,1,41.9999987182618,2|0,0:0|0:0,0:0:0:0:
347,41,21949,2,0,P|368:43|386:55,1,41.9999987182618
472,109,22121,6,0,P|444:170|420:252,1,125.999996154785,0|0,3:0|0:0,0:0:0:0:
332,237,22466,2,0,P|351:296|377:353,1,125.999996154785,0|0,3:0|0:0,0:0:0:0:
456,380,22811,2,0,P|472:383|461:370,1,41.9999987182618,2|0,0:3|0:0,0:0:0:0:
260,296,22984,2,0,P|243:292|254:305,1,41.9999987182618
301,162,23156,85,8,0:1:0:0:
167,316,23328,1,8,0:1:0:0:
87,333,23501,1,0,0:0:0:0:
219,150,23673,5,8,0:1:0:0:
76,337,23846,2,0,P|56:266|35:201,1,125.999996154785,0|0,3:0|0:0,0:0:0:0:
29,219,24190,85,2,0:3:0:0:
230,150,24363,2,0,P|237:108|251:49,1,83.9999974365235,4|0,0:1|0:0,0:0:0:0:
94,35,24708,1,2,0:0:0:0:
110,190,24880,6,0,B|154:173|170:196|158:208|196:238|244:222,2,125.999996154785,0|2|2,3:0|0:0|0:0,0:0:0:0:
0,44,25570,2,0,P|22:109|37:174,1,125.999996154785,2|0,0:3|0:0,0:0:0:0:
50,239,25915,85,8,0:1:0:0:
141,23,26087,1,8,0:1:0:0:
227,151,26259,22,0,L|225:144,2,6
318,219,26432,86,0,P|344:215|363:197,1,41.9999987182618,8|0,0:1|0:0,0:0:0:0:
309,131,26604,6,0,L|307:124,2,6,0|0|0,3:0|0:0|0:0,0:0:0:0:
394,111,26777,2,0,L|392:104,2,6
489,26,26949,70,0,L|472:67,1,41.9999987182618,2|0,0:3|0:0,0:0:0:0:
478,152,27121,2,0,L|495:193,1,41.9999987182618
393,352,27294,6,0,L|410:314,1,41.9999987182618,2|0,0:0|0:0,0:0:0:0:
415,226,27466,2,0,L|399:188,1,41.9999987182618
392,105,27639,53,0,3:0:0:0:
392,105,27984,2,0,L|333:94,1,60,2|0,0:0|0:0,0:0:0:0:
290,251,28328,2,0,B|300:191|253:205|265:137,1,120,2|0,0:0|0:0,0:0:0:0:
321,85,28846,1,2,0:0:0:0:
100,159,29018,5,2,0:0:0:0:
198,69,29191,2,0,P|179:125|180:185,1,120,2|0,0:0|0:0,0:0:0:0:
180,185,30053,1,0,0:0:0:0:
15,346,30397,85,0,0:0:0:0:
15,346,30742,2,0,P|34:318|66:318,1,60,2|0,0:0|0:0,0:0:0:0:
172,241,31087,2,0,B|149:278|149:278|158:360,1,120,2|0,0:0|0:0,0:0:0:0:
236,301,31604,1,2,0:0:0:0:
84,237,31777,5,2,0:0:0:0:
84,237,31949,1,2,0:0:0:0:
246,175,32121,2,0,P|260:150|266:111,1,60,2|0,0:0|0:0,0:0:0:0:
225,46,32466,1,2,0:0:0:0:
367,142,32639,2,0,P|357:84|324:34,1,120,2|0,0:0|0:0,0:0:0:0:
234,29,33156,85,0,0:0:0:0:
234,29,33501,2,0,L|162:42,1,60,2|0,0:0|0:0,0:0:0:0:
49,1,33846,2,0,L|96:56,1,60,2|0,0:0|0:0,0:0:0:0:
118,176,34190,2,0,L|142:107,1,60,2|0,0:0|0:0,0:0:0:0:
86,258,34535,5,2,0:0:0:0:
228,301,34708,2,0,L|207:182,1,120,2|0,0:0|0:0,0:0:0:0:
251,106,35225,1,0,0:0:0:0:
251,106,35570,1,0,0:0:0:0:
160,367,35915,85,0,0:0:0:0:
160,367,36259,2,0,P|135:345|103:345,1,60,2|0,0:0|0:0,0:0:0:0:
228,300,36604,2,0,P|268:259|326:265,1,120,2|0,0:0|0:0,0:0:0:0:
370,338,37121,1,2,0:0:0:0:
430,175,37294,6,0,P|406:188|369:193,1,60,2|0,0:0|0:0,0:0:0:0:
500,295,37639,2,0,P|476:282|439:277,1,60,2|0,0:0|0:0,0:0:0:0:
358,354,37984,1,2,0:0:0:0:
235,180,38156,2,0,P|248:122|254:62,1,120,2|0,0:0|0:0,0:0:0:0:
319,6,38673,86,0,P|363:43|367:101,1,120,2|2,0:0|0:0,0:0:0:0:
324,174,39190,1,2,0:0:0:0:
146,60,39363,2,0,P|161:85|169:114,1,60,2|0,0:0|0:0,0:0:0:0:
219,258,39708,2,0,P|227:229|242:203,1,60,2|0,0:0|0:0,0:0:0:0:
390,95,40053,5,2,0:0:0:0:
438,210,40225,2,0,L|320:172,1,120,2|2,0:0|0:0,0:0:0:0:
242,203,40742,1,2,0:0:0:0:
451,345,41087,1,2,0:0:0:0:
451,345,41259,1,2,0:0:0:0:
319,384,41432,86,0,P|337:360|345:332,1,60,2|0,0:0|0:0,0:0:0:0:
312,255,41777,1,2,0:0:0:0:
155,347,41949,2,0,P|213:351|264:321,1,120,2|0,0:0|0:0,0:0:0:0:
299,231,42466,1,2,0:0:0:0:
37,109,42811,5,2,0:0:0:0:
37,109,43156,2,0,L|52:168,1,60,2|0,0:0|0:0,0:0:0:0:
138,19,43501,2,0,L|123:78,1,60,2|0,0:0|0:0,0:0:0:0:
73,251,43846,1,2,0:0:0:0:
73,251,44018,1,2,0:0:0:0:
286,84,44191,86,0,B|226:93|252:133|185:142,1,120,2|2,0:0|0:0,0:0:0:0:
118,98,44708,1,2,0:0:0:0:
352,142,44880,2,0,P|366:169|365:203,1,60,2|0,0:0|0:0,0:0:0:0:
187,283,45225,1,2,0:0:0:0:
187,283,45397,6,0,P|173:256|174:222,1,60,2|0,0:0|0:0,0:0:0:0:
286,84,45742,1,2,0:0:0:0:
286,188,45915,2,0,L|273:256,1,60,2|2,0:0|0:0,0:0:0:0:
356,350,46259,1,2,0:0:0:0:
356,350,46432,1,2,0:0:0:0:
483,319,46604,1,2,0:0:0:0:
483,319,46777,1,2,0:0:0:0:
308,161,46949,86,0,L|283:281,1,120,2|2,0:0|0:0,0:0:0:0:
337,340,47466,1,2,0:0:0:0:
430,240,47639,2,0,P|408:252|367:262,1,60,2|0,0:0|0:0,0:0:0:0:
216,325,47984,2,0,P|186:317|160:303,1,60,2|0,0:0|0:0,0:0:0:0:
72,170,48328,5,2,0:0:0:0:
72,170,48673,2,0,L|59:112,1,60,2|0,0:0|0:0,0:0:0:0:
152,27,49018,2,0,L|139:85,1,60,2|2,0:0|0:0,0:0:0:0:
16,240,49363,1,2,0:0:0:0:
16,240,49535,1,2,0:0:0:0:
226,104,49708,6,0,P|239:163|247:222,1,120,2|0,3:2|0:0,0:0:0:0:
216,293,49966,1,0,0:0:0:0:
211,303,50053,1,2,0:0:0:0:
337,100,50225,2,0,P|328:137|316:162,1,60,2|0,0:0|0:0,0:0:0:0:
108,360,50397,6,0,P|163:310|218:320,1,120,0|0,3:0|0:0,0:0:0:0:
280,345,50656,1,0,0:0:0:0:
291,356,50742,2,0,P|301:296|314:238,1,120,0|0,3:0|0:0,0:0:0:0:
214,25,51087,85,2,3:2:0:0:
381,197,51259,2,0,P|411:190|441:170,1,60,2|0,0:0|0:0,0:0:0:0:
475,101,51432,1,2,3:2:0:0:
367,11,51604,1,2,0:0:0:0:
302,248,51777,6,0,B|337:282|337:282|408:292,1,120,0|0,3:0|0:0,0:0:0:0:
499,354,52035,1,0,0:0:0:0:
489,366,52121,2,0,B|454:332|454:332|383:322,1,120,0|0,3:0|0:0,0:0:0:0:
213,274,52466,86,0,P|197:218|185:152,1,120,2|0,3:2|0:0,0:0:0:0:
222,93,52725,1,0,0:0:0:0:
226,82,52811,1,2,3:2:0:0:
65,270,52984,2,0,P|94:265|123:252,1,60,2|0,0:0|0:0,0:0:0:0:
263,1,53156,6,0,P|221:47|229:100,1,120,0|0,3:0|0:0,0:0:0:0:
295,152,53415,1,0,0:0:0:0:
302,143,53501,2,0,P|359:131|429:109,1,120,2|0,3:2|0:0,0:0:0:0:
509,4,53846,85,2,3:2:0:0:
451,176,54018,2,0,P|454:143|464:112,1,60,2|0,0:0|0:0,0:0:0:0:
495,1,54190,1,2,3:2:0:0:
302,143,54363,1,2,0:0:0:0:
487,281,54535,6,0,B|441:249|441:249|378:261,1,120,0|0,3:0|0:0,0:0:0:0:
269,279,54794,1,0,0:0:0:0:
279,288,54880,2,0,B|325:320|325:320|387:307,1,120,2|0,3:2|0:0,0:0:0:0:
443,87,55225,6,0,L|459:151,1,60,2|0,3:2|0:0,0:0:0:0:
409,220,55397,2,0,L|423:161,1,60,0|0,3:0|0:0,0:0:0:0:
340,65,55570,86,0,L|356:129,1,66.0000020141602,2|0,3:2|0:0,0:0:0:0:
317,216,55742,2,0,L|333:152,1,66.0000020141602,0|0,3:0|0:0,0:0:0:0:
237,43,55915,6,0,L|254:112,1,71.9999978027344,2|0,3:2|0:0,0:0:0:0:
225,212,56087,2,0,L|242:142,1,71.9999978027344,0|0,3:0|0:0,0:0:0:0:
134,21,56259,86,0,L|152:96,1,77.9999964294435,2|0,3:2|0:0,0:0:0:0:
129,212,56432,2,0,L|147:136,1,77.9999964294435,0|0,3:0|0:0,0:0:0:0:
28,2,56604,6,0,L|48:83,1,83.9999974365235,2|0,3:2|0:0,0:0:0:0:
78,297,56777,2,0,L|98:215,1,83.9999974365235,0|0,3:0|0:0,0:0:0:0:
245,0,56949,86,0,L|271:105,1,90.0000034332277,2|0,3:2|0:0,0:0:0:0:
270,378,57121,2,0,L|291:290,1,90.0000034332277,0|0,3:0|0:0,0:0:0:0:
480,194,57294,5,0,3:0:0:0:
466,189,57380,1,0,3:0:0:0:
452,184,57466,1,0,3:0:0:0:
437,179,57553,1,0,3:0:0:0:
374,131,57639,85,0,3:0:0:0:
314,178,57725,1,0,3:0:0:0:
317,254,57811,1,0,3:0:0:0:
379,298,57897,1,0,3:0:0:0:
452,274,57983,5,2,0:3:0:0:
452,169,60397,38,0,L|443:227,1,53.9999983520508,8|0,0:0|0:0,0:0:0:0:
369,310,60742,70,0,B|409:210|506:248|529:315|428:316,1,204.000003890991,4|0,3:1|0:0,0:0:0:0:
255,348,61001,1,0,0:0:0:0:
255,348,61087,6,0,P|204:304|182:270,1,102.000001945496,10|0,0:1|0:0,0:0:0:0:
66,238,61259,2,0,P|95:177|122:147,1,102.000001945496,2|0,0:1|0:0,0:0:0:0:
88,14,61432,2,0,P|154:26|190:45,1,102.000001945496,2|0,0:1|0:0,0:0:0:0:
266,164,61604,1,0,3:0:0:0:
390,38,61777,86,0,B|417:33|438:20|438:20|436:47|456:80,1,102.000001945496,10|0,0:0|0:0,0:0:0:0:
384,236,61949,1,0,0:0:0:0:
396,232,62035,1,0,0:0:0:0:
409,228,62121,6,0,P|399:176|381:102,1,102.000001945496,2|0,3:1|0:0,0:0:0:0:
417,338,62294,2,0,P|427:286|445:212,1,102.000001945496,2|0,0:1|0:0,0:0:0:0:
449,68,62466,2,0,B|436:47|438:20|438:20|417:33|390:38,1,102.000001945496,10|0,0:1|0:0,0:0:0:0:
233,93,62639,1,0,0:0:0:0:
219,97,62725,1,0,0:0:0:0:
207,103,62811,86,0,P|162:122|114:150,1,102.000001945496,2|0,0:1|0:0,0:0:0:0:
39,3,62984,2,0,P|14:48|44:96,1,102.000001945496,2|0,3:1|0:0,0:0:0:0:
217,119,63156,6,0,P|172:138|124:166,1,102.000001945496,10|0,0:1|0:0,0:0:0:0:
131,377,63328,2,0,P|156:332|126:284,1,102.000001945496,2|0,0:1|0:0,0:0:0:0:
54,222,63501,86,0,B|28:220|-21:247|-21:247|121:242|281:303,1,360,12|0,0:0|0:0,0:0:0:0:
465,342,63846,6,0,P|496:362|460:356,1,102.000001945496,10|0,0:1|0:0,0:0:0:0:
322,162,64018,2,0,P|329:198|308:168,1,102.000001945496,2|0,0:1|0:0,0:0:0:0:
490,18,64190,2,0,P|470:49|475:12,1,102.000001945496,2|0,0:1|0:0,0:0:0:0:
286,23,64363,1,0,0:0:0:0:
511,245,64535,86,0,P|390:263|350:374,1,204.000003890991,10|0,0:1|0:0,0:0:0:0:
100,379,64794,1,0,0:0:0:0:
100,379,64880,2,0,P|158:382|196:349,1,102.000001945496,2|0,3:1|0:0,0:0:0:0:
179,185,65053,2,0,P|164:123|139:53,1,102.000001945496,2|0,0:1|0:0,0:0:0:0:
352,327,65225,6,0,B|271:364|251:254|160:288,1,204.000003890991,10|0,0:1|0:0,0:0:0:0:
68,104,65484,1,0,0:0:0:0:
68,104,65570,2,0,P|79:153|94:202,1,102.000001945496,2|0,0:1|0:0,0:0:0:0:
319,251,65742,2,0,P|306:227|334:249,1,102.000001945496,0|0,3:0|0:0,0:0:0:0:
435,165,65915,86,0,B|360:137|360:137|339:159|339:159|45:211,1,360,12|0,0:1|0:0,0:0:0:0:
62,361,66259,6,0,B|107:340|107:340|127:237|127:237|75:184,1,204.000003890991,4|0,3:2|0:0,0:0:0:0:
167,6,66518,1,0,0:0:0:0:
167,6,66604,86,0,B|145:42|145:42|167:120,1,102.000001945496,10|0,0:1|0:0,0:0:0:0:
219,272,66777,2,0,L|319:251,1,102.000001945496,2|0,0:1|0:0,0:0:0:0:
491,374,66949,2,0,B|513:338|513:338|491:260,1,102.000001945496,2|0,0:1|0:0,0:0:0:0:
462,55,67121,1,0,3:0:0:0:
322,271,67294,6,0,L|222:292,1,102.000001945496,10|0,0:1|0:0,0:0:0:0:
42,151,67466,1,0,0:0:0:0:
56,146,67553,1,0,0:0:0:0:
70,140,67639,86,0,P|48:78|29:39,1,102.000001945496,2|0,3:1|0:0,0:0:0:0:
46,234,67811,2,0,P|68:172|87:133,1,102.000001945496,2|0,0:1|0:0,0:0:0:0:
227,308,67984,2,0,L|327:287,1,102.000001945496,10|0,0:1|0:0,0:0:0:0:
462,55,68156,1,0,0:0:0:0:
450,56,68242,1,0,0:0:0:0:
438,58,68328,6,0,P|451:104|468:158,1,102.000001945496,2|0,0:1|0:0,0:0:0:0:
510,319,68501,2,0,P|527:335|499:322,1,102.000001945496,2|0,3:1|0:0,0:0:0:0:
343,19,68673,86,0,P|356:65|373:119,1,102.000001945496,10|0,0:1|0:0,0:0:0:0:
412,226,68846,2,0,P|429:242|401:229,1,102.000001945496,2|0,0:1|0:0,0:0:0:0:
271,89,69018,86,0,L|258:94,4,8.99999972534181
187,117,69277,1,2,0:3:0:0:
157,127,69363,2,0,L|144:132,2,8.99999972534181
70,160,69535,2,0,L|57:165,2,8.99999972534181
183,242,69708,69,2,0:3:0:0:
225,229,69794,1,2,0:3:0:0:
196,210,69880,1,2,0:3:0:0:
208,256,69966,1,2,0:3:0:0:
222,299,70053,1,2,0:3:0:0:
383,159,70225,5,2,0:3:0:0:
433,174,70311,1,2,0:3:0:0:
400,192,70397,1,2,0:3:0:0:
409,159,70483,1,2,0:3:0:0:
418,127,70570,1,2,0:3:0:0:
430,90,70656,1,2,0:3:0:0:
442,51,70742,6,0,L|447:36,2,8.99999972534181
376,278,70915,2,0,L|381:263,2,8.99999972534181
292,109,71087,1,2,0:3:0:0:
253,84,71173,1,2,0:3:0:0:
211,36,71259,1,2,0:3:0:0:
158,82,71346,1,2,0:3:0:0:
88,114,71432,1,8,0:0:0:0:
4,30,71777,38,0,P|42:132|80:300,1,270.000010299683,4|0,3:2|0:0,0:0:0:0:
181,197,72122,70,0,L|211:202,1,17.9999994506836,2|0,0:1|0:0,0:0:0:0:
399,226,72294,2,0,L|429:231,1,17.9999994506836,2|0,0:1|0:0,0:0:0:0:
61,366,72467,38,0,P|137:344|155:282,1,120,10|0,0:1|0:0,0:0:0:0:
95,214,72811,2,0,P|19:236|1:298,1,120,2|0,0:1|0:0,0:0:0:0:
223,119,73156,70,0,L|253:124,1,17.9999994506836,2|0,0:1|0:0,0:0:0:0:
441,148,73328,2,0,L|471:153,1,17.9999994506836,2|0,0:1|0:0,0:0:0:0:
139,47,73501,6,0,P|177:134|201:251,1,180,2|0,3:2|0:0,0:0:0:0:
366,356,73846,70,0,L|361:326,1,17.9999994506836,10|0,0:1|0:0,0:0:0:0:
336,146,74018,2,0,L|331:116,1,17.9999994506836,2|2,0:1|0:1,0:0:0:0:
481,329,74190,6,0,L|486:299,1,17.9999994506836,2|0,0:1|0:0,0:0:0:0:
510,111,74363,2,0,L|515:81,1,17.9999994506836,2|0,0:1|0:0,0:0:0:0:
167,305,74535,70,2,B|247:363|319:302|286:282|341:223|440:286,1,270.000010299683,6|0,3:1|0:1,0:1:0:0:
451,0,74880,6,0,L|456:30,1,17.9999994506836,2|0,0:1|0:0,0:0:0:0:
480,218,75053,2,0,L|485:248,1,17.9999994506836,2|0,0:1|0:0,0:0:0:0:
91,337,75225,38,0,P|84:294|137:229,1,120,10|0,0:1|0:0,0:0:0:0:
240,270,75570,2,0,P|247:313|194:378,1,120,2|0,0:1|0:0,0:0:0:0:
381,52,75915,70,0,L|386:82,1,17.9999994506836,2|0,0:1|0:0,0:0:0:0:
410,270,76088,2,0,L|415:300,1,17.9999994506836,2|0,0:1|0:0,0:0:0:0:
456,0,76260,6,0,P|369:26|242:43,1,180,0|0,3:0|0:0,0:0:0:0:
194,19,76604,6,0,P|168:12|195:24,1,90,8|0,0:1|0:0,0:0:0:0:
181,171,76949,54,2,B|175:51|85:17|-9:38|-14:191|148:164,1,306.000005836487,2|0,0:1|0:1,0:1:0:0:
27,300,77294,86,0,B|58:251|126:223|126:223|124:217|124:217|126:223|126:223|196:199|289:221,1,270.000010299683,4|0,3:2|0:0,0:0:0:0:
440,343,77639,6,0,L|445:323,1,17.9999994506836,2|0,0:1|0:0,0:0:0:0:
483,113,77811,2,0,L|488:93,1,17.9999994506836,2|0,0:1|0:0,0:0:0:0:
219,375,77984,38,0,L|350:356,1,120,10|0,0:1|0:0,0:0:0:0:
326,281,78328,2,0,L|195:300,1,120,2|0,0:1|0:0,0:0:0:0:
47,74,78673,70,0,L|52:94,1,17.9999994506836,2|0,0:1|0:0,0:0:0:0:
90,304,78845,2,0,L|95:324,1,17.9999994506836,2|0,0:1|0:0,0:0:0:0:
111,0,79018,6,0,P|90:91|80:184,1,180,2|0,3:2|0:0,0:0:0:0:
248,200,79363,70,0,L|228:205,1,17.9999994506836,10|0,0:1|0:0,0:0:0:0:
18,243,79535,2,0,L|-2:248,1,17.9999994506836,2|0,0:1|0:0,0:0:0:0:
383,149,79708,6,0,L|363:144,1,17.9999994506836,2|0,0:1|0:0,0:0:0:0:
153,106,79880,2,0,L|133:101,1,17.9999994506836,2|0,0:1|0:0,0:0:0:0:
448,246,80053,70,2,B|356:94|519:-15|560:27|455:75,1,306.000005836487,4|0,3:1|0:0,0:1:0:0:
280,283,80397,6,0,L|260:288,1,17.9999994506836,2|0,0:1|0:0,0:0:0:0:
50,326,80569,2,0,L|30:331,1,17.9999994506836,2|0,0:1|0:0,0:0:0:0:
304,370,80742,54,0,P|393:342|490:336,1,180,10|0,0:1|0:0,0:0:0:0:
349,209,81087,6,0,P|324:196|417:173,1,270.000010299683,2|0,3:1|0:0,0:0:0:0:
475,234,81432,6,0,L|472:248,2,8.99999972534181,2|0|0,0:1|0:0|0:0,0:0:0:0:
503,134,81604,2,0,L|499:152,1,17.9999994506836,2|0,0:1|0:0,0:0:0:0:
208,148,81777,86,0,L|212:166,1,17.9999994506836,2|0,3:1|0:0,0:0:0:0:
231,241,81949,2,0,L|235:259,1,17.9999994506836,2|0,0:1|0:0,0:0:0:0:
414,325,82121,6,2,B|295:341|295:341|237:403,1,180,10|0,0:1|0:1,0:1:0:0:
503,341,82466,2,2,B|462:297|462:297|343:281,1,180,2|0,0:1|0:1,0:1:0:0:
82,232,82811,6,0,B|114:142|114:142|129:244|185:404,1,306.000005836487,4|0,3:2|0:0,0:0:0:0:
284,166,83156,6,0,P|311:145|279:162,1,102.000001945496,2|0,0:1|0:0,0:0:0:0:
148,53,83328,2,0,P|155:19|142:53,1,102.000001945496,2|0,0:1|0:0,0:0:0:0:
213,234,83501,86,0,P|367:181|500:157,1,270.000010299683,10|0,0:1|0:0,0:0:0:0:
503,81,83846,6,0,B|509:0|391:-80|294:7|356:103|425:66,1,306.000005836487,10|0,0:1|0:0,0:0:0:0:
449,260,84190,86,0,P|459:209|478:137,1,102.000001945496,10|0,0:1|0:0,0:0:0:0:
343,372,84363,2,0,P|353:321|372:249,1,102.000001945496,2|0,0:1|0:0,0:0:0:0:
217,126,84535,6,0,B|264:109|283:70|283:70|300:121|363:150,1,180,6|0,3:1|0:0,0:0:0:0:
443,384,84880,86,0,P|395:374|299:366,1,102.000001945496,10|0,0:1|0:0,0:0:0:0:
210,293,85053,2,0,P|159:299|109:309,1,102.000001945496,2|0,0:1|0:0,0:0:0:0:
20,30,85225,6,0,B|83:27|87:78|87:78|77:54|38:42,1,120,10|0,0:1|0:0,0:0:0:0:
66,380,85397,2,0,P|57:329|33:227,1,120,10|0,0:1|0:0,0:0:0:0:
300,14,85570,86,0,B|246:-32|172:2|173:52|167:87|167:87|160:122|133:179|57:176|18:117,1,360,12|0,3:2|0:0,0:0:0:0:
40,375,85915,6,0,P|30:325|22:275,1,102.000001945496,2|0,0:1|0:0,0:0:0:0:
236,194,86087,2,0,P|222:244|207:303,1,102.000001945496,2|0,0:1|0:0,0:0:0:0:
40,375,86259,86,0,P|176:342|322:339,1,270.000010299683,10|0,0:1|0:0,0:0:0:0:
383,248,86604,6,0,B|355:110|210:130|210:130|261:256,1,306.000005836487,10|0,0:1|0:0,0:0:0:0:
400,353,86949,86,0,P|434:355|400:344,1,102.000001945496,10|0,0:1|0:0,0:0:0:0:
419,96,87121,2,0,P|437:67|411:91,1,102.000001945496,2|0,0:1|0:0,0:0:0:0:
511,24,87294,6,0,P|464:123|471:255,1,215.999993408203,4|0,3:1|0:0,0:0:0:0:
499,301,87639,86,0,B|526:335|526:335|509:282,1,90,8|0,0:1|0:0,0:0:0:0:
206,248,87984,6,2,B|246:358|175:436|131:325|245:260|245:260|244:258|244:258|290:305|369:300|403:223,1,431.999986816407,2|0,0:1|0:1,0:1:0:0:
479,120,88328,86,0,B|324:76|257:181|281:257|351:213|336:152,1,306.000005836487,4|0,3:2|0:0,0:0:0:0:
178,0,88673,6,0,P|194:45|206:97,1,71.9999978027344,2|0,0:1|0:0,0:0:0:0:
103,114,88846,2,0,P|92:163|78:205,1,71.9999978027344,2|0,0:1|0:0,0:0:0:0:
20,351,89018,86,0,B|68:310|68:310|244:349,1,215.999993408203,10|0,0:1|0:0,0:0:0:0:
365,381,89363,6,0,B|343:261|233:265|233:265|286:273|306:349,1,270.000010299683,10|0,0:1|0:0,0:0:0:0:
435,365,89708,86,0,L|351:383,1,71.9999978027344,10|0,0:1|0:0,0:0:0:0:
501,247,89880,2,0,L|430:231,1,71.9999978027344,2|0,0:1|0:0,0:0:0:0:
308,74,90053,6,0,P|355:145|317:224,1,144,6|0,3:1|0:0,0:0:0:0:
151,276,90397,86,0,P|138:238|124:203,1,71.9999978027344,10|0,0:1|0:0,0:0:0:0:
220,95,90570,2,0,P|181:104|152:135,1,71.9999978027344,2|0,0:1|0:0,0:0:0:0:
1,88,90742,6,0,P|53:107|73:156,1,90.0000034332277,10|0,0:1|0:0,0:0:0:0:
38,364,90915,2,0,P|45:319|55:268,1,90.0000034332277,10|0,0:1|0:0,0:0:0:0:
111,29,91087,38,0,P|115:108|131:242,1,180,4|0,3:2|0:0,0:0:0:0:
183,351,91432,6,0,P|207:359|242:339,1,60,2|0,0:0|0:0,0:0:0:0:
405,168,91604,6,0,P|425:132|405:73,1,90.0000034332277,2|0,0:0|0:0,0:0:0:0:
512,283,91777,86,0,P|408:213|286:222,1,215.999993408203,10|0,0:1|0:0,0:0:0:0:
253,156,92121,86,0,P|272:220|290:300,1,135.000005149841,2|0,3:1|0:0,0:0:0:0:
380,322,92466,22,0,P|410:326|380:316,1,90.0000034332277,2|0,0:0|0:0,0:0:0:0:
500,141,92639,86,0,P|516:124|490:132,1,71.9999978027344,2|0,0:0|0:0,0:0:0:0:
340,30,92811,86,0,P|339:11|331:31,1,53.9999983520508,2|0,3:2|0:0,0:0:0:0:
195,50,92984,6,0,P|183:47|195:55,1,35.9999989013672,2|0,0:0|0:0,0:0:0:0:
163,170,93156,86,0,P|163:71|84:11,1,180,10|0,0:1|0:0,0:0:0:0:
24,46,93501,2,0,P|24:145|103:205,1,180,2|0,0:1|0:0,0:0:0:0:
140,252,93846,5,4,3:2:0:0:
103,328,94018,1,2,0:0:0:0:
392,368,94190,86,0,B|408:304|352:216|315:290|273:212|292:138,1,270.000010299683,2|0,0:0|0:0,0:0:0:0:
326,62,94535,6,0,P|379:82|379:138,1,120,8|0,0:1|0:0,0:0:0:0:
205,174,94880,1,2,0:0:0:0:
312,52,95053,86,0,P|390:78|373:158,1,180,2|0,0:0|0:0,0:0:0:0:
279,131,95397,1,2,0:0:0:0:
450,359,95570,6,0,B|433:336|433:336|451:277,1,90.0000034332277,2|0,3:2|0:0,0:0:0:0:
373,158,95742,2,0,B|391:216|391:216|374:239,1,90.0000034332277,2|0,0:0|0:0,0:0:0:0:
177,299,95915,86,0,L|60:270,1,120,8|0,0:1|0:0,0:0:0:0:
125,96,96259,1,0,1:0:0:0:
136,69,96346,1,0,1:0:0:0:
175,43,96432,1,0,1:0:0:0:
240,57,96518,1,0,1:0:0:0:
279,131,96604,5,4,3:2:0:0:
143,179,96777,1,2,0:0:0:0:
405,122,96949,86,0,B|444:62|342:42|288:120|322:216|374:239,1,270.000010299683,2|0,0:0|0:0,0:0:0:0:
361,318,97294,6,0,P|403:277|460:259,1,120,8|0,0:1|0:0,0:0:0:0:
262,294,97639,1,2,0:0:0:0:
481,245,97811,86,0,P|395:264|339:332,1,180,2|0,0:0|0:0,0:0:0:0:
446,349,98156,1,2,0:0:0:0:
188,260,98328,6,0,P|165:222|173:179,1,90.0000034332277,2|0,3:2|0:0,0:0:0:0:
149,104,98501,2,0,P|170:65|212:51,1,90.0000034332277,2|0,0:0|0:0,0:0:0:0:
280,0,98673,1,8,0:1:0:0:
15,16,98846,2,0,P|59:15|92:44,1,90.0000034332277,0|0,3:0|0:0,0:0:0:0:
92,291,99018,86,0,P|61:206|56:117,1,180,2|0,0:0|0:0,0:0:0:0:
92,44,99363,5,4,3:2:0:0:
172,66,99535,1,2,0:0:0:0:
16,295,99708,86,0,P|112:364|158:256,1,270.000010299683,2|0,0:0|0:0,0:0:0:0:
119,181,100053,6,0,B|162:218|162:218|239:204,1,120,8|0,0:1|0:0,0:0:0:0:
335,102,100397,1,2,0:0:0:0:
231,220,100570,86,0,B|160:274|160:274|73:247,1,180,2|0,0:0|0:0,0:0:0:0:
32,176,100915,1,2,0:0:0:0:
204,47,101087,6,0,L|181:154,1,90.0000034332277,2|0,3:2|0:0,0:0:0:0:
249,307,101259,2,0,L|226:200,1,90.0000034332277,2|0,0:0|0:0,0:0:0:0:
290,2,101432,85,8,0:1:0:0:
95,98,101604,1,2,0:0:0:0:
335,120,101777,6,0,P|306:115|268:102,1,60,2|0,0:0|0:0,0:0:0:0:
51,191,101949,2,0,P|80:189|110:183,1,60,2|0,0:0|0:0,0:0:0:0:
192,22,102121,5,4,3:0:0:0:
256,192,102466,12,0,104880,0:0:0:0:
192,22,105225,37,2,0:0:0:0:
214,106,105570,1,2,0:0:0:0:
192,22,105915,1,2,0:0:0:0:
214,106,106259,5,2,0:0:0:0:
214,106,106432,1,2,0:0:0:0:
89,197,106604,85,2,0:0:0:0:
89,197,106777,1,2,0:0:0:0:
290,228,106949,5,2,0:0:0:0:
287,148,107122,1,2,0:0:0:0:
214,106,107294,1,2,0:0:0:0:
133,125,107466,1,2,0:0:0:0:
133,125,107553,1,2,0:0:0:0:
132,125,107639,86,0,B|65:162|56:278|132:328|132:328|155:279,1,293.999991027832,4|0,3:2|0:0,0:0:0:0:
159,266,108328,2,0,L|242:248,1,83.9999974365235,8|0,0:0|0:0,0:0:0:0:
432,321,108673,5,8,0:1:0:0:
252,238,108846,1,8,0:1:0:0:
263,226,109190,85,8,0:1:0:0:
443,309,109363,2,0,B|462:292|462:292|431:157,1,125.999996154785,0|0,3:0|0:0,0:0:0:0:
426,190,109708,6,0,P|415:112|482:70,1,167.999994873047,8|0,0:1|0:0,0:0:0:0:
482,70,110225,1,0,0:0:0:0:
294,32,110397,86,0,B|145:-15|173:141|23:88,1,293.999991027832,0|0,3:0|0:0,0:0:0:0:
14,84,111087,2,0,P|27:121|39:183,1,83.9999974365235,8|0,0:0|0:0,0:0:0:0:
0,355,111432,5,8,0:1:0:0:
46,174,111604,1,8,0:1:0:0:
56,183,111949,85,8,0:1:0:0:
10,364,112121,2,0,P|69:371|117:323,1,125.999996154785,0|0,0:3|0:0,0:0:0:0:
110,313,112466,6,0,P|123:231|162:157,1,167.999994873047,8|0,0:1|0:0,0:0:0:0:
162,157,112984,1,0,0:0:0:0:
301,286,113156,86,0,B|408:360|514:337|495:199|415:221|408:270,1,293.999991027832,0|0,3:0|0:0,0:0:0:0:
397,274,113846,2,0,L|376:173,1,83.9999974365235,8|0,0:0|0:0,0:0:0:0:
469,12,114190,5,8,0:1:0:0:
370,178,114363,1,8,0:1:0:0:
360,166,114708,85,8,0:1:0:0:
459,0,114880,2,0,B|429:27|429:27|440:111,1,125.999996154785,0|0,3:0|0:0,0:0:0:0:
445,119,115225,6,0,B|365:96|381:168|285:139,1,167.999994873047,8|0,0:1|0:0,0:0:0:0:
286,139,115742,1,0,0:0:0:0:
122,316,115915,86,0,P|245:302|178:199,1,293.999991027832,0|0,3:0|0:0,0:0:0:0:
163,190,116604,2,0,P|179:229|180:271,1,83.9999974365235,8|0,0:0|0:0,0:0:0:0:
16,375,116949,5,8,0:1:0:0:
168,277,117121,1,8,0:1:0:0:
50,267,117294,86,0,P|37:179|55:91,1,180,2|0,0:0|0:0,0:0:0:0:
305,133,117984,54,0,B|323:228|323:228|127:186|127:186|181:76,1,420,8|0,0:0|0:0,0:0:0:0:
189,63,118673,70,0,P|215:178|230:363,1,293.999991027832,4|0,3:2|0:0,0:0:0:0:
215,358,119363,2,0,L|117:327,1,83.9999974365235,8|0,0:0|0:0,0:0:0:0:
19,135,119708,5,2,0:0:0:0:
123,338,119880,1,8,0:1:0:0:
112,345,120225,85,8,0:1:0:0:
8,142,120397,2,0,B|48:126|48:126|66:163|34:213,1,125.999996154785
33,214,120742,6,0,P|96:265|97:346,1,167.999994873047,8|0,0:1|0:0,0:0:0:0:
97,346,121259,1,0,0:0:0:0:
65,52,121432,86,0,B|134:-3|134:-3|194:32|195:131|139:175,1,293.999991027832,0|0,3:0|0:0,0:0:0:0:
130,180,122121,2,0,P|137:234|166:277,1,83.9999974365235,8|0,0:0|0:0,0:0:0:0:
350,350,122466,5,2,0:0:0:0:
161,261,122639,1,8,0:1:0:0:
171,261,122984,85,8,0:1:0:0:
359,350,123156,2,0,P|420:334|483:334,1,125.999996154785,0|0,3:0|0:0,0:0:0:0:
495,345,123501,2,0,B|466:286|466:286|499:167,1,167.999994873047,8|0,0:1|0:0,0:0:0:0:
493,187,124018,1,0,0:0:0:0:
354,31,124190,6,0,B|393:109|357:167|270:132|246:229|286:283,1,293.999991027832,0|0,3:0|0:0,0:0:0:0:
296,291,124880,2,0,P|254:315|212:322,1,83.9999974365235,8|0,0:0|0:0,0:0:0:0:
14,224,125225,85,2,0:0:0:0:
207,314,125397,1,8,0:1:0:0:
196,307,125742,5,8,0:1:0:0:
3,217,125915,2,0,L|137:191,1,125.999996154785,0|0,0:3|0:0,0:0:0:0:
138,203,126260,86,0,P|179:131|186:48,1,167.999994873047,8|0,0:1|0:0,0:0:0:0:
186,48,126777,1,0,0:0:0:0:
238,235,126949,5,0,3:0:0:0:
238,235,127294,2,0,P|272:199|367:219,1,125.999996154785,2|0,0:0|0:0,0:0:0:0:
359,212,127639,2,0,L|340:296,1,83.9999974365235,8|0,0:0|0:0,0:0:0:0:
183,357,127984,85,2,0:0:0:0:
420,310,128156,1,8,0:1:0:0:
416,320,128501,5,8,0:1:0:0:
189,349,128673,2,0,B|164:293|164:293|176:228,1,125.999996154785,4|0,3:1|0:0,0:0:0:0:
188,221,129018,86,0,P|146:164|55:189,1,167.999994873047,8|0,0:1|0:0,0:0:0:0:
60,182,129535,1,2,0:0:0:0:
259,173,129708,69,6,0:2:0:0:
259,173,130053,70,2,P|281:78|306:-3,1,180,0|0,0:0|0:0,0:1:0:0:
207,13,130397,38,0,P|159:17|107:31,1,90,2|0,0:0|0:0,0:0:0:0:
79,124,130742,86,0,P|141:102|215:90,1,125.999996154785,2|0,0:0|0:0,0:0:0:0:
207,13,131087,5,2,0:0:0:0:
200,91,131259,1,2,0:0:0:0:
189,169,131432,1,2,0:0:0:0:
190,178,131604,1,2,0:0:0:0:
181,178,131777,1,2,0:0:0:0:
196,178,131949,1,2,0:0:0:0:
175,168,132121,1,2,0:0:0:0:
199,191,132294,1,2,0:0:0:0:
115,248,132466,86,0,P|79:280|42:314,1,90,2|0,0:0|0:0,0:0:0:0:
50,194,132811,70,2,P|70:246|118:405,1,180,2|0,0:1|0:1,0:1:0:0:
190,363,133156,38,0,P|233:372|281:386,1,90,2|0,0:0|0:0,0:0:0:0:
334,323,133501,86,0,P|273:300|180:285,1,125.999996154785,2|0,0:0|0:0,0:0:0:0:
190,363,133846,5,2,0:0:0:0:
213,287,134018,1,2,0:0:0:0:
213,211,134190,1,2,0:0:0:0:
214,202,134362,1,2,0:0:0:0:
205,202,134535,1,2,0:0:0:0:
220,202,134707,1,2,0:0:0:0:
199,212,134879,1,2,0:0:0:0:
223,189,135052,1,2,0:0:0:0:
159,124,135225,86,0,P|132:89|86:33,1,90,2|0,0:0|0:0,0:0:0:0:
60,130,135570,70,2,P|181:72|257:60,1,180,2|0,0:1|0:1,0:1:0:0:
308,45,135915,38,0,P|376:52|415:104,1,125.999996154785,2|0,0:0|0:0,0:0:0:0:
422,243,136259,70,2,B|332:205|272:121|322:76|382:125|333:205,1,233.999989288331,0|0,0:0|0:0,0:1:0:0:
274,236,136604,5,2,0:0:0:0:
191,264,136777,1,2,0:0:0:0:
113,300,136949,1,2,0:0:0:0:
110,309,137121,1,2,0:0:0:0:
101,305,137294,1,2,0:0:0:0:
115,311,137466,1,2,0:0:0:0:
99,294,137638,1,2,0:0:0:0:
113,324,137811,1,2,0:0:0:0:
182,251,137984,6,0,P|223:261|281:276,1,90,2|0,0:0|0:0,0:0:0:0:
228,340,138328,54,2,P|214:234|199:145,1,180,2|0,0:1|0:1,0:1:0:0:
281,145,138673,22,0,P|291:100|304:48,1,90,2|0,0:0|0:0,0:0:0:0:
384,51,139018,6,0,P|370:110|352:194,1,125.999996154785,2|0,0:0|0:0,0:0:0:0:
281,145,139363,85,2,0:0:0:0:
356,173,139535,1,2,0:0:0:0:
430,200,139708,1,2,0:0:0:0:
440,203,139880,1,2,0:0:0:0:
442,195,140053,5,2,0:0:0:0:
291,241,140225,85,2,0:0:0:0:
187,221,140397,5,2,0:0:0:0:
118,264,140570,85,2,0:0:0:0:
30,339,140742,22,0,P|29:352|31:348,1,60,8|0,0:0|0:0,0:0:0:0:
11,143,141087,6,0,P|26:186|44:247,1,83.9999974365235,8|0,0:0|0:0,0:0:0:0:
26,139,141432,2,0,P|41:182|59:243,1,83.9999974365235,8|0,0:0|0:0,0:0:0:0:
38,137,141777,2,0,P|53:180|71:241,1,83.9999974365235,8|0,0:0|0:0,0:0:0:0:
224,232,142121,86,0,P|245:223|223:219,1,60,8|0,0:0|0:0,0:0:0:0:
238,26,142466,6,0,P|223:69|205:130,1,83.9999974365235,8|0,0:0|0:0,0:0:0:0:
223,22,142811,2,0,P|208:65|190:126,1,83.9999974365235,8|0,0:0|0:0,0:0:0:0:
211,20,143156,2,0,P|196:63|178:124,1,83.9999974365235,8|0,0:0|0:0,0:0:0:0:
13,247,143501,86,0,B|81:263|101:234|84:225|125:184|193:208,2,167.999994873047,8|8|8,0:0|0:0|0:0,0:0:0:0:
383,128,144535,6,0,L|414:15,1,83.9999974365235,8|0,0:0|0:0,0:0:0:0:
365,126,144880,2,0,L|396:13,1,83.9999974365235,8|0,0:0|0:0,0:0:0:0:
347,126,145225,2,0,L|378:13,1,83.9999974365235,8|0,0:0|0:0,0:0:0:0:
478,114,145570,85,10,0:0:0:0:
271,172,145742,1,2,0:0:0:0:
389,257,145915,5,10,0:0:0:0:
425,341,146087,1,2,0:0:0:0:
472,221,146259,86,0,B|494:200|494:200|454:210,1,60,8|0,0:0|0:0,0:0:0:0:
315,350,146604,6,0,P|303:308|286:255,1,83.9999974365235,8|0,0:0|0:0,0:0:0:0:
304,357,146949,2,0,P|292:315|275:262,1,83.9999974365235,8|0,0:0|0:0,0:0:0:0:
292,365,147294,2,0,P|280:323|263:270,1,83.9999974365235,8|0,0:0|0:0,0:0:0:0:
261,143,147639,86,0,B|239:122|239:122|279:132,1,60,8|0,0:0|0:0,0:0:0:0:
418,272,147984,6,0,P|430:230|447:177,1,83.9999974365235,8|0,0:0|0:0,0:0:0:0:
429,279,148329,2,0,P|441:237|458:184,1,83.9999974365235,8|0,0:0|0:0,0:0:0:0:
441,287,148674,2,0,P|453:245|470:192,1,83.9999974365235,8|0,0:0|0:0,0:0:0:0:
242,328,149018,86,0,B|278:306|278:306|295:324|295:324|410:360,2,167.999994873047,8|8|8,0:0|0:0|0:0,0:0:0:0:
44,210,150053,6,0,P|63:151|40:123,1,83.9999974365235,8|0,0:0|0:0,0:0:0:0:
153,147,150397,2,0,P|139:86|106:73,1,83.9999974365235,8|0,0:0|0:0,0:0:0:0:
219,46,150742,2,0,P|177:0|141:5,1,83.9999974365235,8|0,0:0|0:0,0:0:0:0:
153,147,151087,85,10,0:0:0:0:
252,159,151259,1,2,0:0:0:0:
412,224,151432,5,10,0:0:0:0:
496,186,151604,1,2,0:0:0:0:
377,303,151777,86,0,P|363:233|329:167,1,120,4|2,3:1|0:0,0:0:0:0:
340,112,152035,1,0,0:0:0:0:
340,112,152121,2,0,P|317:77|375:27,1,120,2|0,3:2|0:0,0:0:0:0:
506,76,152380,1,0,0:0:0:0:
506,76,152466,6,0,B|442:53|416:82|430:94|386:132|319:106,1,180,2|0,3:0|0:0,0:0:0:0:
229,108,152811,2,0,L|208:40,1,60,2|0,3:2|0:0,0:0:0:0:
22,114,152984,1,2,0:0:0:0:
25,123,153070,1,0,0:0:0:0:
28,133,153156,6,0,P|94:116|171:101,1,120,2|2,3:2|0:0,0:0:0:0:
204,225,153415,1,0,0:0:0:0:
204,225,153501,2,0,P|216:166|229:108,1,120,2|0,3:2|0:0,0:0:0:0:
307,34,153759,1,0,0:0:0:0:
307,34,153846,70,0,B|359:21|392:46|381:53|404:104|496:84,1,180,2|0,3:2|0:0,0:0:0:0:
470,88,154190,2,0,P|392:62|300:136,1,180,0|0,3:2|0:0,0:0:0:0:
277,189,154535,6,0,P|306:242|322:315,1,120,0|2,3:0|0:0,0:0:0:0:
430,263,154794,1,0,0:0:0:0:
430,263,154880,2,0,P|376:266|305:317,1,120,2|2,3:2|0:0,0:0:0:0:
234,349,155139,1,0,0:0:0:0:
234,349,155225,6,0,B|285:395|381:352|375:273|281:305,1,180,2|0,3:2|0:0,0:0:0:0:
128,291,155570,2,0,P|137:317|145:355,1,60,2|0,3:2|0:0,0:0:0:0:
231,111,155742,1,2,0:0:0:0:
228,120,155828,1,0,0:0:0:0:
224,130,155915,70,0,P|209:191|199:261,1,120,2|2,3:2|0:0,0:0:0:0:
31,113,156173,1,0,0:0:0:0:
31,113,156259,2,0,P|65:165|99:227,1,120,2|2,3:2|0:0,0:0:0:0:
82,348,156518,1,0,0:0:0:0:
82,348,156604,6,0,B|117:325|129:289|129:289|150:325|182:338|218:330,1,180,2|0,3:2|0:0,0:0:0:0:
284,286,156949,2,0,P|290:230|200:262,1,180,2|0,3:2|0:0,0:0:0:0:
215,330,157294,6,0,P|241:358|270:368,1,60,8|0,0:0|0:0,0:0:0:0:
426,298,157466,1,2,0:0:0:0:
426,298,157553,1,0,0:0:0:0:
426,298,157639,2,0,P|454:272|464:243,1,60,10|0,0:0|0:0,0:0:0:0:
154,210,157811,85,2,0:0:0:0:
154,210,157897,1,0,0:0:0:0:
154,210,157984,2,0,P|180:238|209:248,1,60,10|0,0:0|0:0,0:0:0:0:
365,178,158156,1,0,0:0:0:0:
365,178,158242,1,0,0:0:0:0:
365,178,158329,2,0,P|393:152|403:123,1,60,10|0,0:0|0:0,0:0:0:0:
220,54,158501,5,2,0:0:0:0:
220,54,158587,1,0,0:0:0:0:
220,54,158673,2,0,L|250:128,1,60,8|0,0:0|0:0,0:0:0:0:
285,231,158846,86,0,L|315:305,1,60,2|0,0:0|0:0,0:0:0:0:
243,370,159018,2,0,L|163:358,1,60,2|0,3:2|0:0,0:0:0:0:
137,268,159191,2,0,L|186:205,1,60,2|0,0:0|0:0,0:0:0:0:
40,272,159363,6,0,P|99:250|176:221,1,143.999995605469,10|2,0:0|0:0,0:0:0:0:
366,155,159621,1,0,0:0:0:0:
366,155,159708,2,0,P|428:130|502:101,1,143.999995605469,10|2,0:0|0:0,0:0:0:0:
237,120,160053,70,0,L|231:108,13,7.5,0|0|0|0|0|0|0|0|0|0|0|0|0|0,3:0|0:0|0:0|0:0|0:0|0:0|0:0|0:0|0:0|0:0|0:0|0:0|0:0|0:0,0:0:0:0:
277,196,160397,2,0,L|271:184,13,7.5,0|0|0|0|0|0|0|0|0|0|0|0|0|0,3:0|0:0|0:0|0:0|0:0|0:0|0:0|0:0|0:0|0:0|0:0|0:0|0:0|0:0,0:0:0:0:
317,276,160742,2,0,L|311:264,13,7.5,0|0|0|0|0|0|0|0|0|0|0|0|0|0,3:0|0:0|0:0|0:0|0:0|0:0|0:0|0:0|0:0|0:0|0:0|0:0|0:0|0:0,0:0:0:0:
358,356,161087,2,0,L|352:344,13,7.5,0|0|0|0|0|0|0|0|0|0|0|0|0|0,3:0|0:0|0:0|0:0|0:0|0:0|0:0|0:0|0:0|0:0|0:0|0:0|0:0|0:0,0:0:0:0:
358,356,162466,70,0,L|372:295,1,53.9999983520508,8|0,0:0|0:0,0:0:0:0:
283,193,162811,70,0,B|253:234|253:234|301:251,1,102.000001945496,2|0,3:2|0:0,0:0:0:0:
447,362,162984,2,0,B|497:366|497:366|488:316,1,102.000001945496,2|0,0:0|0:0,0:0:0:0:
206,150,163156,6,0,B|175:205|214:263|214:263|220:259|220:259|214:263|214:263|247:317|214:362,1,240,2|0,0:1|0:0,0:0:0:0:
214,361,163501,86,0,P|180:325|130:320,1,102.000001945496,8|0,0:1|0:0,0:0:0:0:
0,199,163673,6,0,B|35:218|35:218|113:200,1,120,2|0,0:1|0:0,0:0:0:0:
330,135,163846,86,0,B|255:53|255:53|199:248,1,306.000005836487,2|0,0:0|0:0,0:0:0:0:
466,244,164190,6,0,B|510:230|505:196|505:196|336:229,1,240,2|0,0:1|0:0,0:0:0:0:
336,229,164535,86,0,B|314:187|314:187|330:135,1,102.000001945496,0|0,3:0|0:0,0:0:0:0:
480,58,164708,6,0,P|462:111|405:117,1,120,2|0,0:1|0:0,0:0:0:0:
150,12,164880,85,8,0:0:0:0:
359,44,165053,6,0,L|351:76,1,17.9999994506836,2|0,0:0|0:0,0:0:0:0:
248,144,165225,2,0,L|241:114,1,30,2|0,0:0|0:0,0:0:0:0:
137,23,165397,2,0,L|123:81,1,41.9999987182618,2|0,0:0|0:0,0:0:0:0:
7,278,165570,6,2,L|3:261,1,18,2|0,3:1|0:1,0:1:0:0:
84,244,165915,70,0,B|75:203|43:187|43:187|112:150|170:200|182:235,1,240,2|0,0:1|0:0,0:0:0:0:
182,235,166259,6,0,L|197:354,1,102.000001945496,8|0,0:1|0:0,0:0:0:0:
428,244,166432,86,0,B|437:203|469:187|469:187|400:150|342:200|329:235,1,240,2|0,0:1|0:0,0:0:0:0:
330,235,166777,6,0,L|316:351,1,102.000001945496,2|0,0:0|0:0,0:0:0:0:
176,120,166949,86,2,B|152:72|152:72|192:-8|320:-8|360:72|360:72|336:120,1,360,2|0,0:1|0:1,0:1:0:0:
420,177,167294,6,0,B|367:184|344:221|344:221|314:187|264:189,1,180,4|0,3:2|0:0,0:0:0:0:
149,343,167639,86,0,B|175:324|175:324|193:244,1,102.000001945496,8|0,0:1|0:0,0:0:0:0:
35,205,167811,2,0,B|64:218|64:218|142:193,1,102.000001945496,0|0,3:0|0:0,0:0:0:0:
480,233,167984,6,2,B|401:206|356:269|356:269|369:277|369:277|356:269|356:269|312:338|250:325|250:325|276:305|279:273,1,360,2|0,0:1|0:1,0:1:0:0:
204,130,168328,6,2,L|197:146,1,18,0|0,3:0|0:0,0:1:0:0:
277,98,168673,70,0,P|301:155|260:190,1,120,2|0,0:1|0:0,0:0:0:0:
127,176,168846,2,0,P|102:118|143:83,1,120,2|0,0:0|0:0,0:0:0:0:
405,114,169018,6,0,P|390:162|381:213,1,102.000001945496,8|0,0:1|0:0,0:0:0:0:
387,343,169190,86,0,P|367:247|296:316,1,240,2|0,0:1|0:0,0:0:0:0:
296,316,169535,6,0,P|247:301|196:292,1,102.000001945496,2|0,0:0|0:0,0:0:0:0:
83,201,169708,86,0,P|75:62|169:164,1,360,2|0,0:1|0:0,0:0:0:0:
115,281,170053,6,0,B|78:296|78:296|19:276,1,102.000001945496,0|0,3:0|0:0,0:0:0:0:
235,48,170225,86,0,B|288:72|288:72|260:126,1,120,2|0,0:1|0:0,0:0:0:0:
83,201,170397,1,8,0:1:0:0:
343,145,170570,6,0,B|338:192|338:192|285:205,1,102.000001945496,2|0,0:1|0:0,0:0:0:0:
124,74,170742,86,0,B|179:146|151:257|63:198|11:328|94:388,1,360,2|0,0:1|0:0,0:0:0:0:
281,335,171087,54,0,P|202:292|114:280,1,180,4|0,3:2|0:0,0:0:0:0:
166,360,171432,2,0,P|231:336|291:336,1,120,2|0,0:0|0:0,0:0:0:0:
434,122,171777,6,0,B|354:75|354:75|399:169|404:244,1,270.000010299683,8|0,0:1|0:0,0:0:0:0:
420,335,172121,86,0,L|362:318,1,60,2|0,3:2|0:0,0:0:0:0:
263,226,172294,2,0,L|320:242,1,60,2|0,0:0|0:0,0:0:0:0:
499,362,172466,22,0,L|501:372,2,6
486,282,172639,1,2,0:0:0:0:
354,75,172811,70,0,P|268:61|213:126,1,180,0|0,3:0|0:0,0:0:0:0:
182,215,173156,22,0,L|183:220,2,6
102,178,173328,2,0,L|92:248,1,60,2|0,0:3|0:0,0:0:0:0:
217,296,173501,86,0,L|218:301,2,6
48,303,173673,6,0,P|39:322|41:355,1,30,2|0,0:3|0:0,0:0:0:0:
26,316,173759,86,0,P|35:357|57:375,1,45.0000017166138,2|0,0:3|0:0,0:0:0:0:
14,339,173846,6,0,L|316:359,1,270.000010299683,4|0,3:2|0:0,0:0:0:0:
367,361,174190,6,0,L|369:376,1,8.99999972534181,2|0,0:1|0:0,0:0:0:0:
438,294,174363,2,0,L|436:309,1,8.99999972534181,2|0,0:1|0:0,0:0:0:0:
291,117,174535,22,0,P|286:72|280:28,1,90,10|0,0:1|0:0,0:0:0:0:
294,24,174880,86,2,B|392:0|480:53|423:101|370:31,1,215.999993408203,2|0,0:1|0:1,0:1:0:0:
42,125,175225,86,0,L|45:139,1,8.99999972534181,2|0,0:1|0:0,0:0:0:0:
99,207,175397,2,0,L|96:221,1,8.99999972534181,2|0,0:1|0:0,0:0:0:0:
135,384,175570,22,0,P|151:309|170:225,1,135.000005149841,0|0,3:0|0:0,0:0:0:0:
213,193,175915,86,0,L|224:203,1,8.99999972534181,10|0,0:1|0:0,0:0:0:0:
287,272,176087,2,0,L|294:284,1,8.99999972534181,2|0,0:1|0:0,0:0:0:0:
311,171,176259,86,0,P|343:135|358:110,1,60,2|0,0:1|0:0,0:0:0:0:
497,144,176432,1,2,0:1:0:0:
492,161,176518,1,0,0:0:0:0:
482,149,176604,86,0,B|311:145|411:201|187:200,1,270.000010299683,4|0,3:2|0:0,0:0:0:0:
115,198,176949,22,0,L|111:187,1,8.99999972534181,2|0,0:1|0:0,0:0:0:0:
44,111,177121,2,0,L|40:122,1,8.99999972534181,2|0,0:1|0:0,0:0:0:0:
264,374,177294,22,0,P|272:328|282:274,1,90,10|0,0:1|0:0,0:0:0:0:
279,285,177639,54,2,B|348:240|445:252|445:252|383:296,1,215.999993408203,2|0,0:1|0:1,0:1:0:0:
0,341,177984,6,0,L|4:353,1,8.99999972534181,2|0,0:1|0:0,0:0:0:0:
80,281,178156,2,0,L|84:269,1,8.99999972534181,2|0,0:1|0:0,0:0:0:0:
186,0,178328,6,0,P|198:71|211:141,1,135.000005149841,0|0,3:0|0:0,0:0:0:0:
178,205,178673,2,0,B|231:228|281:196|248:184|294:152|352:172,1,180,8|0,0:1|0:0,0:0:0:0:
405,45,179018,70,2,B|460:137|430:250|340:281|340:281|288:180,1,323.999990112305,2|0,0:1|0:1,0:1:0:0:
150,353,179363,86,0,B|210:344|210:344|233:333|233:333|248:345|248:345|453:389,1,270.000010299683,2|0,3:2|0:0,0:0:0:0:
479,310,179708,22,0,L|484:289,1,17.9999994506836,2|0,0:1|0:0,0:0:0:0:
508,135,179880,2,0,L|513:114,1,17.9999994506836,2|0,0:1|0:0,0:0:0:0:
235,184,180053,6,0,P|187:202|172:275,1,120,10|0,0:1|0:0,0:0:0:0:
0,304,180397,2,0,P|53:327|66:383,1,120,2|0,0:1|0:0,0:0:0:0:
90,52,180742,70,0,L|96:71,1,17.9999994506836,2|0,0:1|0:0,0:0:0:0:
68,206,180915,2,0,L|74:225,1,17.9999994506836,2|0,0:1|0:0,0:0:0:0:
174,0,181087,38,0,P|82:24|-1:68,1,180,2|0,3:1|0:0,0:0:0:0:
142,149,181432,70,0,L|164:158,1,17.9999994506836,10|0,0:1|0:0,0:0:0:0:
312,196,181604,2,0,L|334:205,1,17.9999994506836,2|0,0:1|0:0,0:0:0:0:
148,246,181777,86,0,L|170:237,1,17.9999994506836,2|0,0:1|0:0,0:0:0:0:
407,205,181949,2,0,L|429:196,1,17.9999994506836,2|0,0:1|0:0,0:0:0:0:
133,354,182122,54,0,P|83:244|37:158,1,180,4|0,3:2|0:0,0:0:0:0:
6,62,182466,6,0,P|38:68|68:91,1,60,2|0,0:0|0:0,0:0:0:0:
234,333,182639,6,0,P|280:317|309:268,1,90.0000034332277,2|0,0:0|0:0,0:0:0:0:
460,16,182811,86,0,P|410:80|503:40,1,215.999993408203,10|0,0:1|0:0,0:0:0:0:
464,302,183156,2,0,P|471:214|511:74,1,215.999993408203,2|0,0:1|0:0,0:0:0:0:
391,181,183501,6,0,L|384:183,2,6,2|0|0,0:0|0:0|0:0,0:0:0:0:
305,201,183673,1,2,0:0:0:0:
92,343,183846,85,2,3:2:0:0:
12,360,184018,1,2,0:0:0:0:
176,331,184190,6,0,L|178:341,2,6,2|0|0,0:0|0:0|0:0,0:0:0:0:
290,297,184363,2,0,P|283:325|278:361,1,60,2|0,0:3|0:0,0:0:0:0:
161,245,184535,2,0,L|159:255,2,6
123,62,184708,86,0,P|130:82|154:104,1,30,2|0,0:3|0:0,0:0:0:0:
116,87,184794,6,0,P|151:110|179:107,1,45.0000017166138,2|0,0:3|0:0,0:0:0:0:
109,99,184880,6,0,B|38:147|38:147|254:103,1,306.000005836487,4|0,3:2|0:0,0:0:0:0:
385,92,185225,6,0,P|334:86|284:76,1,102.000001945496,2|0,0:1|0:0,0:0:0:0:
290,297,185397,2,0,P|269:250|253:202,1,102.000001945496,2|0,0:1|0:0,0:0:0:0:
395,19,185570,86,0,B|460:-16|460:-16|425:68|413:173,1,270.000010299683,10|0,0:1|0:0,0:0:0:0:
485,273,185915,6,0,B|499:201|499:201|343:227|343:227|372:295,1,306.000005836487,10|0,0:1|0:0,0:0:0:0:
478,384,186259,86,0,B|503:368|503:368|424:352,1,102.000001945496,10|0,0:1|0:0,0:0:0:0:
203,285,186432,2,0,B|189:311|189:311|265:285,1,102.000001945496,2|0,0:1|0:0,0:0:0:0:
340,32,186604,6,0,B|299:94|299:94|330:199,1,180,6|0,3:1|0:0,0:0:0:0:
239,194,186949,86,0,P|193:178|139:169,1,102.000001945496,10|0,0:1|0:0,0:0:0:0:
394,106,187121,2,0,P|444:97|492:81,1,102.000001945496,2|0,0:1|0:0,0:0:0:0:
153,48,187294,6,0,P|117:94|123:153,1,120,10|0,0:1|0:0,0:0:0:0:
472,201,187466,2,0,P|507:154|501:95,1,120,10|0,0:1|0:0,0:0:0:0:
312,0,187639,86,0,B|242:73|262:200|326:225|326:225|289:191|302:131,1,360,4|0,3:1|0:0,0:0:0:0:
402,149,187984,6,2,P|377:174|396:144,1,102.000001945496,2|0,0:1|0:0,0:1:0:0:
193,216,188156,2,0,P|218:241|188:222,1,102.000001945496,2|0,0:1|0:0,0:0:0:0:
400,271,188328,86,0,B|335:233|261:271|313:329|215:356|160:325,1,270.000010299683,10|0,0:1|0:0,0:0:0:0:
28,240,188673,6,0,P|145:254|49:323,1,306.000005836487,10|0,0:1|0:0,0:0:0:0:
231,133,189018,86,0,B|238:165|238:165|220:232,1,102.000001945496,10|0,0:1|0:0,0:0:0:0:
11,145,189190,2,0,B|35:122|35:122|101:104,1,102.000001945496,2|0,0:1|0:0,0:0:0:0:
287,67,189363,6,0,B|334:25|334:25|184:56,1,215.999993408203,2|0,3:2|0:0,0:0:0:0:
320,221,189708,86,0,P|325:177|338:134,1,90,8|0,0:1|0:0,0:0:0:0:
396,78,190053,6,0,B|466:98|466:98|422:153,1,143.999995605469,2|0,0:0|0:0,0:0:0:0:
404,237,190225,2,0,B|421:308|421:308|352:297,1,143.999995605469,2|0,0:0|0:0,0:0:0:0:
94,272,190397,86,0,B|18:234|40:149|105:111|105:111|156:147|121:201,1,306.000005836487,4|0,3:2|0:0,0:0:0:0:
228,322,190742,6,0,L|242:244,1,71.9999978027344,2|0,0:1|0:0,0:0:0:0:
257,164,190915,2,0,L|271:86,1,71.9999978027344,2|0,0:1|0:0,0:0:0:0:
186,37,191087,86,0,B|125:-1|125:-1|165:75|171:134,1,215.999993408203,10|0,0:1|0:0,0:0:0:0:
266,179,191432,6,0,P|371:147|285:80,1,270.000010299683,10|0,0:1|0:0,0:0:0:0:
251,258,191777,86,0,P|284:271|320:273,1,71.9999978027344,10|0,0:1|0:0,0:0:0:0:
374,15,191949,2,0,P|340:1|304:0,1,71.9999978027344,2|0,0:1|0:0,0:0:0:0:
50,68,192121,6,0,P|32:135|71:193,1,144,6|0,3:1|0:0,0:0:0:0:
146,223,192466,86,0,L|121:304,1,71.9999978027344,10|0,0:1|0:0,0:0:0:0:
176,369,192639,2,0,L|154:300,1,71.9999978027344,2|0,0:1|0:0,0:0:0:0:
288,202,192811,6,0,P|242:252|205:251,1,90.0000034332277,10|0,0:1|0:0,0:0:0:0:
89,367,192984,2,0,P|45:366|12:337,1,90.0000034332277,10|0,0:1|0:0,0:0:0:0:
184,79,193156,38,0,P|209:154|224:264,1,180,4|0,3:2|0:0,0:0:0:0:
315,350,193501,6,0,L|328:285,1,60,2|0,0:0|0:0,0:0:0:0:
463,193,193673,6,0,P|422:209|378:217,1,90.0000034332277,2|0,0:0|0:0,0:0:0:0:
99,275,193846,86,0,P|153:181|183:78,1,215.999993408203,10|0,0:1|0:0,0:0:0:0:
9,84,194190,86,0,P|28:141|83:117,1,135.000005149841,2|0,3:1|0:0,0:0:0:0:
76,37,194535,22,0,P|111:9|155:5,1,90.0000034332277,2|0,0:0|0:0,0:0:0:0:
221,229,194708,86,0,P|255:257|288:261,1,71.9999978027344,2|0,0:0|0:0,0:0:0:0:
335,97,194880,86,0,P|357:81|390:78,1,53.9999983520508,2|0,3:2|0:0,0:0:0:0:
445,209,195053,6,0,P|473:220|487:218,1,35.9999989013672,2|0,0:0|0:0,0:0:0:0:
483,147,195225,86,0,P|393:178|296:191,1,180,10|0,0:1|0:0,0:0:0:0:
75,170,195570,2,0,P|160:140|249:126,1,180,2|0,0:1|0:0,0:0:0:0:
295,200,195915,5,4,3:2:0:0:
264,282,196087,1,2,0:0:0:0:
447,380,196259,86,0,P|457:266|350:304,1,270.000010299683,2|0,0:0|0:0,0:0:0:0:
286,373,196604,6,0,P|229:355|165:338,1,120,8|0,0:1|0:0,0:0:0:0:
46,128,196949,1,2,0:0:0:0:
158,348,197121,86,0,P|135:294|114:171,1,180,2|0,0:0|0:0,0:0:0:0:
168,112,197466,1,2,0:0:0:0:
8,305,197639,6,0,P|52:301|86:272,1,90.0000034332277,2|0,3:2|0:0,0:0:0:0:
273,224,197811,2,0,P|228:220|194:191,1,90.0000034332277,2|0,0:0|0:0,0:0:0:0:
17,53,197984,86,0,B|49:46|68:15|68:15|43:139,1,180,8|0,0:1|0:0,0:0:0:0:
195,192,198328,2,0,B|163:185|144:154|144:154|169:278,1,180,2|0,0:0|0:0,0:0:0:0:
179,348,198673,5,4,3:2:0:0:
71,308,198846,1,2,0:0:0:0:
248,293,199018,86,0,B|322:273|345:187|310:126|310:126|290:187,1,270.000010299683,2|0,0:0|0:0,0:0:0:0:
376,291,199363,6,0,P|400:236|403:176,1,120,8|0,0:1|0:0,0:0:0:0:
288,48,199708,1,2,0:0:0:0:
418,157,199880,86,0,P|413:247|374:327,1,180,2|0,0:0|0:0,0:0:0:0:
300,363,200225,1,2,0:0:0:0:
180,130,200397,6,0,P|193:165|201:217,1,90.0000034332277,2|0,3:2|0:0,0:0:0:0:
202,332,200570,2,0,P|208:287|223:245,1,90.0000034332277,2|0,0:0|0:0,0:0:0:0:
130,45,200742,85,8,0:1:0:0:
368,161,200915,2,0,P|333:174|280:182,1,90.0000034332277,2|0,3:2|0:0,0:0:0:0:
47,193,201087,6,0,B|89:199|115:242|115:242|149:210|202:217,1,180,2|0,0:0|0:0,0:0:0:0:
268,263,201432,85,4,3:2:0:0:
233,338,201604,1,2,0:0:0:0:
439,279,201777,6,0,P|401:151|413:18,1,270.000010299683,2|0,0:0|0:0,0:0:0:0:
478,177,202121,86,0,P|420:91|413:18,1,180.000006866455,8|0,0:1|0:0,0:0:0:0:
361,326,202466,1,2,0:0:0:0:
433,8,202639,6,0,P|401:75|294:128,1,180,2|0,0:0|0:0,0:0:0:0:
233,88,202984,1,2,0:0:0:0:
252,288,203156,86,0,P|279:253|287:209,1,90.0000034332277,2|0,3:2|0:0,0:0:0:0:
180,17,203328,2,0,P|152:51|144:95,1,90.0000034332277,2|0,0:0|0:0,0:0:0:0:
373,234,203501,6,0,P|365:193|349:125,1,90.0000034332277,8|0,0:1|0:0,0:0:0:0:
57,66,203673,2,0,P|64:110|75:154,1,90.0000034332277,2|0,0:0|0:0,0:0:0:0:
350,133,203846,86,0,P|323:122|290:115,1,60,2|0,0:0|0:0,0:0:0:0:
84,165,204018,2,0,P|110:175|144:183,1,60,2|0,0:0|0:0,0:0:0:0:
218,149,204190,5,4,3:0:0:0:
256,192,204535,12,0,206604,0:0:0:0:
10,100,206949,6,2,B|108:-15|108:-15|104:5|104:5|108:157|108:157|116:156|116:156|157:218|157:218|139:337|139:337|66:277|66:277|270:163|270:163|290:174|290:174|401:126|401:126|425:50|425:50|358:84|358:84|255:303|255:303|388:247|388:247|434:291|434:291|441:288|441:288|435:292|435:292|442:301|442:301|440:307|440:307|447:308|447:308|491:355|491:355|529:256,1,1800.00006866455,2|0,3:1|0:1,0:1:0:0:
