osu file format v14

[General]
AudioFilename: audio.mp3
AudioLeadIn: 0
PreviewTime: -1
Countdown: 1
SampleSet: None
StackLeniency: 0.7
Mode: 0
LetterboxInBreaks: 0
WidescreenStoryboard: 0

[Editor]
DistanceSpacing: 1
BeatDivisor: 4
GridSize: 4
TimelineZoom: 1.9

[Metadata]
Title:We Are One [Monstercat]
TitleUnicode:We Are One [Monstercat]
Artist:Pegboard Nerds ft. Splitbreed
ArtistUnicode:Pegboard Nerds ft. Splitbreed
Creator:Spark-desu
Version:United
Source:
Tags:
BeatmapID:922342
BeatmapSetID:427271

[Difficulty]
HPDrainRate:5
CircleSize:4
OverallDifficulty:7
ApproachRate:9.7
SliderMultiplier:1.4
SliderTickRate:1

[Events]
//Background and Video events
0,0,"asdefdfsf.jpg",0,0
//Break Periods
2,142268,145936
//Storyboard Layer 0 (Background)
//Storyboard Layer 1 (Fail)
//Storyboard Layer 2 (Pass)
//Storyboard Layer 3 (Foreground)
//Storyboard Sound Samples

[TimingPoints]
250,272.727272727273,4,3,1,100,1,0
37340,-100,4,3,1,100,0,0
37886,-71.4285714285714,4,3,1,100,0,0
39522,-100,4,3,1,100,0,0
41159,-71.4285714285714,4,3,1,100,0,0
43340,-55.5555555555556,4,3,1,100,0,0
43613,-71.4285714285714,4,3,1,100,0,0
44431,-100,4,3,1,100,0,0
44840,-71.4285714285714,4,3,1,100,0,0
45522,-55.5555555555556,4,3,1,100,0,0
46613,-71.4285714285714,4,3,1,100,0,0
49886,-55.5555555555556,4,3,1,100,0,0
50704,-55.5555555555556,4,3,1,100,0,0
52613,-71.4285714285714,4,3,1,100,0,0
54795,-100,4,3,1,100,0,0
55340,-71.4285714285714,4,3,1,100,0,0
58068,-55.5555555555556,4,3,1,100,0,0
58204,-71.4285714285714,4,3,1,100,0,0
63522,-55.5555555555556,4,3,1,100,0,0
65159,-71.4285714285714,4,3,1,100,0,0
67340,-55.5555555555556,4,3,1,100,0,0
67545,-71.4285714285714,4,3,1,100,0,0
71977,-55.5555555555556,4,3,1,100,0,0
74704,-71.4285714285714,4,3,1,100,0,0
75250,-55.5555555555556,4,3,1,100,0,0
75522,-71.4285714285714,4,3,1,100,0,0
76068,-55.5555555555556,4,3,1,100,0,0
76340,-71.4285714285714,4,3,1,100,0,0
104431,-55.5555555555556,4,3,1,100,0,0
104704,-71.4285714285714,4,3,1,100,0,0
106613,-55.5555555555556,4,3,1,100,0,0
107159,-55.5555555555556,4,3,1,100,0,0
111522,-71.4285714285714,4,3,1,100,0,0
113159,-55.5555555555556,4,3,1,100,0,0
113431,-71.4285714285714,4,3,1,100,0,0
115340,-55.5555555555556,4,3,1,100,0,0
120250,-71.4285714285714,4,3,1,100,0,0
121886,-55.5555555555556,4,3,1,100,0,0
122159,-71.4285714285714,4,3,1,100,0,0
124068,-55.5555555555556,4,3,1,100,0,0
124340,-55.5555555555556,4,3,1,100,0,0
128977,-71.4285714285714,4,3,1,100,0,0
130613,-55.5555555555556,4,3,1,100,0,0
130886,-71.4285714285714,4,3,1,100,0,0
132795,-55.5555555555556,4,3,1,100,0,0
133068,-55.5555555555556,4,3,1,100,0,0
137704,-71.4285714285714,4,3,1,100,0,0
174250,-55.5555555555556,4,3,1,100,0,0
174522,-71.4285714285714,4,3,1,100,0,0
176431,-55.5555555555556,4,3,1,100,0,0
176704,-55.5555555555556,4,3,1,100,0,0
181204,-71.4285714285714,4,3,1,100,0,0
182977,-55.5555555555556,4,3,1,100,0,0
183250,-71.4285714285714,4,3,1,100,0,0
185159,-55.5555555555556,4,3,1,100,0,0
185431,-55.5555555555556,4,3,1,100,0,0
206977,-71.4285714285714,4,3,1,100,0,0

[HitObjects]
256,52,20159,5,0,1:1:0:0:
128,112,20431,1,0,1:1:0:0:
56,232,20704,1,0,1:1:0:0:
184,180,20977,1,0,1:1:0:0:
320,156,21250,1,0,1:1:0:0:
456,176,21522,1,0,1:1:0:0:
328,232,21795,1,0,1:1:0:0:
200,292,22068,1,0,1:1:0:0:
72,348,22340,1,0,1:1:0:0:
132,220,22613,1,0,1:1:0:0:
228,120,22886,1,0,1:1:0:0:
348,44,23159,1,0,1:1:0:0:
488,36,23431,1,0,1:1:0:0:
372,112,23704,1,0,1:1:0:0:
264,204,23977,1,0,1:1:0:0:
188,324,24250,5,0,1:1:0:0:
176,184,24522,1,0,1:1:0:0:
208,48,24795,1,0,1:1:0:0:
100,140,25068,1,0,1:1:0:0:
44,268,25340,1,0,1:1:0:0:
176,224,25613,1,0,1:1:0:0:
316,240,25886,1,0,1:1:0:0:
440,308,26159,1,0,1:1:0:0:
396,176,26431,1,0,1:1:0:0:
292,80,26704,1,0,1:1:0:0:
160,40,26977,1,0,1:1:0:0:
240,156,27250,1,0,1:1:0:0:
316,272,27522,1,0,1:1:0:0:
184,224,27795,1,0,1:1:0:0:
44,212,28068,1,0,1:1:0:0:
160,132,28340,1,0,1:1:0:0:
292,88,28613,5,0,1:1:0:0:
316,152,28750,1,0,1:1:0:0:
364,204,28886,1,0,1:1:0:0:
236,260,29159,1,0,1:1:0:0:
180,304,29295,1,0,1:1:0:0:
112,324,29431,1,0,1:1:0:0:
100,92,29704,5,0,1:1:0:0:
152,140,29840,1,0,1:1:0:0:
220,164,29977,1,0,1:1:0:0:
368,52,30250,1,0,1:1:0:0:
400,116,30386,1,0,1:1:0:0:
408,184,30522,1,0,1:1:0:0:
240,96,30795,5,0,1:1:0:0:
184,136,30931,1,0,1:1:0:0:
140,192,31068,1,0,1:1:0:0:
304,284,31340,1,0,1:1:0:0:
244,320,31477,1,0,1:1:0:0:
176,332,31613,1,0,1:1:0:0:
408,312,31886,5,0,1:1:0:0:
400,244,32022,1,0,1:1:0:0:
364,184,32159,1,0,1:1:0:0:
440,56,32431,1,0,1:1:0:0:
372,40,32568,1,0,1:1:0:0:
304,56,32704,1,0,1:1:0:0:
176,272,32977,5,0,1:1:0:0:
176,112,33250,1,0,1:1:0:0:
336,112,33522,1,0,1:1:0:0:
336,272,33795,1,0,1:1:0:0:
144,192,34068,5,0,1:1:0:0:
256,80,34340,1,0,1:1:0:0:
368,192,34613,1,0,1:1:0:0:
256,304,34886,1,0,1:1:0:0:
144,192,35159,6,0,P|96:144|96:128,1,70,0|0,1:1|1:1,1:1:0:0:
92,36,35431,1,0,1:1:0:0:
264,84,35568,1,0,1:1:0:0:
208,232,35704,2,0,P|248:260|288:264,1,70,0|0,1:1|1:1,1:1:0:0:
400,264,35977,1,0,1:1:0:0:
472,116,36113,1,0,1:1:0:0:
316,36,36250,2,0,P|336:80|324:128,1,70,0|0,1:1|1:1,1:1:0:0:
308,288,36522,1,0,1:1:0:0:
204,152,36659,1,0,1:1:0:0:
40,40,36795,5,0,1:1:0:0:
80,296,37068,1,0,1:1:0:0:
236,60,37340,2,0,P|320:84|340:144,1,140,0|0,1:1|1:1,1:1:0:0:
460,316,37886,2,0,L|248:316,1,195.999994018555,0|0,1:1|1:1,1:1:0:0:
60,248,38431,5,0,1:1:0:0:
192,40,38568,1,0,1:1:0:0:
312,252,38704,1,0,1:1:0:0:
92,136,38840,1,0,1:1:0:0:
328,48,38977,2,0,P|312:96|260:144,1,97.9999970092774,0|0,1:1|1:1,1:1:0:0:
84,304,39386,5,0,1:1:0:0:
88,48,39522,2,0,P|144:104|164:160,1,140,0|0,1:1|1:1,1:1:0:0:
164,348,39931,1,0,1:1:0:0:
300,200,40068,2,0,P|320:244|356:264,1,70,0|0,1:1|1:1,1:1:0:0:
384,76,40340,2,0,P|426:99|466:94,1,70,0|0,1:1|1:1,1:1:0:0:
444,192,40613,5,0,1:1:0:0:
224,68,40750,1,0,1:1:0:0:
236,336,40886,1,0,1:1:0:0:
64,56,41159,2,0,L|64:256,1,195.999994018555,0|0,1:1|1:1,1:1:0:0:
256,344,41704,2,0,L|256:132,1,195.999994018555,0|0,1:1|1:1,1:1:0:0:
256,36,42113,5,0,1:1:0:0:
388,64,42250,2,0,P|432:104|436:152,1,97.9999970092774,0|0,1:1|1:1,1:1:0:0:
436,328,42522,1,0,1:1:0:0:
332,136,42659,1,0,1:1:0:0:
84,64,42795,2,0,P|72:120|112:180,1,97.9999970092774,0|0,1:1|1:1,1:1:0:0:
48,248,43068,2,0,P|52:304|96:332,1,97.9999970092774,0|0,1:1|1:1,1:1:0:0:
132,268,43340,2,0,P|194:299|223:159,1,251.999992309571,0|0,1:1|1:1,1:1:0:0:
120,64,43750,5,0,1:1:0:0:
360,140,43886,1,0,1:1:0:0:
256,344,44159,5,0,1:1:0:0:
84,224,44295,1,0,1:1:0:0:
288,136,44431,2,0,P|312:84|344:68,1,70,0|0,1:1|1:1,1:1:0:0:
288,248,44704,2,0,P|312:300|344:316,1,70,0|0,1:1|1:1,1:1:0:0:
476,332,44977,1,0,1:1:0:0:
448,104,45113,1,0,1:1:0:0:
244,192,45250,1,0,1:1:0:0:
96,64,45522,6,0,B|96:100|96:100|96:112|96:112|112:116|112:116|80:116|80:116|112:128|112:128|80:128|80:128|112:140|112:140|80:140|80:140|96:148|96:148|96:160,1,251.999992309571,0|0,1:1|1:1,1:1:0:0:
208,336,46068,5,0,1:1:0:0:
236,176,46204,1,0,1:1:0:0:
432,216,46340,1,0,1:1:0:0:
336,56,46477,1,0,1:1:0:0:
308,236,46613,2,0,P|240:260|156:196,1,146.999995513916,0|0,1:1|2:1,1:1:0:0:
144,192,46886,5,0,1:1:0:0:
44,40,47022,1,0,1:1:0:0:
44,232,47159,1,0,1:1:0:0:
180,40,47295,1,0,1:1:0:0:
324,156,47431,1,0,1:1:0:0:
140,280,47568,1,0,1:1:0:0:
240,144,47704,2,0,P|296:80|356:76,1,146.999995513916,0|0,1:1|2:2,1:1:0:0:
404,88,47977,6,0,P|464:180|452:200,1,146.999995513916,0|0,1:1|2:2,1:1:0:0:
424,236,48250,1,0,1:1:0:0:
196,324,48522,5,0,1:1:0:0:
128,152,48659,1,0,1:1:0:0:
60,320,48795,2,0,P|116:252|208:224,1,146.999995513916,0|0,3:3|2:2,2:2:0:0:
216,212,49068,2,0,P|312:164|328:72,1,195.999994018555,0|0,1:1|3:3,0:0:0:0:
328,36,49477,5,0,0:0:0:0:
140,132,49613,1,0,0:0:0:0:
372,296,49886,2,0,B|372:248|372:248|360:236|360:236|384:236|384:236|360:224|360:224|384:224|384:224|360:212|360:212|384:212|384:212|372:200|372:200|372:152,1,251.999992309571
232,52,50431,1,0,0:0:0:0:
52,132,50704,6,0,B|124:76|124:76|124:248,1,251.999992309571
208,304,51113,1,0,0:0:0:0:
224,136,51250,6,0,B|296:80|296:80|296:252,1,251.999992309571
380,328,51659,1,0,0:0:0:0:
204,224,51795,1,0,0:0:0:0:
264,48,51931,1,0,0:0:0:0:
396,140,52068,6,0,B|468:84|468:84|468:256,1,251.999992309571
472,336,52477,1,0,0:0:0:0:
368,220,52613,6,0,P|332:284|272:304,1,97.9999970092774
216,312,52886,1,0,0:0:0:0:
124,276,53022,1,0,0:0:0:0:
60,200,53159,1,0,0:0:0:0:
56,104,53295,1,0,0:0:0:0:
128,36,53431,1,0,0:0:0:0:
228,36,53568,1,0,0:0:0:0:
316,80,53704,1,0,0:0:0:0:
184,148,53840,5,0,0:0:0:0:
252,220,53977,1,0,0:0:0:0:
344,256,54113,1,0,0:0:0:0:
436,228,54250,1,0,0:0:0:0:
480,140,54386,1,0,0:0:0:0:
452,44,54522,1,0,0:0:0:0:
252,220,54795,6,0,P|234:148|299:143,1,140
432,152,55204,1,0,0:0:0:0:
160,36,55340,6,0,P|96:68|80:152,1,146.999995513916,0|0,0:0|2:0,0:0:0:0:
36,228,55613,6,0,P|106:237|167:176,1,146.999995513916,0|0,0:0|2:0,0:0:0:0:
196,104,55886,5,0,0:0:0:0:
280,288,56022,1,0,0:0:0:0:
268,40,56159,1,0,0:0:0:0:
204,328,56295,1,0,0:0:0:0:
428,48,56704,6,0,P|456:100|436:136,1,97.9999970092774
280,288,56977,1,0,0:0:0:0:
236,60,57113,1,0,0:0:0:0:
40,200,57250,2,0,P|52:252|88:284,1,97.9999970092774
320,36,57522,6,0,P|296:136|192:128,1,195.999994018555
84,40,57931,1,0,0:0:0:0:
64,252,58068,2,0,L|208:200,1,125.999996154785
464,104,58477,5,0,0:0:0:0:
392,320,58613,2,0,P|332:300|316:264,1,97.9999970092774
348,112,58886,2,0,P|304:88|252:112,1,97.9999970092774
128,304,59159,2,0,P|84:264|84:220,1,97.9999970092774
212,40,59431,1,0,0:0:0:0:
208,152,59568,5,0,0:0:0:0:
436,328,59704,1,0,0:0:0:0:
336,92,59840,1,0,0:0:0:0:
144,296,59977,1,0,0:0:0:0:
408,148,60113,1,0,0:0:0:0:
424,56,60250,6,0,L|340:160,1,97.9999970092774
224,272,60522,1,0,0:0:0:0:
152,72,60659,1,0,0:0:0:0:
336,212,60795,1,0,0:0:0:0:
68,164,60931,1,0,0:0:0:0:
328,44,61068,1,0,0:0:0:0:
304,312,61204,1,0,0:0:0:0:
232,48,61340,5,0,0:0:0:0:
144,96,61477,1,0,0:0:0:0:
80,168,61613,1,0,0:0:0:0:
48,260,61750,1,0,0:0:0:0:
156,172,61886,5,0,0:0:0:0:
200,260,62022,1,0,0:0:0:0:
284,316,62159,1,0,0:0:0:0:
380,336,62295,1,0,0:0:0:0:
272,240,62431,5,0,0:0:0:0:
364,200,62568,1,0,0:0:0:0:
420,120,62704,1,0,0:0:0:0:
460,32,62840,1,0,0:0:0:0:
328,96,62977,5,0,0:0:0:0:
232,104,63113,1,0,0:0:0:0:
136,92,63250,1,0,0:0:0:0:
56,36,63386,1,0,0:0:0:0:
188,160,63522,6,0,P|163:223|272:180,1,251.999992309571
284,44,63931,1,0,0:0:0:0:
316,304,64068,2,0,L|472:96,1,251.999992309571
356,44,64477,1,0,0:0:0:0:
220,208,64613,5,0,0:0:0:0:
40,40,64750,1,0,0:0:0:0:
220,164,64886,1,0,0:0:0:0:
44,344,65022,1,0,0:0:0:0:
220,252,65159,2,0,P|276:296|328:296,1,97.9999970092774
476,280,65431,1,0,0:0:0:0:
304,128,65568,1,0,0:0:0:0:
76,76,65704,6,0,P|84:144|116:184,1,97.9999970092774
256,308,65977,1,0,0:0:0:0:
332,60,66113,2,0,P|372:96|368:160,1,97.9999970092774
324,336,66386,1,0,0:0:0:0:
112,160,66522,2,0,P|184:148|216:124,1,97.9999970092774
408,32,66795,5,0,0:0:0:0:
408,256,66931,1,0,0:0:0:0:
204,56,67068,1,0,0:0:0:0:
208,296,67204,1,0,0:0:0:0:
436,112,67340,2,0,P|384:152|292:152,1,125.999996154785
112,168,67613,5,0,1:1:0:0:
340,256,67750,1,0,1:1:0:0:
204,56,67886,2,0,P|224:112|204:152,1,97.9999970092774
92,312,68159,1,0,0:0:0:0:
324,152,68295,1,0,0:0:0:0:
176,344,68431,1,0,0:0:0:0:
140,104,68568,1,0,0:0:0:0:
368,216,68704,1,0,0:0:0:0:
240,24,68840,1,0,0:0:0:0:
440,216,68977,6,0,P|424:264|380:288,1,97.9999970092774
140,312,69250,1,0,0:0:0:0:
328,112,69386,1,0,0:0:0:0:
88,196,69522,1,0,0:0:0:0:
304,32,69659,1,0,0:0:0:0:
252,276,69795,1,0,0:0:0:0:
224,32,69931,1,0,0:0:0:0:
184,304,70068,5,0,0:0:0:0:
273,350,70205,1,0,0:0:0:0:
368,362,70341,1,0,0:0:0:0:
462,337,70478,1,0,0:0:0:0:
329,297,70614,5,0,0:0:0:0:
377,211,70750,1,0,0:0:0:0:
377,111,70887,1,0,0:0:0:0:
340,20,71023,1,0,0:0:0:0:
320,163,71159,5,0,0:0:0:0:
236,109,71296,1,0,0:0:0:0:
138,107,71432,1,0,0:0:0:0:
43,123,71568,1,0,0:0:0:0:
160,216,71704,6,0,L|204:272,1,48.9999985046387,0|0,0:0|2:0,0:0:0:0:
240,308,71840,2,0,L|284:284,1,48.9999985046387,0|0,0:0|2:0,0:0:0:0:
252,216,71977,2,0,L|436:20,1,251.999992309571
224,176,72522,1,0,0:0:0:0:
180,60,72659,1,0,0:0:0:0:
56,48,72795,6,0,P|76:284|316:312,1,503.999984619141
440,196,73477,1,0,0:0:0:0:
260,92,73613,1,0,0:0:0:0:
176,260,73750,1,0,0:0:0:0:
324,224,73886,2,0,B|339:191|339:191|344:180|344:180|331:170|331:170|360:183|360:183|336:159|336:159|365:172|365:172|341:148|341:148|370:161|370:161|359:147|359:147|364:136,1,251.999992309571,0|0,1:1|1:1,1:1:0:0:
156,36,74295,1,0,0:0:0:0:
256,200,74431,6,0,P|248:240|276:272,1,62.9999980773926,0|0,0:0|2:0,0:0:0:0:
204,304,74568,2,0,P|179:276|138:258,1,62.9999980773926,0|0,0:0|2:0,0:0:0:0:
132,332,74704,2,0,P|80:284|120:204,1,146.999995513916,0|0,0:0|2:0,0:0:0:0:
176,192,74977,2,0,L|64:48,1,146.999995513916,0|0,0:0|2:0,0:0:0:0:
136,32,75250,2,0,P|192:68|216:72,1,62.9999980773926,0|0,0:0|2:0,0:0:0:0:
256,72,75386,2,0,P|316:64|328:56,1,62.9999980773926,0|0,0:0|2:0,0:0:0:0:
380,32,75522,2,0,P|448:108|436:152,1,146.999995513916,0|0,0:0|2:0,0:0:0:0:
472,204,75795,2,0,B|426:241|426:241|393:198|393:198|353:230,1,146.999995513916,0|0,0:0|2:0,0:0:0:0:
360,296,76068,2,0,P|292:324|244:288,1,125.999996154785
208,156,76340,2,0,P|156:140|124:176,1,97.9999970092774
64,308,76613,6,0,L|192:252,1,97.9999970092774
372,156,76886,1,0,0:0:0:0:
160,80,77022,1,0,0:0:0:0:
376,80,77159,1,0,0:0:0:0:
160,156,77295,1,0,0:0:0:0:
372,232,77431,1,0,0:0:0:0:
160,312,77568,1,0,0:0:0:0:
372,156,77704,6,0,P|420:172|448:216,1,97.9999970092774
392,360,77977,1,0,0:0:0:0:
220,232,78113,1,0,0:0:0:0:
448,136,78250,1,0,0:0:0:0:
204,144,78386,1,0,0:0:0:0:
400,24,78522,1,0,0:0:0:0:
392,224,78659,1,0,0:0:0:0:
204,36,78795,5,0,0:0:0:0:
64,240,78931,1,0,0:0:0:0:
332,244,79068,1,0,0:0:0:0:
204,40,79204,1,0,0:0:0:0:
64,248,79340,1,0,0:0:0:0:
332,252,79477,1,0,0:0:0:0:
204,44,79613,1,0,0:0:0:0:
64,256,79750,5,0,0:0:0:0:
88,296,79818,1,0,0:0:0:0:
132,320,79886,2,0,P|188:320|232:292,1,97.9999970092774
360,152,80159,1,0,0:0:0:0:
104,156,80295,1,0,0:0:0:0:
368,152,80431,1,0,0:0:0:0:
112,156,80568,1,0,0:0:0:0:
372,152,80704,1,0,0:0:0:0:
116,156,80840,1,0,0:0:0:0:
376,152,80977,6,0,P|424:136|372:72,1,146.999995513916,0|0,0:0|2:0,0:0:0:0:
316,56,81250,2,0,P|256:80|244:116,1,97.9999970092774
328,252,81522,2,0,P|292:288|244:284,1,97.9999970092774
152,84,81795,2,0,P|84:156|96:200,1,146.999995513916,0|0,0:0|2:0,0:0:0:0:
120,260,82068,2,0,P|160:312|284:332,1,195.999994018555
400,88,82613,2,0,L|336:84,1,48.9999985046387,0|0,0:0|2:0,0:0:0:0:
252,92,82750,2,0,L|320:168,1,97.9999970092774
428,316,83022,1,0,0:0:0:0:
212,280,83159,2,0,L|76:108,1,195.999994018555
344,40,83568,5,0,0:0:0:0:
452,192,83704,1,0,0:0:0:0:
252,156,83840,1,0,0:0:0:0:
396,324,83977,2,0,L|260:336,1,97.9999970092774
52,336,84250,5,0,0:0:0:0:
36,240,84386,1,0,0:0:0:0:
56,144,84522,1,0,0:0:0:0:
124,72,84659,1,0,0:0:0:0:
216,44,84795,1,0,0:0:0:0:
312,64,84931,1,0,0:0:0:0:
384,128,85068,1,0,0:0:0:0:
412,220,85204,1,0,0:0:0:0:
404,316,85340,1,0,0:0:0:0:
72,168,85613,6,0,P|112:218|150:219,1,97.9999970092774
228,88,85885,2,0,P|272:120|260:168,1,97.9999970092774
147,316,86158,2,0,P|228:344|288:320,1,146.999995513916,0|0,0:0|2:0,0:0:0:0:
332,296,86431,2,0,B|376:252|376:252|280:236|280:236|236:276,1,195.999994018555
104,144,86977,2,0,L|148:108,1,48.9999985046387,0|0,0:0|2:0,0:0:0:0:
192,64,87114,2,0,L|292:100,1,97.9999970092774
440,244,87386,1,0,0:0:0:0:
248,332,87523,2,0,L|52:248,1,195.999994018555
80,100,87931,5,0,0:0:0:0:
216,172,88068,1,0,0:0:0:0:
300,48,88204,1,0,0:0:0:0:
444,72,88340,2,0,L|392:176,1,97.9999970092774
324,256,88613,5,0,0:0:0:0:
180,320,88750,1,0,0:0:0:0:
208,176,88886,1,0,0:0:0:0:
96,292,89022,1,0,0:0:0:0:
240,256,89159,1,0,0:0:0:0:
300,132,89295,1,0,0:0:0:0:
168,240,89431,1,0,0:0:0:0:
368,184,89568,1,0,0:0:0:0:
148,164,89704,5,0,0:0:0:0:
424,44,90250,1,0,0:0:0:0:
192,340,90795,1,0,0:0:0:0:
160,32,91340,1,0,0:0:0:0:
468,308,91886,1,0,0:0:0:0:
32,84,92431,1,0,0:0:0:0:
468,132,92977,1,0,0:0:0:0:
28,320,93522,1,0,0:0:0:0:
288,24,94068,1,0,0:0:0:0:
372,356,94613,1,0,0:0:0:0:
20,84,95159,1,0,0:0:0:0:
484,176,95704,1,0,0:0:0:0:
32,304,96250,5,0,0:0:0:0:
300,220,96522,1,0,0:0:0:0:
40,108,96795,1,0,0:0:0:0:
288,36,97068,1,0,0:0:0:0:
152,296,97340,1,0,0:0:0:0:
372,128,97613,1,0,0:0:0:0:
72,144,97886,1,0,0:0:0:0:
376,280,98159,1,0,0:0:0:0:
184,48,98431,5,0,0:0:0:0:
332,176,98568,1,0,0:0:0:0:
144,264,98704,1,0,0:0:0:0:
280,88,98840,1,0,0:0:0:0:
80,188,98977,1,0,0:0:0:0:
332,256,99113,1,0,0:0:0:0:
144,348,99250,1,0,0:0:0:0:
160,116,99386,1,0,0:0:0:0:
392,172,99522,1,0,0:0:0:0:
232,328,99659,1,0,0:0:0:0:
236,88,99795,1,0,0:0:0:0:
88,300,99931,1,0,0:0:0:0:
328,200,100068,1,0,0:0:0:0:
64,192,100204,1,0,0:0:0:0:
204,24,100340,1,0,0:0:0:0:
192,236,100477,1,0,0:0:0:0:
340,92,100613,5,0,0:0:0:0:
376,128,100681,1,0,0:0:0:0:
404,168,100750,1,0,0:0:0:0:
412,216,100818,1,0,0:0:0:0:
400,264,100886,1,0,0:0:0:0:
376,304,100954,1,0,0:0:0:0:
332,328,101022,1,0,0:0:0:0:
284,336,101090,1,0,0:0:0:0:
236,324,101159,1,0,0:0:0:0:
196,296,101227,1,0,0:0:0:0:
180,248,101295,1,0,0:0:0:0:
184,200,101363,1,0,0:0:0:0:
188,152,101431,1,0,0:0:0:0:
184,104,101500,1,0,0:0:0:0:
164,60,101568,1,0,0:0:0:0:
116,44,101636,1,0,0:0:0:0:
68,60,101704,1,0,0:0:0:0:
40,100,101772,1,0,0:0:0:0:
32,148,101840,1,0,0:0:0:0:
48,196,101909,1,0,0:0:0:0:
88,224,101977,1,0,0:0:0:0:
136,228,102045,1,0,0:0:0:0:
184,200,102113,1,0,0:0:0:0:
224,168,102181,1,0,0:0:0:0:
268,144,102250,6,0,P|340:148|384:216,1,146.999995513916,0|0,0:0|2:0,0:0:0:0:
400,252,102522,2,0,B|416:312|416:312|308:336,1,146.999995513916,0|0,0:0|2:0,0:0:0:0:
264,308,102795,2,0,L|176:224,1,97.9999970092774
48,96,103068,1,0,0:0:0:0:
284,112,103204,1,0,0:0:0:0:
444,256,103340,2,0,L|332:264,1,97.9999970092774
180,40,103613,2,0,L|304:40,1,97.9999970092774
496,48,103886,1,0,0:0:0:0:
240,160,104022,1,0,0:0:0:0:
496,168,104159,1,0,0:0:0:0:
236,244,104295,1,0,0:0:0:0:
492,292,104431,2,0,B|465:267|465:267|456:259|456:259|442:268|442:268|464:245|464:245|433:260|433:260|455:236|455:236|424:252|424:252|446:228|446:228|429:234|429:234|420:226,1,251.999992309571,0|0,1:1|1:1,1:1:0:0:
280,64,104840,5,0,0:0:0:0:
60,156,104977,2,0,P|72:224|104:240,1,97.9999970092774
296,312,105250,1,0,0:0:0:0:
188,140,105386,1,0,0:0:0:0:
380,280,105522,2,0,P|352:220|360:176,1,97.9999970092774
472,32,105795,2,0,P|392:56|336:48,1,97.9999970092774
104,60,106068,5,0,0:0:0:0:
312,104,106204,1,0,0:0:0:0:
56,176,106340,1,0,0:0:0:0:
232,68,106477,1,0,0:0:0:0:
64,276,106613,2,0,L|300:164,1,251.999992309571
464,76,107022,1,0,0:0:0:0:
396,264,107159,6,0,L|280:328,1,125.999996154785
392,116,107431,1,0,0:0:0:0:
232,264,107568,1,0,0:0:0:0:
288,64,107704,1,0,0:0:0:0:
60,108,107840,1,0,0:0:0:0:
264,176,107977,1,0,0:0:0:0:
60,252,108113,1,0,0:0:0:0:
272,344,108250,6,0,L|332:208,1,125.999996154785
400,32,108522,1,0,0:0:0:0:
120,96,108659,1,0,0:0:0:0:
368,160,108795,1,0,0:0:0:0:
112,208,108931,1,0,0:0:0:0:
280,52,109068,1,0,0:0:0:0:
196,280,109204,1,0,0:0:0:0:
192,48,109340,6,0,P|232:124|280:148,1,125.999996154785
484,208,109613,1,0,0:0:0:0:
312,348,109750,1,0,0:0:0:0:
112,204,109886,2,0,P|192:204|240:152,1,125.999996154785
336,32,110159,1,0,0:0:0:0:
396,232,110295,1,0,0:0:0:0:
192,336,110431,2,0,L|132:220,1,125.999996154785
56,48,110704,1,0,0:0:0:0:
288,144,110840,1,0,0:0:0:0:
64,264,110977,2,0,L|212:280,1,125.999996154785
468,280,111250,2,0,L|368:184,1,125.999996154785
228,28,111522,6,0,P|180:72|188:112,1,97.9999970092774
204,328,111795,2,0,P|174:348|147:340,1,48.9999985046387,0|0,0:0|2:0,0:0:0:0:
100,319,111931,2,0,P|86:285|101:254,1,48.9999985046387,0|0,0:0|2:0,0:0:0:0:
156,280,112068,2,0,P|177:218|216:189,1,97.9999970092774
412,40,112340,6,0,L|436:136,1,97.9999970092774
476,316,112613,1,0,0:0:0:0:
304,148,112750,1,0,0:0:0:0:
460,300,112886,1,0,0:0:0:0:
288,132,113022,1,0,0:0:0:0:
444,288,113159,2,0,B|417:263|417:263|408:255|408:255|394:264|394:264|416:241|416:241|385:256|385:256|407:232|407:232|376:248|376:248|398:224|398:224|381:230|381:230|372:222,1,251.999992309571,0|0,1:1|1:1,1:1:0:0:
240,76,113568,5,0,0:0:0:0:
144,40,113704,2,0,B|120:100|80:84|80:84|74:117|72:184,1,146.999995513916,0|0,0:0|2:0,0:0:0:0:
48,204,113977,2,0,P|52:228|68:248,1,48.9999985046387,0|0,0:0|2:0,0:0:0:0:
120,200,114113,2,0,P|144:172|172:156,1,48.9999985046387,0|0,0:0|2:0,0:0:0:0:
220,148,114250,2,0,B|264:156|280:156|304:264,1,146.999995513916
316,320,114522,2,0,P|392:348|424:264,1,146.999995513916,0|0,0:0|2:0,0:0:0:0:
448,244,114795,5,0,0:0:0:0:
296,48,114931,1,0,0:0:0:0:
192,248,115068,1,0,0:0:0:0:
440,244,115204,1,0,0:0:0:0:
184,248,115340,2,0,L|32:28,1,251.999992309571
212,168,115750,1,0,0:0:0:0:
132,28,115886,6,0,P|188:44|256:68,1,125.999996154785
440,120,116159,1,0,0:0:0:0:
148,108,116295,1,0,0:0:0:0:
440,196,116431,1,0,0:0:0:0:
148,116,116568,1,0,0:0:0:0:
400,260,116704,1,0,0:0:0:0:
148,124,116840,1,0,0:0:0:0:
344,312,116977,6,0,P|288:336|220:320,1,125.999996154785
32,180,117250,1,0,0:0:0:0:
304,224,117386,1,0,0:0:0:0:
52,88,117522,1,0,0:0:0:0:
248,276,117659,1,0,0:0:0:0:
132,40,117795,1,0,0:0:0:0:
184,316,117931,1,0,0:0:0:0:
216,40,118068,6,0,L|312:148,1,125.999996154785
480,324,118340,1,0,0:0:0:0:
248,216,118477,1,0,0:0:0:0:
480,100,118613,2,0,P|396:64|340:68,1,125.999996154785
116,52,118886,1,0,0:0:0:0:
336,152,119022,1,0,0:0:0:0:
72,188,119159,2,0,P|120:192|208:220,1,125.999996154785
448,304,119431,1,0,0:0:0:0:
136,304,119568,1,0,0:0:0:0:
400,240,119704,2,0,P|340:204|260:188,1,125.999996154785
56,124,119977,2,0,P|128:92|208:100,1,125.999996154785
432,104,120250,6,0,B|408:144|372:100|372:100|360:184,1,146.999995513916,0|0,0:0|2:0,0:0:0:0:
356,228,120522,2,0,L|344:284,1,48.9999985046387,0|0,0:0|2:0,0:0:0:0:
288,252,120659,2,0,P|264:268|236:264,1,48.9999985046387,0|0,0:0|2:0,0:0:0:0:
236,216,120795,2,0,B|188:220|188:220|168:176|208:108,1,146.999995513916,0|0,0:0|2:0,0:0:0:0:
216,72,121068,2,0,P|256:40|312:68,1,97.9999970092774
480,172,121340,5,0,0:0:0:0:
200,168,121477,1,0,0:0:0:0:
436,320,121613,1,0,0:0:0:0:
336,72,121750,1,0,0:0:0:0:
240,316,121886,2,0,B|260:285|260:285|267:275|267:275|256:263|256:263|282:281|282:281|263:253|263:253|290:271|290:271|270:243|270:243|296:261|296:261|288:245|288:245|295:235,1,251.999992309571,0|0,0:3|0:3,0:3:0:0:
400,80,122295,6,0,L|344:116,1,48.9999985046387,0|0,0:0|2:0,0:0:0:0:
304,132,122431,2,0,P|228:144|204:128,1,97.9999970092774
68,32,122704,1,0,0:0:0:0:
248,64,122840,1,0,0:0:0:0:
68,128,122977,2,0,P|92:180|132:196,1,97.9999970092774
296,212,123250,2,0,P|360:236|384:280,1,97.9999970092774
444,348,123522,5,0,0:0:0:0:
248,300,123659,1,0,0:0:0:0:
480,172,123795,1,0,0:0:0:0:
224,88,123931,1,0,0:0:0:0:
492,32,124068,2,0,L|260:176,1,251.999992309571
80,272,124477,1,0,0:0:0:0:
180,340,124613,6,0,P|208:288|192:216,1,125.999996154785
120,40,124886,1,0,0:0:0:0:
136,272,125022,1,0,0:0:0:0:
224,32,125159,1,0,0:0:0:0:
248,304,125295,1,0,0:0:0:0:
320,48,125431,1,0,0:0:0:0:
184,316,125568,1,0,0:0:0:0:
144,40,125704,6,0,P|160:104|204:160,1,125.999996154785
376,312,125977,1,0,0:0:0:0:
400,68,126113,1,0,0:0:0:0:
296,328,126250,1,0,0:0:0:0:
324,72,126386,1,0,0:0:0:0:
216,340,126522,1,0,0:0:0:0:
252,76,126659,1,0,0:0:0:0:
136,344,126795,6,0,P|148:300|228:232,1,125.999996154785
392,120,127068,1,0,0:0:0:0:
292,332,127204,1,0,0:0:0:0:
472,140,127340,2,0,P|420:200|352:192,1,125.999996154785
136,180,127613,1,0,0:0:0:0:
336,28,127750,1,0,0:0:0:0:
88,88,127886,2,0,L|224:128,1,125.999996154785
448,168,128159,1,0,0:0:0:0:
208,36,128295,1,0,0:0:0:0:
468,96,128431,2,0,P|392:104|328:164,1,125.999996154785
232,260,128704,2,0,P|284:260|356:204,1,125.999996154785
416,36,128977,6,0,P|308:40|240:68,1,146.999995513916,0|0,0:0|2:0,0:0:0:0:
224,80,129250,2,0,L|184:124,1,48.9999985046387,0|0,0:0|2:0,0:0:0:0:
240,148,129386,2,0,L|272:112,1,48.9999985046387,0|0,0:0|2:0,0:0:0:0:
328,136,129522,2,0,L|252:216,1,97.9999970092774
328,308,129795,2,0,L|404:228,1,97.9999970092774
484,100,130068,6,0,P|428:124|364:128,1,97.9999970092774
180,40,130340,2,0,L|196:148,1,97.9999970092774
240,316,130613,2,0,B|260:285|260:285|267:275|267:275|256:263|256:263|282:281|282:281|263:253|263:253|290:271|290:271|270:243|270:243|296:261|296:261|288:245|288:245|295:235,1,251.999992309571,0|0,0:3|0:3,0:3:0:0:
400,48,131022,1,0,0:0:0:0:
324,180,131159,2,0,L|376:92,1,97.9999970092774
256,300,131431,1,0,0:0:0:0:
360,120,131568,1,0,0:0:0:0:
224,352,131704,2,0,L|288:244,1,97.9999970092774
373,95,131977,2,0,L|305:211,1,97.9999970092774
248,312,132250,5,0,0:0:0:0:
248,56,132386,1,0,0:0:0:0:
160,296,132522,1,0,0:0:0:0:
324,88,132659,1,0,0:0:0:0:
108,232,132795,2,0,P|204:176|356:168,1,251.999992309571
480,168,133204,1,0,0:0:0:0:
276,308,133340,6,0,P|216:288|180:216,1,125.999996154785
100,44,133613,1,0,0:0:0:0:
276,220,133750,1,0,0:0:0:0:
40,112,133886,1,0,0:0:0:0:
344,160,134022,1,0,0:0:0:0:
48,200,134159,1,0,0:0:0:0:
332,76,134295,1,0,0:0:0:0:
96,272,134431,6,0,P|136:216|216:184,1,125.999996154785
464,180,134704,1,0,0:0:0:0:
168,112,134840,1,0,0:0:0:0:
464,104,134977,1,0,0:0:0:0:
132,184,135113,1,0,0:0:0:0:
468,256,135250,1,0,0:0:0:0:
164,256,135386,1,0,0:0:0:0:
464,180,135522,6,0,L|308:180,1,125.999996154785
40,184,135795,1,0,0:0:0:0:
268,184,135931,1,0,0:0:0:0:
48,184,136068,2,0,L|212:184,1,125.999996154785
468,180,136340,1,0,0:0:0:0:
228,56,136477,1,0,0:0:0:0:
412,240,136613,2,0,P|336:288|280:288,1,125.999996154785
56,276,136886,1,0,0:0:0:0:
300,156,137022,1,0,0:0:0:0:
52,64,137159,2,0,P|116:44|192:48,1,125.999996154785
412,96,137431,2,0,P|368:136|280:152,1,125.999996154785
48,148,137704,1,0,0:0:0:0:
256,192,137772,12,0,142068,0:0:0:0:
216,112,146431,5,0,0:0:0:0:
392,208,146704,2,0,B|380:272|348:300|348:300|328:244|248:248,1,195.999994018555
108,68,147522,5,0,0:0:0:0:
56,264,147795,1,0,0:0:0:0:
284,316,148068,1,0,0:0:0:0:
324,40,148613,6,0,B|340:116|432:120|432:120|396:176,1,195.999994018555
288,336,149159,1,0,0:0:0:0:
148,96,149568,5,0,0:0:0:0:
208,136,149704,2,0,L|304:196,2,97.9999970092774
68,44,150250,1,0,0:0:0:0:
364,68,150795,5,0,0:0:0:0:
164,264,151068,1,0,0:0:0:0:
476,224,151340,1,0,0:0:0:0:
144,104,151750,5,0,0:0:0:0:
208,136,151886,2,0,B|248:156|268:132|268:132|324:188,2,97.9999970092774
28,32,152431,1,0,0:0:0:0:
320,72,152977,6,0,B|344:136|396:148|396:148|380:200|312:212,1,195.999994018555
132,272,153522,1,0,0:0:0:0:
384,36,154068,5,0,0:0:0:0:
428,124,154204,1,0,0:0:0:0:
420,220,154340,1,0,0:0:0:0:
356,296,154477,1,0,0:0:0:0:
332,200,154613,5,0,0:0:0:0:
248,252,154750,1,0,0:0:0:0:
152,252,154886,1,0,0:0:0:0:
76,188,155022,1,0,0:0:0:0:
168,156,155159,5,0,0:0:0:0:
452,48,155704,1,0,0:0:0:0:
280,328,156250,1,0,0:0:0:0:
80,48,156795,1,0,0:0:0:0:
432,156,157340,1,0,0:0:0:0:
144,320,157886,1,0,0:0:0:0:
268,32,158431,1,0,0:0:0:0:
420,328,158977,1,0,0:0:0:0:
60,236,159522,1,0,0:0:0:0:
396,84,160068,1,0,0:0:0:0:
228,336,160613,1,0,0:0:0:0:
88,56,161159,1,0,0:0:0:0:
404,244,161704,1,0,0:0:0:0:
88,304,162250,1,0,0:0:0:0:
292,60,162795,1,0,0:0:0:0:
440,336,163340,1,0,0:0:0:0:
76,200,163886,6,0,L|132:288,1,97.9999970092774
176,196,164159,2,0,L|232:284,1,97.9999970092774
276,192,164431,2,0,L|332:280,1,97.9999970092774
376,188,164704,2,0,L|432:276,1,97.9999970092774
440,132,164977,6,0,L|372:36,1,97.9999970092774
340,140,165250,2,0,L|272:44,1,97.9999970092774
236,144,165523,2,0,L|168:48,1,97.9999970092774
136,152,165795,2,0,L|68:56,1,97.9999970092774
48,164,166068,5,0,0:0:0:0:
48,260,166204,1,0,0:0:0:0:
128,204,166340,1,0,0:0:0:0:
136,304,166477,1,0,0:0:0:0:
208,240,166613,1,0,0:0:0:0:
224,336,166750,1,0,0:0:0:0:
292,264,166886,1,0,0:0:0:0:
320,356,167022,1,0,0:0:0:0:
384,280,167159,5,0,0:0:0:0:
352,188,167295,1,0,0:0:0:0:
308,100,167431,1,0,0:0:0:0:
256,184,167568,1,0,0:0:0:0:
216,96,167704,1,0,0:0:0:0:
164,176,167840,1,0,0:0:0:0:
132,84,167977,1,0,0:0:0:0:
76,164,168113,1,0,0:0:0:0:
40,72,168250,5,0,0:0:0:0:
256,32,168386,1,0,0:0:0:0:
124,224,168522,1,0,0:0:0:0:
180,36,168659,1,0,0:0:0:0:
308,248,168795,1,0,0:0:0:0:
116,80,168931,1,0,0:0:0:0:
408,144,169068,1,0,0:0:0:0:
92,156,169204,1,0,0:0:0:0:
384,68,169340,5,0,0:0:0:0:
208,200,169477,1,0,0:0:0:0:
424,296,169613,1,0,0:0:0:0:
276,64,169750,1,0,0:0:0:0:
232,304,169886,1,0,0:0:0:0:
452,160,170022,1,0,0:0:0:0:
208,96,170159,1,0,0:0:0:0:
312,260,170295,1,0,0:0:0:0:
448,44,170431,5,0,0:0:0:0:
399,44,170499,1,0,0:0:0:0:
354,63,170567,1,0,0:0:0:0:
328,103,170635,1,0,0:0:0:0:
329,152,170703,1,0,0:0:0:0:
341,200,170771,1,0,0:0:0:0:
349,248,170840,1,0,0:0:0:0:
337,295,170908,1,0,0:0:0:0:
300,325,170976,1,0,0:0:0:0:
253,336,171044,1,0,0:0:0:0:
205,328,171112,1,0,0:0:0:0:
164,300,171181,1,0,0:0:0:0:
148,253,171249,1,0,0:0:0:0:
150,205,171317,1,0,0:0:0:0:
170,160,171385,1,0,0:0:0:0:
205,126,171453,1,0,0:0:0:0:
250,107,171521,1,0,0:0:0:0:
298,106,171590,1,0,0:0:0:0:
344,123,171658,1,0,0:0:0:0:
380,155,171726,1,0,0:0:0:0:
402,199,171794,1,0,0:0:0:0:
408,252,171863,1,0,0:0:0:0:
392,300,171931,1,0,0:0:0:0:
356,336,172000,1,0,0:0:0:0:
308,352,172068,6,0,P|236:347|192:279,1,146.999995513916,0|0,0:0|2:0,0:0:0:0:
176,243,172340,2,0,B|159:183|159:183|267:159,1,146.999995513916,0|0,0:0|2:0,0:0:0:0:
300,212,172613,2,0,L|372:113,1,97.9999970092774
444,28,172886,1,0,0:0:0:0:
392,224,173022,1,0,0:0:0:0:
216,32,173159,2,0,L|152:136,1,97.9999970092774
36,280,173431,2,0,L|144:236,1,97.9999970092774
352,152,173704,5,0,0:0:0:0:
152,336,173840,1,0,0:0:0:0:
232,76,173977,1,0,0:0:0:0:
304,336,174113,1,0,0:0:0:0:
124,152,174250,2,0,B|159:160|159:160|171:163|171:163|179:148|179:148|171:179|171:179|191:151|191:151|183:183|183:183|202:154|202:154|195:185|195:185|207:172|207:172|218:174,1,251.999992309571,0|0,1:1|1:1,1:1:0:0:
472,220,174659,5,0,0:0:0:0:
212,88,174795,2,0,B|268:120|312:108|312:108|336:168,1,146.999995513916,0|0,0:0|2:0,0:0:0:0:
300,188,175068,2,0,L|296:244,1,48.9999985046387,0|0,0:0|2:0,0:0:0:0:
344,236,175204,2,0,L|384:184,1,48.9999985046387,0|0,0:0|2:0,0:0:0:0:
404,156,175340,2,0,L|352:60,1,97.9999970092774
192,32,175613,2,0,L|244:136,1,97.9999970092774
332,328,175886,5,0,0:0:0:0:
112,100,176022,1,0,0:0:0:0:
236,340,176159,1,0,0:0:0:0:
28,120,176295,1,0,0:0:0:0:
128,344,176431,2,0,L|320:144,1,251.999992309571
440,32,176840,5,0,0:0:0:0:
328,320,176977,2,0,P|392:272|392:216,1,125.999996154785
352,28,177250,1,0,0:0:0:0:
292,248,177386,1,0,0:0:0:0:
268,28,177522,1,0,0:0:0:0:
240,304,177659,1,0,0:0:0:0:
184,28,177795,1,0,0:0:0:0:
168,320,177931,1,0,0:0:0:0:
112,64,178068,6,0,P|120:112|180:180,1,125.999996154785
360,316,178340,1,0,0:0:0:0:
216,96,178477,1,0,0:0:0:0:
468,204,178613,1,0,0:0:0:0:
144,244,178750,1,0,0:0:0:0:
424,92,178886,1,0,0:0:0:0:
212,348,179022,1,0,0:0:0:0:
320,44,179159,6,0,L|320:172,1,125.999996154785
316,348,179431,1,0,0:0:0:0:
228,96,179568,1,0,0:0:0:0:
100,348,179704,2,0,L|100:208,1,125.999996154785
100,32,179977,1,0,0:0:0:0:
220,288,180113,1,0,0:0:0:0:
320,40,180250,2,0,P|276:124|216:140,1,125.999996154785
28,200,180522,1,0,0:0:0:0:
332,180,180659,1,0,0:0:0:0:
60,308,180795,2,0,P|116:264|192:224,1,125.999996154785
428,224,181068,2,0,P|372:264|280:288,1,125.999996154785
88,276,181340,6,0,P|152:228|180:180,1,97.9999970092774
304,36,181613,2,0,L|328:96,1,48.9999985046387,0|0,0:0|2:0,0:0:0:0:
280,108,181750,2,0,L|336:176,1,48.9999985046387,0|0,0:0|2:0,0:0:0:0:
356,160,181886,2,0,P|356:236|312:272,1,97.9999970092774
232,336,182159,2,0,B|172:344|172:344|132:284,1,97.9999970092774
72,112,182431,5,0,0:0:0:0:
336,112,182568,1,0,0:0:0:0:
40,184,182704,1,0,0:0:0:0:
312,184,182840,1,0,0:0:0:0:
68,260,182977,2,0,B|103:268|103:268|115:271|115:271|123:256|123:256|115:287|115:287|135:259|135:259|127:291|127:291|146:262|146:262|139:293|139:293|151:280|151:280|162:282,1,251.999992309571,0|0,1:1|1:1,1:1:0:0:
400,308,183386,5,0,0:0:0:0:
164,184,183522,2,0,P|224:144|272:136,1,97.9999970092774
480,112,183795,1,0,0:0:0:0:
236,220,183931,1,0,0:0:0:0:
456,204,184068,2,0,P|392:208|348:236,1,97.9999970092774
216,336,184340,2,0,P|152:324|104:268,1,97.9999970092774
32,128,184613,5,0,0:0:0:0:
296,32,184750,1,0,0:0:0:0:
80,192,184886,1,0,0:0:0:0:
364,80,185022,1,0,0:0:0:0:
128,252,185159,2,0,P|264:240|356:164,1,251.999992309571
472,32,185568,5,0,0:0:0:0:
236,72,185704,2,0,P|172:100|140:156,1,125.999996154785
84,348,185977,1,0,0:0:0:0:
248,148,186113,1,0,0:0:0:0:
408,344,186250,1,0,0:0:0:0:
112,232,186386,1,0,0:0:0:0:
392,232,186522,1,0,0:0:0:0:
252,40,186659,1,0,0:0:0:0:
256,320,186795,6,0,L|256:188,1,125.999996154785
256,32,187068,1,0,0:0:0:0:
152,276,187204,1,0,0:0:0:0:
344,60,187340,1,0,0:0:0:0:
92,216,187477,1,0,0:0:0:0:
400,136,187613,1,0,0:0:0:0:
68,136,187750,1,0,0:0:0:0:
404,228,187886,6,0,L|272:284,1,125.999996154785
52,344,188159,1,0,0:0:0:0:
296,188,188295,1,0,0:0:0:0:
36,240,188431,2,0,L|188:144,1,125.999996154785
336,44,188704,1,0,0:0:0:0:
72,48,188840,1,0,0:0:0:0:
352,128,188977,2,0,L|232:224,1,125.999996154785
96,328,189250,1,0,0:0:0:0:
344,312,189386,1,0,0:0:0:0:
464,112,189522,2,0,P|416:168|360:192,1,125.999996154785
136,172,189795,2,0,P|204:124|280:108,1,125.999996154785
456,32,190068,6,0,L|312:48,1,125.999996154785
116,52,190340,2,0,L|68:104,1,62.9999980773926,0|0,0:0|2:0,0:0:0:0:
136,116,190477,2,0,L|132:204,1,62.9999980773926,0|0,0:0|2:0,0:0:0:0:
196,168,190613,2,0,P|244:252|280:264,1,125.999996154785
472,292,190886,2,0,P|424:216|376:192,1,125.999996154785
204,88,191159,5,0,0:0:0:0:
368,304,191295,1,0,0:0:0:0:
76,264,191431,1,0,0:0:0:0:
332,108,191568,1,0,0:0:0:0:
216,336,191704,2,0,B|232:302|232:302|237:291|237:291|224:281|224:281|252:295|252:295|229:270|229:270|258:284|258:284|234:259|234:259|263:273|263:273|253:258|253:258|258:247,1,251.999992309571,0|0,1:1|1:1,1:1:0:0:
348,40,192113,5,0,0:0:0:0:
128,188,192250,2,0,P|184:140|240:132,1,125.999996154785
468,132,192522,1,0,0:0:0:0:
200,228,192659,1,0,0:0:0:0:
388,88,192795,2,0,P|384:168|352:212,1,125.999996154785
152,332,193068,2,0,P|152:264|184:212,1,125.999996154785
312,36,193340,5,0,0:0:0:0:
88,168,193477,1,0,0:0:0:0:
320,248,193613,1,0,0:0:0:0:
232,40,193750,1,0,0:0:0:0:
36,232,193886,2,0,B|108:260|112:308|112:308|244:224,1,251.999992309571
428,128,194295,1,0,0:0:0:0:
152,196,194431,6,0,P|196:144|256:112,1,125.999996154785
472,32,194704,1,0,0:0:0:0:
280,192,194840,1,0,0:0:0:0:
472,192,194977,1,0,0:0:0:0:
212,336,195113,1,0,0:0:0:0:
472,344,195250,1,0,0:0:0:0:
376,120,195386,1,0,0:0:0:0:
212,260,195522,6,0,P|124:240|104:164,1,125.999996154785
40,40,195795,1,0,0:0:0:0:
184,176,195931,1,0,0:0:0:0:
276,24,196068,1,0,0:0:0:0:
280,248,196204,1,0,0:0:0:0:
468,60,196340,1,0,0:0:0:0:
216,92,196477,1,0,0:0:0:0:
476,204,196613,6,0,P|428:272|380:284,1,125.999996154785
152,292,196886,1,0,0:0:0:0:
368,156,197022,1,0,0:0:0:0:
96,184,197159,2,0,P|132:124|192:100,1,125.999996154785
436,72,197431,1,0,0:0:0:0:
160,32,197568,1,0,0:0:0:0:
400,144,197704,2,0,P|356:208|288:216,1,125.999996154785
64,232,197977,1,0,0:0:0:0:
304,136,198113,1,0,0:0:0:0:
104,300,198250,2,0,B|145:322|176:264|248:328,1,125.999996154785
433,230,198522,2,0,B|391:207|361:266|289:202,1,125.999996154785
140,64,198795,6,0,B|208:24|208:24|260:36,1,125.999996154785
488,128,199068,1,0,0:0:0:0:
296,304,199204,1,0,0:0:0:0:
344,40,199340,2,0,P|304:104|240:128,1,125.999996154785
48,132,199613,2,0,P|92:192|160:220,1,125.999996154785
388,292,199886,1,0,0:0:0:0:
144,124,200022,1,0,0:0:0:0:
396,36,200159,1,0,0:0:0:0:
224,252,200295,1,0,0:0:0:0:
356,92,200431,2,0,B|333:121|333:121|326:131|326:131|337:144|337:144|312:124|312:124|330:154|330:154|304:134|304:134|323:163|323:163|297:144|297:144|304:160|304:160|297:170,1,251.999992309571,0|0,1:1|1:1,1:1:0:0:
168,312,200840,5,0,0:0:0:0:
244,76,200977,2,0,P|216:140|176:184,1,125.999996154785
32,332,201250,1,0,0:0:0:0:
248,200,201386,1,0,0:0:0:0:
464,340,201522,2,0,B|456:288|380:284|384:208,1,125.999996154785
380,40,201795,2,0,B|331:60|345:135|271:149,1,125.999996154785
80,228,202068,5,0,0:0:0:0:
228,36,202204,1,0,0:0:0:0:
360,232,202340,1,0,0:0:0:0:
92,328,202477,1,0,0:0:0:0:
48,96,202613,2,0,B|100:152|144:68|144:68|236:168,1,251.999992309571
384,316,203022,1,0,0:0:0:0:
352,88,203159,6,0,B|292:56|292:56|233:96,1,125.999996154785
56,224,203431,1,0,0:0:0:0:
396,224,203568,1,0,0:0:0:0:
56,224,203704,1,0,0:0:0:0:
396,224,203840,1,0,0:0:0:0:
56,224,203977,1,0,0:0:0:0:
396,224,204113,1,0,0:0:0:0:
56,224,204250,6,0,P|84:180|160:160,1,125.999996154785
484,156,204522,1,0,0:0:0:0:
152,160,204659,1,0,0:0:0:0:
484,156,204795,1,0,0:0:0:0:
152,160,204931,1,0,0:0:0:0:
484,156,205068,1,0,0:0:0:0:
152,160,205204,1,0,0:0:0:0:
472,156,205340,6,0,B|392:184|392:184|328:240,1,125.999996154785
224,328,205613,1,0,0:0:0:0:
224,60,205750,1,0,0:0:0:0:
292,328,205886,1,0,0:0:0:0:
156,64,206022,1,0,0:0:0:0:
292,328,206159,1,0,0:0:0:0:
156,64,206295,1,0,0:0:0:0:
156,328,206431,1,0,0:0:0:0:
292,64,206568,1,0,0:0:0:0:
156,328,206704,1,0,0:0:0:0:
292,64,206840,1,0,0:0:0:0:
256,344,206977,6,0,B|216:284|276:236|256:184,1,125.999996154785
256,40,207250,2,0,B|296:100|236:148|256:200,1,125.999996154785
252,196,207522,1,0,0:0:0:0:
