osu file format v14

[General]
AudioFilename: audio.mp3
AudioLeadIn: 0
PreviewTime: 43473
Countdown: 0
SampleSet: Soft
StackLeniency: 0.7
Mode: 0
LetterboxInBreaks: 0
WidescreenStoryboard: 0

[Editor]
Bookmarks: 1405,12439,34508,40025,43473,45542,53818,56577,64853,67611,78646,84163,95198,117267,122784,125542,126405,126577,126706,126922,127223,127396,127568,127784,128301,139335,150369,161403,162783
DistanceSpacing: 1.3
BeatDivisor: 4
GridSize: 16
TimelineZoom: 1.7

[Metadata]
Title:Gunslinga
TitleUnicode:Gunslinga
Artist:Pegboard Nerds feat. MC Mota
ArtistUnicode:Pegboard Nerds feat. MC Mota
Creator:SIDLESS
Version:And pull ya gun finga trigga
Source:
Tags:Pegboard Nerds feat MC Mota Gunslinga Drumstep 6 years Monstercat Release
BeatmapID:1958062
BeatmapSetID:937362

[Difficulty]
HPDrainRate:6
CircleSize:4
OverallDifficulty:8
ApproachRate:9
SliderMultiplier:3.59999990463257
SliderTickRate:1

[Events]
//Background and Video events
0,0,"bg.jpg",0,0
//Break Periods
2,78846,83563
2,85397,89080
2,89880,91839
//Storyboard Layer 0 (Background)
//Storyboard Layer 1 (Fail)
//Storyboard Layer 2 (Pass)
//Storyboard Layer 3 (Foreground)
//Storyboard Sound Samples

[TimingPoints]
1405,689.655172413793,4,1,0,100,1,0
1406,-200,4,1,0,100,0,0
12439,-133.333333333333,4,2,0,60,0,0
34508,-125,4,3,0,70,0,0
40025,-111.111111111111,4,3,0,80,0,0
42784,-100,4,3,0,90,0,0
43473,-200,4,3,0,95,0,0
45542,-500,4,1,0,100,0,1
46232,-66.6666666666667,4,1,0,100,0,1
51060,-333.333333333333,4,1,0,100,0,1
51749,-66.6666666666667,4,1,0,100,0,1
53818,-80,4,1,0,100,0,1
56577,-500,4,1,0,100,0,1
57267,-66.6666666666667,4,1,0,100,0,1
61404,-100,4,1,0,100,0,1
62094,-66.6666666666667,4,1,0,100,0,1
64853,-80,4,1,0,100,0,1
67611,-100,4,3,0,75,0,0
84163,-500,4,3,0,50,0,0
92439,-100,4,3,0,100,0,0
95198,-133.333333333333,4,2,0,75,0,0
106232,-333.333333333333,4,2,0,50,0,0
106577,-133.333333333333,4,2,0,75,0,0
117267,-125,4,3,0,70,0,0
122784,-111.111111111111,4,3,0,80,0,0
125542,-100,4,3,0,90,0,0
126404,-200,4,3,0,95,0,0
127956,-100,4,3,0,75,0,0
128301,344.827586206897,4,1,0,100,1,1
128301,-133.333333333333,4,1,0,100,0,1
136576,-166.666666666667,4,1,0,100,0,1
139335,689.655172413793,4,1,0,100,1,1
139335,-50,4,1,0,100,0,1
140024,-66.6666666666667,4,1,0,100,0,1
142093,-50,4,1,0,100,0,1
142783,-66.6666666666667,4,1,0,100,0,1
144162,-200,4,1,0,100,0,1
144852,-50,4,1,0,100,0,1
145541,-66.6666666666667,4,1,0,100,0,1
147610,-80,4,1,0,100,0,1
150369,-100,4,3,0,75,0,0
151748,-80,4,3,0,100,0,0
152438,-100,4,3,0,100,0,0
153128,-133.333333333333,4,3,0,100,0,0
155886,-100,4,3,0,100,0,0
157266,-80,4,3,0,100,0,0
157955,-57.1428571428571,4,3,0,100,0,0
158645,-66.6666666666667,4,3,0,100,0,0
160024,-80,4,3,0,100,0,0
160714,-133.333333333333,4,3,0,100,0,0
162783,-133.333333333333,4,3,0,75,0,0
162955,-133.333333333333,4,3,0,65,0,0
163128,-133.333333333333,4,3,0,55,0,0
163300,-133.333333333333,4,3,0,45,0,0
163472,-133.333333333333,4,3,0,35,0,0
163645,-133.333333333333,4,3,0,25,0,0
163817,-133.333333333333,4,3,0,15,0,0
163990,-133.333333333333,4,3,0,5,0,0

[Colours]
Combo1 : 55,70,100
Combo2 : 157,62,62
Combo3 : 130,119,115

[HitObjects]
166,193,1405,5,0,0:0:0:0:
382,151,4077,2,0,L|380:125,1,22.4999994039536
277,264,6922,1,0,0:0:0:0:
233,84,9680,5,0,0:0:0:0:
170,203,10025,2,0,L|172:157,1,44.9999988079071
298,160,10542,2,0,L|300:206,1,44.9999988079071
213,291,11060,2,0,L|266:290,4,44.9999988079071
370,178,12439,5,4,0:0:0:0:
298,203,12611,1,0,0:0:0:0:
277,131,12784,1,0,0:0:0:0:
348,102,12956,1,0,0:0:0:0:
286,47,13129,2,0,B|193:41|144:158|247:268,2,270.000003147125,8|0|8,0:0|0:0|0:0,0:0:0:0:
368,64,14680,1,0,0:0:0:0:
288,112,14853,1,0,0:0:0:0:
208,64,15025,1,0,0:0:0:0:
288,32,15198,5,4,0:0:0:0:
208,144,15370,1,0,0:0:0:0:
368,144,15542,1,0,0:0:0:0:
288,192,15715,1,0,0:0:0:0:
384,224,15887,2,0,P|288:304|192:224,2,270.000003147125,8|0|8,0:0|0:0|0:0,0:0:0:0:
384,144,17439,1,0,0:0:0:0:
384,96,17611,1,0,0:0:0:0:
384,48,17784,1,0,0:0:0:0:
176,48,17956,5,4,0:0:0:0:
176,112,18129,1,0,0:0:0:0:
176,176,18301,1,0,0:0:0:0:
176,240,18473,1,0,0:0:0:0:
91,281,18646,2,0,B|187:409|267:217|347:377,2,270.000003147125,8|0|8,0:0|0:0|0:0,0:0:0:0:
172,243,20198,1,0,0:0:0:0:
306,230,20370,1,0,0:0:0:0:
220,126,20542,1,0,0:0:0:0:
250,294,20715,5,4,0:0:0:0:
158,196,20887,1,0,0:0:0:0:
290,162,21060,1,0,0:0:0:0:
194,63,21232,1,0,0:0:0:0:
331,47,21404,2,0,B|412:94|436:161|436:161|439:208,1,202.500002360344,8|0,0:0|0:0,0:0:0:0:
343,240,22094,2,0,P|327:161|268:120,1,135.000001573563
112,248,22784,6,0,L|74:189,1,67.5000007867814,8|0,0:0|0:0,0:0:0:0:
157,133,23129,2,0,L|207:205,1,67.5000007867814
156,333,23473,2,0,B|183:275|242:291|267:237,1,135.000001573563,6|0,0:0|0:0,0:0:0:0:
308,161,23991,1,0,0:0:0:0:
399,48,24163,2,0,L|357:101,2,67.5000007867814,8|0|0,0:0|0:0|0:0,0:0:0:0:
432,145,24680,2,0,B|453:117|453:117|478:164|461:218,1,135.000001573563
352,263,25198,2,0,L|391:203,1,67.5000007867814
303,157,25542,5,8,0:0:0:0:
201,188,25715,1,0,0:0:0:0:
257,93,25887,1,0,0:0:0:0:
156,75,26060,1,0,0:0:0:0:
64,213,26232,6,0,P|113:271|180:292,1,135.000001573563,4|0,0:0|0:0,0:0:0:0:
338,182,26922,2,0,L|326:253,1,67.5000007867814,8|0,0:0|0:0,0:0:0:0:
400,316,27267,1,0,0:0:0:0:
400,316,27439,2,0,P|426:288|436:251,1,67.5000007867814
448,161,27784,2,0,L|440:228,1,67.5000007867814
414,39,28301,1,8,0:0:0:0:
208,86,28646,1,0,0:0:0:0:
120,318,28991,5,4,0:0:0:0:
216,290,29163,2,0,L|283:284,2,67.5000007867814
243,192,29680,2,0,P|227:152|237:107,1,67.5000007867814,8|0,0:0|0:0,0:0:0:0:
327,102,30025,2,0,P|343:140|335:193,1,67.5000007867814
428,237,30370,2,0,L|436:90,2,135.000001573563,0|0|8,0:0|0:0|0:0,0:0:0:0:
419,337,31232,1,0,0:0:0:0:
323,305,31404,1,0,0:0:0:0:
244,240,31577,1,0,0:0:0:0:
213,108,31749,6,0,B|112:131|0:81|116:-33|200:73|46:174,1,270.000003147125,4|8,0:0|0:0,0:0:0:0:
64,264,32611,1,0,0:0:0:0:
145,324,32784,1,0,0:0:0:0:
186,231,32956,1,0,0:0:0:0:
275,183,33129,2,0,P|208:142|156:138,1,101.250001180172
136,136,33473,2,0,L|127:67,1,67.5000007867814
26,82,33818,2,0,L|34:148,1,67.5000007867814,8|0,0:0|0:0,0:0:0:0:
457,61,34508,5,0,0:0:0:0:
416,273,34853,1,0,0:0:0:0:
277,107,35198,1,0,0:0:0:0:
132,266,35542,1,0,0:0:0:0:
54,64,35887,1,0,0:0:0:0:
203,220,36232,1,0,0:0:0:0:
413,169,36577,1,0,0:0:0:0:
227,57,36922,1,0,0:0:0:0:
256,142,37094,1,0,0:0:0:0:
283,228,37267,1,0,0:0:0:0:
482,147,37611,5,0,0:0:0:0:
334,304,37956,1,0,0:0:0:0:
408,101,38301,1,0,0:0:0:0:
256,254,38646,1,0,0:0:0:0:
219,40,38991,1,0,0:0:0:0:
114,228,39336,1,0,0:0:0:0:
29,29,39680,1,0,0:0:0:0:
411,148,40025,5,0,0:0:0:0:
320,66,40198,1,0,0:0:0:0:
344,184,40370,5,0,0:0:0:0:
239,120,40543,1,0,0:0:0:0:
286,231,40715,5,0,0:0:0:0:
171,188,40888,1,0,0:0:0:0:
237,289,41060,5,0,0:0:0:0:
117,267,41233,1,0,0:0:0:0:
87,149,41405,5,0,0:0:0:0:
37,260,41578,1,0,0:0:0:0:
142,202,41749,5,0,0:0:0:0:
113,320,41922,1,0,0:0:0:0:
206,242,42094,5,0,0:0:0:0:
206,363,42267,1,0,0:0:0:0:
278,265,42439,5,0,0:0:0:0:
308,382,42612,1,0,0:0:0:0:
405,55,42784,5,0,0:0:0:0:
400,99,42870,1,0,0:0:0:0:
394,143,42956,1,0,0:0:0:0:
380,185,43042,1,0,0:0:0:0:
357,224,43129,1,0,0:0:0:0:
326,257,43215,1,0,0:0:0:0:
289,283,43301,1,0,0:0:0:0:
249,303,43387,1,0,0:0:0:0:
205,313,43473,2,0,B|163:329|163:329|161:294|161:294|121:278|121:278|165:237|165:237|170:214|153:196|153:196|123:201|123:201|94:192|81:164|81:164|111:142|111:142|94:127|94:127|127:118|127:118|121:74,1,449.999988079071
366,78,45542,6,0,L|350:142,1,62.99999833107,4|0,0:0|0:0,0:0:0:0:
321,222,46232,1,8,0:0:0:0:
154,278,46405,1,0,0:0:0:0:
279,155,46577,1,0,0:0:0:0:
220,320,46749,1,0,0:0:0:0:
205,144,46922,1,4,0:0:0:0:
291,296,47094,1,0,0:0:0:0:
146,194,47267,1,0,0:0:0:0:
318,224,47439,1,0,0:0:0:0:
243,65,47611,1,8,0:0:0:0:
388,163,47784,1,0,0:0:0:0:
421,335,47956,2,0,L|264:307,1,135.000001573563
96,242,48301,5,4,0:0:0:0:
392,71,48646,5,0,0:0:0:0:
456,233,48818,1,0,0:0:0:0:
330,109,48991,1,8,0:0:0:0:
378,277,49163,1,0,0:0:0:0:
264,142,49336,1,0,0:0:0:0:
300,313,49508,1,0,0:0:0:0:
195,172,49680,1,4,0:0:0:0:
212,347,49853,1,0,0:0:0:0:
125,194,50025,1,0,0:0:0:0:
26,339,50198,1,0,0:0:0:0:
186,269,50370,1,8,0:0:0:0:
14,235,50542,1,0,0:0:0:0:
169,149,50715,2,0,P|240:144|278:245,1,135.000001573563
294,261,51060,6,0,P|329:244|353:194,1,94.499994612694,4|0,0:0|0:0,0:0:0:0:
368,130,51749,1,8,0:0:0:0:
230,72,51922,1,0,0:0:0:0:
334,195,52094,1,0,0:0:0:0:
165,143,52267,1,0,0:0:0:0:
307,266,52439,1,4,0:0:0:0:
108,226,52611,1,0,0:0:0:0:
292,340,52784,1,0,0:0:0:0:
63,324,52956,1,0,0:0:0:0:
191,116,53129,1,8,0:0:0:0:
376,292,53301,1,0,0:0:0:0:
466,38,53473,2,0,L|342:123,1,135.000001573563
122,253,53818,5,4,0:0:0:0:
392,134,54120,2,0,L|397:161,1,28.124999254942
72,67,54508,1,8,0:0:0:0:
237,312,54810,2,0,L|271:321,1,28.124999254942
467,55,55198,1,4,0:0:0:0:
384,337,55499,2,0,L|373:299,1,28.124999254942
38,315,55887,2,0,P|46:252|71:203,2,112.499997019768,8|0|0,0:0|0:0|0:0,0:0:0:0:
256,48,56577,6,0,L|256:112,1,62.99999833107,4|0,0:0|0:0,0:0:0:0:
175,147,57267,5,8,0:0:0:0:
336,149,57439,1,0,0:0:0:0:
177,222,57611,1,0,0:0:0:0:
353,222,57784,1,0,0:0:0:0:
193,294,57956,1,4,0:0:0:0:
369,295,58129,1,0,0:0:0:0:
208,365,58301,1,0,0:0:0:0:
383,369,58473,1,0,0:0:0:0:
266,236,58646,1,8,0:0:0:0:
266,60,58818,2,0,L|366:195,1,135.000001573563
458,304,59163,1,0,0:0:0:0:
384,48,59336,5,4,0:0:0:0:
87,52,59680,1,0,0:0:0:0:
19,214,59853,1,0,0:0:0:0:
145,92,60025,1,8,0:0:0:0:
91,259,60198,1,0,0:0:0:0:
211,132,60370,1,0,0:0:0:0:
172,302,60542,1,0,0:0:0:0:
280,163,60715,1,4,0:0:0:0:
258,336,60887,1,0,0:0:0:0:
351,187,61060,1,0,0:0:0:0:
350,362,61232,1,0,0:0:0:0:
392,278,61404,2,0,B|420:320|470:310|487:220|466:152|466:152|454:102|497:64|424:24,1,314.99999165535,8|0,0:0|0:0,0:0:0:0:
320,80,62094,6,0,B|304:64|304:64|288:96|288:96|272:64|272:64|256:96|256:96|240:64|240:64|224:96|224:96|208:64|208:64|192:96|194:93,1,270.000003147125,4|0,0:0|0:0,0:0:0:0:
400,304,62784,5,8,0:0:0:0:
368,288,62870,1,0,0:0:0:0:
336,272,62956,1,0,0:0:0:0:
304,256,63042,1,0,0:0:0:0:
272,240,63129,1,0,0:0:0:0:
241,222,63215,1,0,0:0:0:0:
208,208,63301,1,0,0:0:0:0:
176,192,63387,1,0,0:0:0:0:
160,160,63473,5,4,0:0:0:0:
192,144,63560,1,0,0:0:0:0:
224,128,63646,1,0,0:0:0:0:
256,112,63732,1,0,0:0:0:0:
288,96,63818,1,0,0:0:0:0:
320,80,63904,1,0,0:0:0:0:
352,64,63991,1,0,0:0:0:0:
384,48,64077,1,0,0:0:0:0:
448,128,64163,2,0,L|320:192,3,135.000001573563,8|0|0|0,0:0|0:0|0:0|0:0,0:0:0:0:
174,261,64853,6,0,P|86:176|88:72,1,224.999994039536,4|0,0:0|0:0,0:0:0:0:
158,41,65542,2,0,P|246:126|244:230,1,224.999994039536,8|0,0:0|0:0,0:0:0:0:
443,51,66232,2,0,L|374:270,1,224.999994039536,4|0,0:0|0:0,0:0:0:0:
307,51,66922,2,0,L|376:270,1,224.999994039536,8|0,0:0|0:0,0:0:0:0:
374,265,67611,6,0,B|334:350|264:353|229:336|256:267|213:229|144:254|132:341|42:242,1,359.999990463257,4|8,0:0|0:0,0:0:0:0:
112,90,68646,2,0,P|203:59|246:70,1,134.999996423721
280,82,68991,2,0,L|245:218,1,134.999996423721,4|0,0:0|0:0,0:0:0:0:
246,212,69336,2,0,L|304:86,1,134.999996423721
377,97,69680,2,0,L|432:235,1,134.999996423721,8|0,0:0|0:0,0:0:0:0:
426,222,70025,2,0,L|407:69,1,134.999996423721
464,48,70370,2,0,B|430:59|396:70|384:104|373:138|362:172|350:206|316:217|282:229|249:240|215:251|203:285|192:319,1,359.999990463257,4|8,0:0|0:0,0:0:0:0:
32,224,71405,5,0,0:0:0:0:
112,224,71577,1,0,0:0:0:0:
48,176,71749,1,4,0:0:0:0:
96,176,71922,1,0,0:0:0:0:
32,128,72094,1,0,0:0:0:0:
112,128,72267,1,0,0:0:0:0:
48,80,72439,1,8,0:0:0:0:
96,80,72611,1,0,0:0:0:0:
32,32,72784,1,0,0:0:0:0:
112,32,72956,1,0,0:0:0:0:
288,64,73129,6,0,P|336:64|240:112,1,359.999990463257,4|8,0:0|0:0,0:0:0:0:
311,135,74163,1,0,0:0:0:0:
287,313,74508,6,0,L|230:180,1,134.999996423721,4|0,0:0|0:0,0:0:0:0:
191,173,74853,2,0,L|134:40,1,134.999996423721
96,29,75198,2,0,B|49:69|17:209|146:309,1,314.99999165535,8|0,0:0|0:0,0:0:0:0:
186,306,75887,2,0,B|216:263|216:263|153:228|81:117|143:47|272:31,1,359.999990463257,4|8,0:0|0:0,0:0:0:0:
95,329,77267,5,4,0:0:0:0:
257,48,77956,1,8,0:0:0:0:
419,329,78646,1,4,0:0:0:0:
256,192,84163,6,0,B|248:184|248:184|248:200|248:200|264:200|264:200|264:184|264:184|248:184|248:184|248:200|248:200|264:200,1,107.999997138977,2|0,0:0|0:0,0:0:0:0:
256,192,89680,5,4,0:0:0:0:
249,190,92439,5,0,0:0:0:0:
159,181,92611,2,0,P|178:128|229:106,1,89.9999976158143
294,114,92956,2,0,P|327:154|337:196,2,89.9999976158143
256,192,93473,1,0,0:0:0:0:
256,240,93560,1,0,0:0:0:0:
256,288,93646,1,0,0:0:0:0:
256,192,93818,12,0,94508,0:0:0:0:
404,182,95198,6,0,P|387:121|343:72,1,101.250001180172,4|0,0:0|0:0,0:0:0:0:
330,53,95542,2,0,P|281:38|217:47,1,101.250001180172
199,81,95887,2,0,L|178:150,1,67.5000007867814,8|0,0:0|0:0,0:0:0:0:
149,242,96232,1,0,0:0:0:0:
245,212,96404,2,0,P|185:160|126:157,1,135.000001573563
40,200,96922,2,0,L|57:132,1,67.5000007867814
117,215,97267,5,8,0:0:0:0:
95,313,97439,1,0,0:0:0:0:
192,340,97611,1,0,0:0:0:0:
218,241,97784,1,0,0:0:0:0:
198,107,97956,5,4,0:0:0:0:
288,64,98129,1,0,0:0:0:0:
288,160,98301,1,0,0:0:0:0:
384,112,98473,1,0,0:0:0:0:
480,64,98646,2,0,P|464:176|320:224,2,270.000003147125,8|0|8,0:0|0:0|0:0,0:0:0:0:
384,112,100198,1,0,0:0:0:0:
432,208,100370,1,0,0:0:0:0:
384,304,100542,1,0,0:0:0:0:
248,296,100715,6,0,B|181:296|181:296|111:263,1,135.000001573563,4|0,0:0|0:0,0:0:0:0:
201,207,101232,1,0,0:0:0:0:
139,127,101404,2,0,P|194:104|248:117,1,101.250001180172,8|0,0:0|0:0,0:0:0:0:
111,201,101922,1,0,0:0:0:0:
20,156,102094,2,0,P|63:102|60:38,2,135.000001573563,0|0|8,0:0|0:0|0:0,0:0:0:0:
40,255,102956,5,0,0:0:0:0:
109,180,103129,1,0,0:0:0:0:
203,216,103301,1,0,0:0:0:0:
244,87,103473,5,4,0:0:0:0:
294,175,103646,1,0,0:0:0:0:
375,115,103818,1,0,0:0:0:0:
398,213,103991,1,0,0:0:0:0:
409,313,104163,6,0,P|319:331|120:304,2,270.000003147125,8|0|8,0:0|0:0|0:0,0:0:0:0:
320,256,105715,1,0,0:0:0:0:
218,256,105887,1,0,0:0:0:0:
269,168,106060,1,0,0:0:0:0:
272,52,106232,6,0,L|272:98,1,40.4999976911546
238,130,106577,2,0,L|164:130,2,67.5000007867814,0|0|8,0:0|0:0|0:0,0:0:0:0:
339,130,107094,2,0,L|270:130,1,67.5000007867814
169,130,107439,2,0,P|96:152|68:210,1,135.000001573563
218,338,108129,1,0,0:0:0:0:
309,294,108301,5,8,0:0:0:0:
271,200,108473,1,0,0:0:0:0:
181,248,108646,1,0,0:0:0:0:
141,155,108818,1,0,0:0:0:0:
83,277,108991,5,4,0:0:0:0:
37,186,109163,1,0,0:0:0:0:
135,210,109336,1,0,0:0:0:0:
120,110,109508,1,0,0:0:0:0:
30,62,109680,2,0,B|120:2|205:16|227:104|199:148|171:172,2,270.000003147125,8|0|8,0:0|0:0|0:0,0:0:0:0:
154,221,111404,1,0,0:0:0:0:
405,122,111749,5,4,0:0:0:0:
433,219,111922,1,0,0:0:0:0:
365,293,112094,1,0,0:0:0:0:
269,258,112267,2,0,P|283:216|318:191,1,67.5000007867814,0|8,0:0|0:0,0:0:0:0:
220,137,112611,1,0,0:0:0:0:
118,129,112784,1,0,0:0:0:0:
45,199,112956,1,0,0:0:0:0:
93,288,113129,2,0,P|166:307|221:266,2,135.000001573563,0|0|8,0:0|0:0|0:0,0:0:0:0:
147,202,113991,5,0,0:0:0:0:
120,104,114163,1,0,0:0:0:0:
95,5,114336,1,0,0:0:0:0:
214,66,114508,5,4,0:0:0:0:
243,162,114680,1,0,0:0:0:0:
272,259,114853,1,0,0:0:0:0:
299,356,115025,1,0,0:0:0:0:
371,284,115198,2,0,L|99:359,2,270.000003147125,8|0|8,0:0|0:0|0:0,0:0:0:0:
464,48,117267,5,0,0:0:0:0:
456,263,117611,1,0,0:0:0:0:
389,57,117956,1,0,0:0:0:0:
359,271,118301,1,0,0:0:0:0:
316,59,118646,1,0,0:0:0:0:
259,267,118991,1,0,0:0:0:0:
245,51,119336,1,0,0:0:0:0:
158,248,119680,1,0,0:0:0:0:
153,158,119853,1,0,0:0:0:0:
148,68,120025,1,0,0:0:0:0:
35,252,120370,5,0,0:0:0:0:
93,44,120715,1,0,0:0:0:0:
106,259,121060,1,0,0:0:0:0:
189,60,121404,1,0,0:0:0:0:
178,275,121749,1,0,0:0:0:0:
286,87,122094,1,0,0:0:0:0:
250,300,122439,1,0,0:0:0:0:
256,132,122784,5,0,0:0:0:0:
256,252,122956,1,0,0:0:0:0:
280,136,123129,5,0,0:0:0:0:
229,246,123301,1,0,0:0:0:0:
301,152,123473,5,0,0:0:0:0:
209,231,123645,1,0,0:0:0:0:
312,176,123818,5,0,0:0:0:0:
197,207,123990,1,0,0:0:0:0:
314,202,124163,5,0,0:0:0:0:
196,180,124335,1,0,0:0:0:0:
304,226,124508,5,0,0:0:0:0:
205,156,124680,1,0,0:0:0:0:
285,243,124853,5,0,0:0:0:0:
225,139,125025,1,0,0:0:0:0:
260,252,125198,5,0,0:0:0:0:
250,131,125370,1,0,0:0:0:0:
256,352,125542,5,0,0:0:0:0:
256,304,125629,1,0,0:0:0:0:
256,256,125715,1,0,0:0:0:0:
256,208,125801,1,0,0:0:0:0:
256,176,125887,1,0,0:0:0:0:
256,144,125973,1,0,0:0:0:0:
256,112,126060,1,0,0:0:0:0:
256,80,126146,1,0,0:0:0:0:
256,48,126232,1,0,0:0:0:0:
256,16,126318,1,0,0:0:0:0:
256,16,126404,6,0,B|229:53|229:53|261:61|261:61|238:112|238:112|272:186|272:186|253:224|253:224|272:263|272:263|256:320,1,359.999990463257
179,270,127956,2,0,L|164:317,3,44.9999988079071
254,56,128301,6,0,P|395:120|456:231,1,270.000003147125,4|8,0:0|0:0,0:0:0:0:
69,331,128990,1,4,0:0:0:0:
262,340,129163,1,0,0:0:0:0:
80,251,129335,1,8,0:0:0:0:
281,247,129507,1,0,0:0:0:0:
88,180,129680,1,4,0:0:0:0:
287,151,129852,1,0,0:0:0:0:
88,109,130025,1,8,0:0:0:0:
282,53,130197,1,0,0:0:0:0:
80,38,130369,1,4,0:0:0:0:
158,225,130542,1,0,0:0:0:0:
328,116,130714,2,0,P|367:185|370:262,1,135.000001573563,8|0,0:0|0:0,0:0:0:0:
106,288,131059,6,0,P|178:171|294:130,1,202.500002360344,4|0,0:0|0:0,0:0:0:0:
232,141,131404,2,0,P|149:197|105:287,1,202.500002360344,8|0,0:0|0:0,0:0:0:0:
207,291,131749,1,4,0:0:0:0:
405,328,131921,1,0,0:0:0:0:
389,125,132094,1,8,0:0:0:0:
331,318,132266,1,0,0:0:0:0:
462,164,132438,1,4,0:0:0:0:
277,249,132611,1,0,0:0:0:0:
352,61,132783,1,8,0:0:0:0:
175,161,132956,1,0,0:0:0:0:
376,177,133128,1,4,0:0:0:0:
242,330,133301,1,0,0:0:0:0:
85,202,133473,2,0,P|97:121|151:68,2,135.000001573563,8|0|4,0:0|0:0|0:0,0:0:0:0:
101,276,134163,5,8,0:0:0:0:
448,70,134507,5,4,0:0:0:0:
473,271,134680,1,0,0:0:0:0:
262,315,134852,1,8,0:0:0:0:
263,98,135025,1,0,0:0:0:0:
129,284,135197,1,4,0:0:0:0:
113,55,135369,1,0,0:0:0:0:
356,37,135542,1,8,0:0:0:0:
399,275,135714,1,0,0:0:0:0:
155,191,135887,1,4,0:0:0:0:
403,131,136059,2,0,L|269:164,2,135.000001573563,0|8|0,0:0|0:0|0:0,0:0:0:0:
208,320,136576,5,4,0:0:0:0:
208,64,136878,2,0,L|208:96,1,26.9999984607697,0|8,0:0|0:0,0:0:0:0:
304,64,137266,1,4,0:0:0:0:
304,320,137568,2,0,L|304:288,1,26.9999984607697,0|8,0:0|0:0,0:0:0:0:
144,144,137956,5,8,0:0:0:0:
256,160,138128,1,4,0:0:0:0:
368,176,138301,1,4,0:0:0:0:
144,224,138473,5,8,0:0:0:0:
256,240,138645,1,4,0:0:0:0:
368,256,138818,1,4,0:0:0:0:
232,192,139335,6,2,L|276:192,8,44.9999988079071
64,320,140024,5,8,0:0:0:0:
96,304,140110,1,0,0:0:0:0:
128,288,140197,1,0,0:0:0:0:
160,272,140283,1,0,0:0:0:0:
192,256,140369,1,0,0:0:0:0:
224,240,140455,1,0,0:0:0:0:
256,224,140541,1,0,0:0:0:0:
288,208,140628,1,0,0:0:0:0:
256,192,140714,5,4,0:0:0:0:
224,176,140800,1,0,0:0:0:0:
192,160,140886,1,0,0:0:0:0:
160,144,140972,1,0,0:0:0:0:
128,128,141059,1,0,0:0:0:0:
96,112,141145,1,0,0:0:0:0:
64,96,141231,1,0,0:0:0:0:
32,80,141317,1,0,0:0:0:0:
64,64,141403,2,0,L|208:64,3,135.000001573563,8|0|0|0,0:0|0:0|0:0|0:0,0:0:0:0:
272,64,142093,6,2,L|272:112,8,44.9999988079071
448,64,142783,5,0,0:0:0:0:
432,96,142869,1,0,0:0:0:0:
416,128,142955,1,0,0:0:0:0:
400,160,143041,1,0,0:0:0:0:
384,192,143128,1,0,0:0:0:0:
368,224,143214,1,0,0:0:0:0:
352,256,143300,1,0,0:0:0:0:
336,288,143386,1,0,0:0:0:0:
320,256,143472,5,4,0:0:0:0:
304,224,143559,1,0,0:0:0:0:
288,192,143645,1,0,0:0:0:0:
272,160,143731,1,0,0:0:0:0:
256,128,143817,1,0,0:0:0:0:
240,96,143903,1,0,0:0:0:0:
224,64,143990,1,0,0:0:0:0:
208,32,144076,1,0,0:0:0:0:
192,64,144162,2,0,B|176:107|176:107|131:106|131:106|106:160,1,134.999996423721,8|0,0:0|0:0,0:0:0:0:
96,224,144852,6,2,L|144:224,8,44.9999988079071
170,336,145541,5,8,0:0:0:0:
203,333,145628,1,0,0:0:0:0:
236,327,145714,1,0,0:0:0:0:
267,314,145800,1,0,0:0:0:0:
297,299,145886,1,0,0:0:0:0:
325,280,145972,1,0,0:0:0:0:
353,260,146059,1,0,0:0:0:0:
378,238,146145,1,0,0:0:0:0:
401,213,146231,5,4,0:0:0:0:
415,182,146317,1,0,0:0:0:0:
426,150,146403,1,0,0:0:0:0:
421,116,146490,1,0,0:0:0:0:
406,85,146576,1,0,0:0:0:0:
381,61,146662,1,0,0:0:0:0:
350,46,146748,1,0,0:0:0:0:
315,44,146835,1,0,0:0:0:0:
281,49,146921,2,0,P|212:63|161:104,3,135.000001573563,8|0|0|0,0:0|0:0|0:0|0:0,0:0:0:0:
64,304,147610,5,4,0:0:0:0:
352,256,147912,2,0,L|348:227,1,28.124999254942
64,64,148300,1,8,0:0:0:0:
240,304,148602,2,0,L|281:310,1,28.124999254942
448,64,148990,1,4,0:0:0:0:
160,112,149291,2,0,L|152:143,1,28.124999254942
256,192,149679,12,4,150369,0:0:0:0:
256,192,151059,5,8,0:0:0:0:
76,189,151403,2,0,P|88:113|137:71,1,134.999996423721
184,68,151748,2,0,L|356:85,1,168.749995529652,4|0,0:0|0:0,0:0:0:0:
351,84,152093,2,0,L|191:138,1,168.749995529652
166,208,152438,2,0,L|312:210,1,134.999996423721,8|0,0:0|0:0,0:0:0:0:
305,211,152783,2,0,L|175:127,1,134.999996423721
80,112,153128,2,0,B|64:144|64:144|96:176|96:176|64:208|64:208|96:240|96:240|64:272|64:272|96:304|96:304|80:336|80:336,1,270.000003147125,4|8,0:0|0:0,0:0:0:0:
224,320,154162,5,0,0:0:0:0:
288,320,154335,1,0,0:0:0:0:
160,192,154507,5,4,0:0:0:0:
160,256,154679,1,0,0:0:0:0:
224,192,154852,1,0,0:0:0:0:
224,256,155024,1,0,0:0:0:0:
288,192,155197,1,8,0:0:0:0:
288,256,155369,1,0,0:0:0:0:
352,192,155541,1,0,0:0:0:0:
352,256,155714,1,0,0:0:0:0:
416,224,155886,2,0,B|495:132|396:35|373:116|299:148|332:24|249:16|140:32|171:127,1,359.999990463257,4|8,0:0|0:0,0:0:0:0:
44,148,156921,6,0,P|42:226|65:291,1,134.999996423721
115,287,157266,2,0,B|202:303|202:303|292:271,1,168.749995529652,4|0,0:0|0:0,0:0:0:0:
277,276,157610,2,0,B|209:218|209:218|115:201,1,168.749995529652
118,125,157955,2,0,P|275:54|441:332,1,551.249990653992,8|0,0:0|0:0,0:0:0:0:
387,368,158645,2,0,P|286:365|25:39,1,540.000006294251,4|8,0:0|0:0,0:0:0:0:
160,32,159507,1,0,0:0:0:0:
160,166,159679,1,0,0:0:0:0:
279,101,159852,1,0,0:0:0:0:
391,103,160024,6,0,B|413:217|413:217|336:306|188:259|131:317,1,393.749989569187,4|0,0:0|0:0,0:0:0:0:
128,323,160714,2,0,B|56:338|22:275|97:194|191:187,1,236.250002753735,8|0,0:0|0:0,0:0:0:0:
256,192,161403,12,0,163990,0:0:0:0:
